Tags
Language
Tags

Atomic Rooster - Nice 'N' Greasy (1973) [2016, Belle Antique BELLE-162592, Japan]

Posted By: v3122
Atomic Rooster - Nice 'N' Greasy (1973) [2016, Belle Antique BELLE-162592, Japan]

Atomic Rooster - Nice 'N' Greasy (1973)
EAC | Flac(Image) + Cue + Log & MP3 CBR 320Kbps
Belle Antique, BELLE-162592 | ~ 414 or 139 Mb | Scans(png) -> 103 Mb
Psychedelic Rock, Progressive Rock

Atomic Rooster experienced several lineup changes during their initial tenure in the early '70s, with Nice 'n' Greasy being the band's last before disbanding. By this time the band's musical direction had shifted from hard rock and progressive rock to a style more closely resembling blues/funk. The addition of Chris Farlowe gives the music an aggressive edge, while John Mandella's guitar work beckons images of John McLaughlin. The effort is genuine, and songs such as "Take One Toke" and "Can't Find a Reason" show the band's diversity, but there are too many inconsistent moments and nonsensical lyrics. It's too bad that Vincent Crane did not keep the band together for longer period of time, as they were obviously a talented group of musicians with a definitive sound, just lacking a firm direction.

by Robert Taylor, AMG
Atomic Rooster - Nice 'N' Greasy (1973):

Atomic Rooster - Nice 'N' Greasy (1973) [2016, Belle Antique BELLE-162592, Japan]

Tracklist:

01. All Across The Country 05:10
02. Save Me 03:14
03. Voodoo In You 07:04
04. Goodbye Planet Earth 04:10
05. Take One Take 05:03
06. Can't Find A Reason 04:35
07. Ear In The Snow 06:13
08. Satan's Wheel 06:46

Bonus Tracks:
09. What You Gonna Do? 05:25
10. Moods 04:22
11. The Devi's Answer 04:10
12. Throw Your Life Away 02:49

Musicians:

Vincent Crane - Hammond organ, electric piano, piano, ARP synthesizer
Chris Farlowe - vocals
Johnny Mandala - guitars (John Goodsall, under the name Johnny Mandala)
Ric Parnell - drums, percussion


Exact Audio Copy V1.1 from 23. June 2015

EAC extraction logfile from 11. August 2016, 20:09

Atomic Rooster / Nice 'N' Greasy SHM-CD

Used drive : PLEXTOR BD-R PX-B950SA Adapter: 1 ID: 1

Read mode : Secure
Utilize accurate stream : Yes
Defeat audio cache : Yes
Make use of C2 pointers : No

Read offset correction : 6
Overread into Lead-In and Lead-Out : No
Fill up missing offset samples with silence : Yes
Delete leading and trailing silent blocks : No
Null samples used in CRC calculations : Yes
Used interface : Native Win32 interface for Win NT & 2000

Used output format : Internal WAV Routines
Sample format : 44.100 Hz; 16 Bit; Stereo


TOC of the extracted CD

Track | Start | Length | Start sector | End sector
––––––––––––––––––––––––––––-
1 | 0:00.00 | 5:10.30 | 0 | 23279
2 | 5:10.30 | 3:14.13 | 23280 | 37842
3 | 8:24.43 | 7:04.59 | 37843 | 69701
4 | 15:29.27 | 4:10.60 | 69702 | 88511
5 | 19:40.12 | 5:03.55 | 88512 | 111291
6 | 24:43.67 | 4:35.19 | 111292 | 131935
7 | 29:19.11 | 6:13.14 | 131936 | 159924
8 | 35:32.25 | 6:46.55 | 159925 | 190429
9 | 42:19.05 | 5:25.18 | 190430 | 214822
10 | 47:44.23 | 4:22.58 | 214823 | 234530
11 | 52:07.06 | 4:10.03 | 234531 | 253283
12 | 56:17.09 | 2:49.32 | 253284 | 265990


Range status and errors

Selected range

Filename C:\Users\Meijin\Desktop\ALLexxess\Atomic Rooster\1973 Nice 'N' Greasy (Mini LP SHM-CD Belle Japan 2016)\Atomic Rooster - Nice 'N' Greasy SHM-CD.wav

Peak level 96.8 %
Extraction speed 7.3 X
Range quality 100.0 %
Test CRC 97AE5848
Copy CRC 97AE5848
Copy OK

No errors occurred


AccurateRip summary

Track 1 not present in database
Track 2 not present in database
Track 3 not present in database
Track 4 not present in database
Track 5 not present in database
Track 6 not present in database
Track 7 not present in database
Track 8 not present in database
Track 9 not present in database
Track 10 not present in database
Track 11 not present in database
Track 12 not present in database

None of the tracks are present in the AccurateRip database

End of status report

–– CUETools DB Plugin V2.1.6

[CTDB TOCID: ziVZ6lyYfFogckFdA4a5ZSJwOQU-] disk not present in database
Submit result: ziVZ6lyYfFogckFdA4a5ZSJwOQU- has been uploaded


==== Log checksum 4805AAFFF2FE139110F9DA8CE50A7E239C195B26AAEFAFA03BC48764A246EBB3 ====

foobar2000 1.2.9 / Dynamic Range Meter 1.1.1
log date: 2016-08-22 12:03:07

––––––––––––––––––––––––––––––––––––––––
Analyzed: Atomic Rooster / Nice 'N' Greasy SHM-CD
––––––––––––––––––––––––––––––––––––––––

DR Peak RMS Duration Track
––––––––––––––––––––––––––––––––––––––––
DR6 -0.28 dB -7.60 dB 5:10 01-All Across The Country
DR6 -0.28 dB -7.24 dB 3:14 02-Save Me
DR7 -0.28 dB -9.12 dB 7:05 03-Voodoo In You
DR6 -0.28 dB -8.22 dB 4:11 04-Goodbye Planet Earth
DR7 -0.28 dB -10.08 dB 5:04 05-Take On The Toke
DR7 -0.28 dB -11.53 dB 4:35 06-Can't Find A Reason
DR6 -0.28 dB -8.22 dB 6:13 07-Ear In The Snow
DR5 -0.28 dB -7.51 dB 6:47 08-Satan's Wheel
DR5 -0.28 dB -6.52 dB 5:25 09-What You Gonna Do? / Bonus Track
DR7 -0.28 dB -9.44 dB 4:23 10-Moods / Bonus Track
DR5 -0.28 dB -7.23 dB 4:10 11-The Devi's Answer / Bonus Track
DR6 -0.28 dB -6.99 dB 2:49 12-Throw Your Life Away / Bonus Track
––––––––––––––––––––––––––––––––––––––––

Number of tracks: 12
Official DR value: DR6

Samplerate: 44100 Hz
Channels: 2
Bits per sample: 16
Bitrate: 929 kbps
Codec: FLAC

[CUETools log; Date: 22.08.2016 11:59:12; Version: 2.1.4]
[CTDB TOCID: ziVZ6lyYfFogckFdA4a5ZSJwOQU-] found.
Track | CTDB Status
1 | (1/1) Accurately ripped
2 | (1/1) Accurately ripped
3 | (1/1) Accurately ripped
4 | (1/1) Accurately ripped
5 | (1/1) Accurately ripped
6 | (1/1) Accurately ripped
7 | (1/1) Accurately ripped
8 | (1/1) Accurately ripped
9 | (1/1) Accurately ripped
10 | (1/1) Accurately ripped
11 | (1/1) Accurately ripped
12 | (1/1) Accurately ripped
[AccurateRip ID: 001b2f2d-00feb0c2-9e0dda0c] disk not present in database.

Track Peak [ CRC32 ] [W/O NULL] [ LOG ]
– 96,8 [97AE5848] [ED18A55D] CRC32
01 96,8 [59347657] [857F1120]
02 96,8 [B8D96C8F] [106B33EB]
03 96,8 [8D6042D1] [933B9B9D]
04 96,8 [A3734DC2] [D419967B]
05 96,8 [10D0FC6E] [E6713E1E]
06 96,8 [96337E53] [7E184B1D]
07 96,8 [070229B5] [9402485F]
08 96,8 [FB048C29] [BB22C1E8]
09 96,8 [0A711E07] [577EA885]
10 96,8 [71565B6D] [2C4BD65B]
11 96,8 [5D73B16A] [F519E78E]
12 96,8 [1B257001] [49A3DCAB]

Atomic Rooster - Nice 'N' Greasy (1973) [2016, Belle Antique BELLE-162592, Japan]

All thanks go to Allexxess

Atomic Rooster in my Blog

Download Atomic Rooster - Nice 'N' Greasy (1973):