Subcategories

Barclay James Harvest - Taking Some Time On: The Parlophone-Harvest Years (1968-73) (2011) [5 CD Set]

Posted By: Andi_Deris
Barclay James Harvest - Taking Some Time On: The Parlophone-Harvest Years (1968-73) (2011) [5 CD Set]

Barclay James Harvest - Taking Some Time On: The Parlophone-Harvest Years (1968-73) (2011) [5 CD Set]
EAC Rip | FLAC: Tracks+Cue+Log | 1.8 Gb | MP3 CBR 320 kbps | 743 Mb | Time: 05:17:57
EMI/Harvest | SHTW 802
Classic Rock, Progressive Rock, Art Rock, Folk Rock, Symphonic Prog

2011 five CD set from the British Rock veterans. BJH recorded four albums for Harvest: Their First Album (1970), Once Again (1971), And Other Stories (1971) and Baby James Harvest (1972). Across five discs, each album is augmented by rare bonus tracks, demos, non-LP singles and b-sides, album outtakes and BBC live sessions, including four previously unreleased tracks recorded for Bob Harris's radio show in October 1972.

Barclay James Harvest - Taking Some Time On: The Parlophone-Harvest Years (1968-73) (2011) [5 CD Set]




DISC ONE
01:00:56

Parlophone 45 R 5693 (28th April 1968)
01. Early Morning (Single A side) (02:34)
02. Mr. Sunshine (Single B side) (02:54)
BBC Top Gear Session (Recorded: 23rd April 1968/Transmitted: 5th May 1968)
03. So Tomorrow (03:28)
04. Eden Unobtainable (03:10)
05. Eden Unobtainable (1968 Version) (03:04)
BBC Top Gear Session (Recorded: 30th July1968/Transmitted: 4th August 1968)
06. Night (03:20)
07. Pools Of Blue (03:29)
08. Need You Oh So Bad (01:18)
09. Small Time Town (02:12)
10. Dark Now My Sky (03:43)
Harvest 45 HAR 5003 (20th June 1969)
11. Brother Thrush (Single A side) (03:06)
12. Poor Wages (Single B side) (02:32)
13. Mocking Bird (1970 Version) (06:17)
Their First Album (Harvest SHVL 770 - 5th June 1970)
Side One

14. Taking Some Time On (05:31)
15. Mother Dear (03:21)
16. The Sun Will Never Shine (05:08)
17. When The World Was Woken (05:48)

DISC TWO
01:02:42

Their First Album (Harvest SHVL 770 - 5th June 1970)
Side Two

01. Good Love Child (05:11)
02. The Iron Maiden (02:43)
03. Dark Now My Sky (11:59)
Their First Album Bonus Track
04. I Can't Go On Without You (02:14)
Once Again (Harvest SHVL 788 - 5th February 1971)
05. She Said (08:21)
06. Happy Orld World (04:41)
07. Song For Dying (05:02)
08. Galadriel (03:15)
09. Mocking Bird (06:39)
10. Vanessa Simmons (03:46)
11. Ball And Chain (04:49)
12. Lady Loves (04:02)

DISC THREE
01:06:38

Once Again Bonus Tracks
01. Introduction - White Sails (A Seascape) (01:45)
02. Too Much On Your Plate (05:31)
03. Galadriel (Non-Orchestral version) (03:12)
04. Happy Old World (Take One) (04:41)
05. Song For Dying (Full version) (07:20)
06. Mocking Bird (Extended Non-Orchestral version) (08:11)
07. Dark Now My Sky (Live) (09:41)
BBC Bob Harris Session (Recorded : 29th June 1971/Transmitted: 5th July 1971)
08. Galadriel (03:06)
09. She Said (08:42)
10. Someone There You Know (03:47)
11. Ursula (The Swansea Song) (02:54)
12. Medicine Man (07:49)

DISC FOUR
01:07:05

And Other Short Stories (Harvest SHVL 794 - 5th November 1971)
01. Medicine Man (03:59)
02. Someone There You Know (03:49)
03. Harry's Song (03:55)
04. Ursula (The Swansea Song) (02:55)
05. Little Lapwing (05:00)
06. Song With No Meaning (04:23)
07. Blue John's Blues (06:50)
08. The Poet (04:55)
09. After The Day (04:49)
And Other Short Stories Bonus Tracks
10. Brave New World (Demo) (03:58)
11. Child Of Man (03:36)
Harvest 45 HAR 5051 (28th April 1972)
12. I'm Over You (Single A side) (03:51)
13. Child Of Man (Single B side) (03:20)
Harvest 45 HAR 5056 (29th September 1972)
14. Breathless (Single A side) (03:06)
15. When The City Sleeps (Single B side) (04:12)
Harvest 45 HAR 5058 (20th October 1972)
16. Medicine Man (Single B side) (04:28)

DISC FIVE
01:00:41

Bob Harris Session (Recording Date Unknown/Transmitted: 9th October 1972)
01. One Hundred Thousand Smiles Out (05:11)
02. Delph Town Morn (03:48)
03. Thank You (03:09)
Baby James Harvest (Harvest SHSP 4023 - 10th November 1972)
04. Crazy Over (You) (04:17)
05. Delph Town Morn (04:49)
06. Summer Soldier (10:28)
07. Thank You (04:24)
08. One Hundred Thousand Smiles Out (06:05)
09. Moonwater (07:20)
Baby James Harvest Bonus Tracks
10. Thank You (Alternate Version) (04:27)
Harvest 45 HAR 5068 (4th May 1973)
11. Rock And Roll Woman (Single A side) (03:15)
12. The Joker (Single B side) (03:29)

Notes

The music of the early years strongly resembles the music made by The Bee Gees and The Beatles of which the latter released their albums on the Parlophone-label as well.

Barclay James Harvest was founded in Saddleworth, Yorkshire, UK in September 1966 by John Lees (vocals, guitars), Les Holroyd (bass, guitars, keyboards, vocals), Stuart 'Woolly' Wolstenholme (1947-2010, vocals, Mellotron, keyboards, guitars) and Mel Pritchard (1948-2004, drums, percussion). They signed a record contract with EMI's Parlophone-label for one single in early 1968, but soon they moved to the progressive Harvest-label. Their eponymous debut album was released mid-1970 and got positive reviews, but few sales. The second album Once Again (1971) gained more favourable reviews. For this album they toured with a classical orchestra conducted by Robert John Godfrey (The Enid). The third album Barclay James Harvest And Other Short Stories (1971) was an even bigger achievement. This time Martyn Ford had the supervision of the orchestral arrangements. Godfrey departed after writing issues about Mockingbird, one of the group's most popular songs. At the release of their fourth album Baby James Harvest (1972) the pressure of touring was beginning to show on the band members' creativity. The album's inconsistency was noticed by both their fans and the critics. After this album they left EMI and signed with Polydor which soon resulted in higher sales.


Exact Audio Copy V1.0 beta 3 from 29. August 2011

EAC extraction logfile from 18. March 2012, 2:11

Barclay James Harvest / Taking Some Time On (The Parlophone-Harvest Years (1968-73) (CD 1)

Used drive : TSSTcorpDVD+-RW TS-L633A Adapter: 2 ID: 0

Read mode : Secure
Utilize accurate stream : Yes
Defeat audio cache : Yes
Make use of C2 pointers : No

Read offset correction : 6
Overread into Lead-In and Lead-Out : No
Fill up missing offset samples with silence : Yes
Delete leading and trailing silent blocks : No
Null samples used in CRC calculations : Yes
Used interface : Native Win32 interface for Win NT & 2000
Gap handling : Appended to previous track

Used output format : User Defined Encoder
Selected bitrate : 1024 kBit/s
Quality : High
Add ID3 tag : No
Command line compressor : C:\Program Files\Exact Audio Copy\FLAC\FLAC.EXE
Additional command line options : -8 -V -T "ARTIST=%artist%" -T "TITLE=%title%" -T "ALBUM=%albumtitle%" -T "DATE=%year%" -T "TRACKNUMBER=%tracknr%" -T "GENRE=%genre%" -T "PERFORMER=%albuminterpret%" -T "COMPOSER=%composer%" %haslyrics%–tag-from-file=LYRICS="%lyricsfile%"%haslyrics% -T "ALBUMARTIST=%albumartist%" -T "DISCNUMBER=%cdnumber%" -T "TOTALDISCS=%totalcds%" -T "TOTALTRACKS=%numtracks%" -T "COMMENT=%comment%" %source% -o %dest%


TOC of the extracted CD

Track | Start | Length | Start sector | End sector
––––––––––––––––––––––––––––-
1 | 0:00.00 | 2:34.18 | 0 | 11567
2 | 2:34.18 | 2:54.12 | 11568 | 24629
3 | 5:28.30 | 3:27.72 | 24630 | 40226
4 | 8:56.27 | 3:09.66 | 40227 | 54467
5 | 12:06.18 | 3:03.56 | 54468 | 68248
6 | 15:09.74 | 3:19.66 | 68249 | 83239
7 | 18:29.65 | 3:28.58 | 83240 | 98897
8 | 21:58.48 | 1:18.01 | 98898 | 104748
9 | 23:16.49 | 2:12.31 | 104749 | 114679
10 | 25:29.05 | 3:42.52 | 114680 | 131381
11 | 29:11.57 | 3:06.27 | 131382 | 145358
12 | 32:18.09 | 2:32.26 | 145359 | 156784
13 | 34:50.35 | 6:17.24 | 156785 | 185083
14 | 41:07.59 | 5:30.51 | 185084 | 209884
15 | 46:38.35 | 3:20.60 | 209885 | 224944
16 | 49:59.20 | 5:07.45 | 224945 | 248014
17 | 55:06.65 | 5:47.74 | 248015 | 274113


Track 1

Filename E:\eacrips\Barclay James Harvest - 2011 - Taking Some Time On (The Parlophone-Harvest Years (1968-73)\Disc 1\01 Early Morning (Single A side).wav

Pre-gap length 0:00:02.00

Peak level 62.3 %
Extraction speed 2.0 X
Track quality 100.0 %
Test CRC C0B84B41
Copy CRC C0B84B41
Cannot be verified as accurate (confidence 1) [DBEE82CD], AccurateRip returned [2BFAC950] (AR v2)
Copy OK

Track 2

Filename E:\eacrips\Barclay James Harvest - 2011 - Taking Some Time On (The Parlophone-Harvest Years (1968-73)\Disc 1\02 Mr. Sunshine (Single B side).wav

Pre-gap length 0:00:01.93

Peak level 70.6 %
Extraction speed 2.3 X
Track quality 100.0 %
Test CRC CD326BA5
Copy CRC CD326BA5
Cannot be verified as accurate (confidence 1) [1D37F95B], AccurateRip returned [54A01C9B] (AR v2)
Copy OK

Track 3

Filename E:\eacrips\Barclay James Harvest - 2011 - Taking Some Time On (The Parlophone-Harvest Years (1968-73)\Disc 1\03 So Tomorrow.wav

Pre-gap length 0:00:02.28

Peak level 81.7 %
Extraction speed 2.4 X
Track quality 100.0 %
Test CRC D10E125A
Copy CRC D10E125A
Cannot be verified as accurate (confidence 1) [CB19BF03], AccurateRip returned [82D9520A] (AR v2)
Copy OK

Track 4

Filename E:\eacrips\Barclay James Harvest - 2011 - Taking Some Time On (The Parlophone-Harvest Years (1968-73)\Disc 1\04 Eden Unobtainable.wav

Pre-gap length 0:00:01.40

Peak level 77.1 %
Extraction speed 2.2 X
Track quality 99.9 %
Test CRC F25A6A95
Copy CRC F25A6A95
Cannot be verified as accurate (confidence 1) [B3B3FDD0], AccurateRip returned [65ACA282] (AR v2)
Copy OK

Track 5

Filename E:\eacrips\Barclay James Harvest - 2011 - Taking Some Time On (The Parlophone-Harvest Years (1968-73)\Disc 1\05 Eden Unobtainable (1968 Version).wav

Pre-gap length 0:00:01.85

Peak level 63.0 %
Extraction speed 2.7 X
Track quality 100.0 %
Test CRC 5B54E907
Copy CRC 5B54E907
Cannot be verified as accurate (confidence 1) [85B3A9D7], AccurateRip returned [BA9E6793] (AR v2)
Copy OK

Track 6

Filename E:\eacrips\Barclay James Harvest - 2011 - Taking Some Time On (The Parlophone-Harvest Years (1968-73)\Disc 1\06 Night.wav

Pre-gap length 0:00:02.24

Peak level 85.3 %
Extraction speed 2.9 X
Track quality 100.0 %
Test CRC 142E87E9
Copy CRC 142E87E9
Cannot be verified as accurate (confidence 1) [FF1E2966], AccurateRip returned [AAD1FA28] (AR v2)
Copy OK

Track 7

Filename E:\eacrips\Barclay James Harvest - 2011 - Taking Some Time On (The Parlophone-Harvest Years (1968-73)\Disc 1\07 Pools Of Blue.wav

Pre-gap length 0:00:03.96

Peak level 79.8 %
Extraction speed 3.0 X
Track quality 100.0 %
Test CRC 74C9BCDB
Copy CRC 74C9BCDB
Cannot be verified as accurate (confidence 1) [1DED192A], AccurateRip returned [B2828D0A] (AR v2)
Copy OK

Track 8

Filename E:\eacrips\Barclay James Harvest - 2011 - Taking Some Time On (The Parlophone-Harvest Years (1968-73)\Disc 1\08 Need You Oh So Bad.wav

Pre-gap length 0:00:02.36

Peak level 72.3 %
Extraction speed 1.6 X
Track quality 99.8 %
Test CRC 4B16499B
Copy CRC 4B16499B
Cannot be verified as accurate (confidence 1) [D14D6524], AccurateRip returned [6CF5FD7A] (AR v2)
Copy OK

Track 9

Filename E:\eacrips\Barclay James Harvest - 2011 - Taking Some Time On (The Parlophone-Harvest Years (1968-73)\Disc 1\09 Small Time Town.wav

Pre-gap length 0:00:02.92

Peak level 72.5 %
Extraction speed 2.9 X
Track quality 100.0 %
Test CRC 85DA245B
Copy CRC 85DA245B
Cannot be verified as accurate (confidence 1) [F9F8D5C6], AccurateRip returned [15AF678D] (AR v2)
Copy OK

Track 10

Filename E:\eacrips\Barclay James Harvest - 2011 - Taking Some Time On (The Parlophone-Harvest Years (1968-73)\Disc 1\10 Dark Now My Sky.wav

Pre-gap length 0:00:01.61

Peak level 85.8 %
Extraction speed 3.2 X
Track quality 100.0 %
Test CRC 2751D7D2
Copy CRC 2751D7D2
Cannot be verified as accurate (confidence 1) [741B6E55], AccurateRip returned [F25D704F] (AR v2)
Copy OK

Track 11

Filename E:\eacrips\Barclay James Harvest - 2011 - Taking Some Time On (The Parlophone-Harvest Years (1968-73)\Disc 1\11 Brother Thrush (Single A side).wav

Pre-gap length 0:00:02.21

Peak level 71.3 %
Extraction speed 3.2 X
Track quality 100.0 %
Test CRC C2521489
Copy CRC C2521489
Cannot be verified as accurate (confidence 1) [5C6DE22D], AccurateRip returned [193FC047] (AR v2)
Copy OK

Track 12

Filename E:\eacrips\Barclay James Harvest - 2011 - Taking Some Time On (The Parlophone-Harvest Years (1968-73)\Disc 1\12 Poor Wages (Single B side).wav

Pre-gap length 0:00:00.26

Peak level 76.8 %
Extraction speed 3.3 X
Track quality 100.0 %
Test CRC 9FA216DC
Copy CRC 9FA216DC
Cannot be verified as accurate (confidence 1) [3C48B0D7], AccurateRip returned [656AC495] (AR v2)
Copy OK

Track 13

Filename E:\eacrips\Barclay James Harvest - 2011 - Taking Some Time On (The Parlophone-Harvest Years (1968-73)\Disc 1\13 Mocking Bird (1070 Version).wav

Pre-gap length 0:00:01.86

Peak level 90.5 %
Extraction speed 3.7 X
Track quality 100.0 %
Test CRC 47E0D67C
Copy CRC 47E0D67C
Cannot be verified as accurate (confidence 1) [E6BC5B9D], AccurateRip returned [D234685B] (AR v2)
Copy OK

Track 14

Filename E:\eacrips\Barclay James Harvest - 2011 - Taking Some Time On (The Parlophone-Harvest Years (1968-73)\Disc 1\14 Taking Some Time On.wav

Pre-gap length 0:00:02.29

Peak level 82.9 %
Extraction speed 3.5 X
Track quality 99.9 %
Test CRC 255DE8F2
Copy CRC 255DE8F2
Cannot be verified as accurate (confidence 1) [0D1B572A], AccurateRip returned [9C379E0C] (AR v2)
Copy OK

Track 15

Filename E:\eacrips\Barclay James Harvest - 2011 - Taking Some Time On (The Parlophone-Harvest Years (1968-73)\Disc 1\15 Mother Dear.wav

Pre-gap length 0:00:01.30

Peak level 70.3 %
Extraction speed 3.8 X
Track quality 100.0 %
Test CRC A40155C2
Copy CRC A40155C2
Cannot be verified as accurate (confidence 1) [66DAEBAB], AccurateRip returned [3FD77F4C] (AR v2)
Copy OK

Track 16

Filename E:\eacrips\Barclay James Harvest - 2011 - Taking Some Time On (The Parlophone-Harvest Years (1968-73)\Disc 1\16 The Sun Will Never Shine.wav

Pre-gap length 0:00:03.46

Peak level 88.6 %
Extraction speed 4.3 X
Track quality 100.0 %
Test CRC 1073D40E
Copy CRC 1073D40E
Cannot be verified as accurate (confidence 1) [DB236F7B], AccurateRip returned [4636710B] (AR v2)
Copy OK

Track 17

Filename E:\eacrips\Barclay James Harvest - 2011 - Taking Some Time On (The Parlophone-Harvest Years (1968-73)\Disc 1\17 When The World Was Woken.wav

Pre-gap length 0:00:02.85

Peak level 84.9 %
Extraction speed 4.4 X
Track quality 100.0 %
Test CRC 920C005C
Copy CRC 920C005C
Cannot be verified as accurate (confidence 1) [51631368], AccurateRip returned [D587ED28] (AR v2)
Copy OK


No tracks could be verified as accurate
You may have a different pressing from the one(s) in the database

No errors occurred

End of status report

==== Log checksum B8DDC0197EFE6098ED88F5C09ABB8CAFC1F11397E606064516022A1390116834 ====

Exact Audio Copy V1.0 beta 3 from 29. August 2011

EAC extraction logfile from 18. March 2012, 11:39

Barclay James Harvest / Taking Some Time On (The Parlophone-Harvest Years (1968-73) (CD 2)

Used drive : TSSTcorpDVD+-RW TS-L633A Adapter: 2 ID: 0

Read mode : Secure
Utilize accurate stream : Yes
Defeat audio cache : Yes
Make use of C2 pointers : No

Read offset correction : 6
Overread into Lead-In and Lead-Out : No
Fill up missing offset samples with silence : Yes
Delete leading and trailing silent blocks : No
Null samples used in CRC calculations : Yes
Used interface : Native Win32 interface for Win NT & 2000
Gap handling : Appended to previous track

Used output format : User Defined Encoder
Selected bitrate : 1024 kBit/s
Quality : High
Add ID3 tag : No
Command line compressor : C:\Program Files\Exact Audio Copy\FLAC\FLAC.EXE
Additional command line options : -8 -V -T "ARTIST=%artist%" -T "TITLE=%title%" -T "ALBUM=%albumtitle%" -T "DATE=%year%" -T "TRACKNUMBER=%tracknr%" -T "GENRE=%genre%" -T "PERFORMER=%albuminterpret%" -T "COMPOSER=%composer%" %haslyrics%–tag-from-file=LYRICS="%lyricsfile%"%haslyrics% -T "ALBUMARTIST=%albumartist%" -T "DISCNUMBER=%cdnumber%" -T "TOTALDISCS=%totalcds%" -T "TOTALTRACKS=%numtracks%" -T "COMMENT=%comment%" %source% -o %dest%


TOC of the extracted CD

Track | Start | Length | Start sector | End sector
––––––––––––––––––––––––––––-
1 | 0:00.00 | 5:11.11 | 0 | 23335
2 | 5:11.11 | 2:42.63 | 23336 | 35548
3 | 7:53.74 | 11:59.10 | 35549 | 89483
4 | 19:53.09 | 2:13.59 | 89484 | 99517
5 | 22:06.68 | 8:20.39 | 99518 | 137056
6 | 30:27.32 | 4:40.52 | 137057 | 158108
7 | 35:08.09 | 5:02.13 | 158109 | 180771
8 | 40:10.22 | 3:14.61 | 180772 | 195382
9 | 43:25.08 | 6:39.16 | 195383 | 225323
10 | 50:04.24 | 3:45.56 | 225324 | 242254
11 | 53:50.05 | 4:49.00 | 242255 | 263929
12 | 58:39.05 | 4:01.57 | 263930 | 282061


Track 1

Filename E:\eacrips\Barclay James Harvest - 2011 - Taking Some Time On (The Parlophone-Harvest Years (1968-73)\Disc 2\01 Good Love Child.wav

Pre-gap length 0:00:02.00

Peak level 92.6 %
Extraction speed 2.4 X
Track quality 100.0 %
Test CRC 8E32B796
Copy CRC 8E32B796
Track not present in AccurateRip database
Copy OK

Track 2

Filename E:\eacrips\Barclay James Harvest - 2011 - Taking Some Time On (The Parlophone-Harvest Years (1968-73)\Disc 2\02 The Iron Maiden.wav

Pre-gap length 0:00:03.00

Peak level 71.7 %
Extraction speed 2.4 X
Track quality 100.0 %
Test CRC 76E7F824
Copy CRC 76E7F824
Track not present in AccurateRip database
Copy OK

Track 3

Filename E:\eacrips\Barclay James Harvest - 2011 - Taking Some Time On (The Parlophone-Harvest Years (1968-73)\Disc 2\03 Dark Now My Sky.wav

Pre-gap length 0:00:03.06

Peak level 91.7 %
Extraction speed 3.2 X
Track quality 100.0 %
Test CRC 73CD76DC
Copy CRC 73CD76DC
Track not present in AccurateRip database
Copy OK

Track 4

Filename E:\eacrips\Barclay James Harvest - 2011 - Taking Some Time On (The Parlophone-Harvest Years (1968-73)\Disc 2\04 I Can't Go On Without You.wav

Pre-gap length 0:00:01.89

Peak level 55.2 %
Extraction speed 2.1 X
Track quality 99.9 %
Test CRC 4886F9D9
Copy CRC 4886F9D9
Track not present in AccurateRip database
Copy OK

Track 5

Filename E:\eacrips\Barclay James Harvest - 2011 - Taking Some Time On (The Parlophone-Harvest Years (1968-73)\Disc 2\05 She Said.wav

Pre-gap length 0:00:03.06

Peak level 99.1 %
Extraction speed 3.7 X
Track quality 100.0 %
Test CRC EF4C7E51
Copy CRC EF4C7E51
Track not present in AccurateRip database
Copy OK

Track 6

Filename E:\eacrips\Barclay James Harvest - 2011 - Taking Some Time On (The Parlophone-Harvest Years (1968-73)\Disc 2\06 Happy Orld World.wav

Pre-gap length 0:00:03.77

Peak level 93.4 %
Extraction speed 3.6 X
Track quality 100.0 %
Test CRC 75B104BB
Copy CRC 75B104BB
Track not present in AccurateRip database
Copy OK

Track 7

Filename E:\eacrips\Barclay James Harvest - 2011 - Taking Some Time On (The Parlophone-Harvest Years (1968-73)\Disc 2\07 Song For Dying.wav

Pre-gap length 0:00:03.65

Peak level 96.6 %
Extraction speed 3.9 X
Track quality 100.0 %
Test CRC B37C6345
Copy CRC B37C6345
Track not present in AccurateRip database
Copy OK

Track 8

Filename E:\eacrips\Barclay James Harvest - 2011 - Taking Some Time On (The Parlophone-Harvest Years (1968-73)\Disc 2\08 Galadriel.wav

Pre-gap length 0:00:03.93

Peak level 65.2 %
Extraction speed 3.7 X
Track quality 100.0 %
Test CRC 1E9E5533
Copy CRC 1E9E5533
Track not present in AccurateRip database
Copy OK

Track 9

Filename E:\eacrips\Barclay James Harvest - 2011 - Taking Some Time On (The Parlophone-Harvest Years (1968-73)\Disc 2\09 Mocking Bird.wav

Pre-gap length 0:00:03.32

Peak level 96.1 %
Extraction speed 4.3 X
Track quality 100.0 %
Test CRC 4072CDD9
Copy CRC 4072CDD9
Track not present in AccurateRip database
Copy OK

Track 10

Filename E:\eacrips\Barclay James Harvest - 2011 - Taking Some Time On (The Parlophone-Harvest Years (1968-73)\Disc 2\10 Vanessa Simmons.wav

Pre-gap length 0:00:02.89

Peak level 59.9 %
Extraction speed 3.4 X
Track quality 99.9 %
Test CRC 3EDA744E
Copy CRC 3EDA744E
Track not present in AccurateRip database
Copy OK

Track 11

Filename E:\eacrips\Barclay James Harvest - 2011 - Taking Some Time On (The Parlophone-Harvest Years (1968-73)\Disc 2\11 Ball And Chain.wav

Pre-gap length 0:00:02.97

Peak level 99.1 %
Extraction speed 4.4 X
Track quality 100.0 %
Test CRC 03E3FA1D
Copy CRC 03E3FA1D
Track not present in AccurateRip database
Copy OK

Track 12

Filename E:\eacrips\Barclay James Harvest - 2011 - Taking Some Time On (The Parlophone-Harvest Years (1968-73)\Disc 2\12 Lady Loves.wav

Pre-gap length 0:00:02.25

Peak level 84.1 %
Extraction speed 4.3 X
Track quality 100.0 %
Test CRC 96B35D33
Copy CRC 96B35D33
Track not present in AccurateRip database
Copy OK


None of the tracks are present in the AccurateRip database

No errors occurred

End of status report

==== Log checksum 8DDA2E8BABD2CB6B7B096873F57672BFDEBC8437A73716D50FD45A4B505CA6EE ====

Exact Audio Copy V1.0 beta 3 from 29. August 2011

EAC extraction logfile from 18. March 2012, 19:08

Barclay James Harvest / Taking Some Time On (The Parlophone-Harvest Years (1968-73) (CD 3)

Used drive : TSSTcorpDVD+-RW TS-L633A Adapter: 2 ID: 0

Read mode : Secure
Utilize accurate stream : Yes
Defeat audio cache : Yes
Make use of C2 pointers : No

Read offset correction : 6
Overread into Lead-In and Lead-Out : No
Fill up missing offset samples with silence : Yes
Delete leading and trailing silent blocks : No
Null samples used in CRC calculations : Yes
Used interface : Native Win32 interface for Win NT & 2000
Gap handling : Appended to previous track

Used output format : User Defined Encoder
Selected bitrate : 1024 kBit/s
Quality : High
Add ID3 tag : No
Command line compressor : C:\Program Files\Exact Audio Copy\FLAC\FLAC.EXE
Additional command line options : -8 -V -T "ARTIST=%artist%" -T "TITLE=%title%" -T "ALBUM=%albumtitle%" -T "DATE=%year%" -T "TRACKNUMBER=%tracknr%" -T "GENRE=%genre%" -T "PERFORMER=%albuminterpret%" -T "COMPOSER=%composer%" %haslyrics%–tag-from-file=LYRICS="%lyricsfile%"%haslyrics% -T "ALBUMARTIST=%albumartist%" -T "DISCNUMBER=%cdnumber%" -T "TOTALDISCS=%totalcds%" -T "TOTALTRACKS=%numtracks%" -T "COMMENT=%comment%" %source% -o %dest%


TOC of the extracted CD

Track | Start | Length | Start sector | End sector
––––––––––––––––––––––––––––-
1 | 0:00.00 | 1:44.37 | 0 | 7836
2 | 1:44.37 | 5:30.49 | 7837 | 32635
3 | 7:15.11 | 3:11.66 | 32636 | 47026
4 | 10:27.02 | 4:40.61 | 47027 | 68087
5 | 15:07.63 | 7:20.30 | 68088 | 101117
6 | 22:28.18 | 8:10.70 | 101118 | 137937
7 | 30:39.13 | 9:40.48 | 137938 | 181485
8 | 40:19.61 | 3:06.13 | 181486 | 195448
9 | 43:25.74 | 8:41.64 | 195449 | 234587
10 | 52:07.63 | 3:47.12 | 234588 | 251624
11 | 55:55.00 | 2:54.06 | 251625 | 264680
12 | 58:49.06 | 7:48.44 | 264681 | 299824


Track 1

Filename E:\eacrips\Barclay James Harvest - 2011 - Taking Some Time On (The Parlophone-Harvest Years (1968-73)\Disc 3\01 Introduction - White Sails (A Seascape).wav

Pre-gap length 0:00:02.00

Peak level 47.3 %
Extraction speed 1.8 X
Track quality 100.0 %
Test CRC 71FD7B5B
Copy CRC 71FD7B5B
Track not present in AccurateRip database
Copy OK

Track 2

Filename E:\eacrips\Barclay James Harvest - 2011 - Taking Some Time On (The Parlophone-Harvest Years (1968-73)\Disc 3\02 Too Much On Your Plate.wav

Pre-gap length 0:00:02.24

Peak level 99.1 %
Extraction speed 2.3 X
Track quality 99.9 %
Test CRC F336EA8A
Copy CRC F336EA8A
Track not present in AccurateRip database
Copy OK

Track 3

Filename E:\eacrips\Barclay James Harvest - 2011 - Taking Some Time On (The Parlophone-Harvest Years (1968-73)\Disc 3\03 Galadriel (Non-Orchestral version).wav

Pre-gap length 0:00:04.65

Peak level 79.7 %
Extraction speed 2.1 X
Track quality 99.9 %
Test CRC B6D2675D
Copy CRC B6D2675D
Track not present in AccurateRip database
Copy OK

Track 4

Filename E:\eacrips\Barclay James Harvest - 2011 - Taking Some Time On (The Parlophone-Harvest Years (1968-73)\Disc 3\04 Happy Old World (Take One).wav

Pre-gap length 0:00:00.68

Peak level 88.1 %
Extraction speed 2.9 X
Track quality 100.0 %
Test CRC 4C2B05FC
Copy CRC 4C2B05FC
Track not present in AccurateRip database
Copy OK

Track 5

Filename E:\eacrips\Barclay James Harvest - 2011 - Taking Some Time On (The Parlophone-Harvest Years (1968-73)\Disc 3\05 Song For Dying (Full version).wav

Pre-gap length 0:00:02.40

Peak level 88.3 %
Extraction speed 3.4 X
Track quality 100.0 %
Test CRC 98EE93DD
Copy CRC 98EE93DD
Track not present in AccurateRip database
Copy OK

Track 6

Filename E:\eacrips\Barclay James Harvest - 2011 - Taking Some Time On (The Parlophone-Harvest Years (1968-73)\Disc 3\06 Mocking Bird (Extended Non-Orchestral version).wav

Pre-gap length 0:00:02.37

Peak level 99.1 %
Extraction speed 3.8 X
Track quality 100.0 %
Test CRC 3D37D31F
Copy CRC 3D37D31F
Track not present in AccurateRip database
Copy OK

Track 7

Filename E:\eacrips\Barclay James Harvest - 2011 - Taking Some Time On (The Parlophone-Harvest Years (1968-73)\Disc 3\07 Dark Now My Sky (Live).wav

Pre-gap length 0:00:09.74

Peak level 83.1 %
Extraction speed 3.7 X
Track quality 99.9 %
Test CRC CE374576
Copy CRC CE374576
Track not present in AccurateRip database
Copy OK

Track 8

Filename E:\eacrips\Barclay James Harvest - 2011 - Taking Some Time On (The Parlophone-Harvest Years (1968-73)\Disc 3\08 Galadriel.wav

Pre-gap length 0:00:02.10

Peak level 88.7 %
Extraction speed 3.7 X
Track quality 100.0 %
Test CRC 8BFAD77A
Copy CRC 8BFAD77A
Track not present in AccurateRip database
Copy OK

Track 9

Filename E:\eacrips\Barclay James Harvest - 2011 - Taking Some Time On (The Parlophone-Harvest Years (1968-73)\Disc 3\09 She Said.wav

Pre-gap length 0:00:01.65

Peak level 98.7 %
Extraction speed 4.5 X
Track quality 100.0 %
Test CRC 3EE97BB2
Copy CRC 3EE97BB2
Track not present in AccurateRip database
Copy OK

Track 10

Filename E:\eacrips\Barclay James Harvest - 2011 - Taking Some Time On (The Parlophone-Harvest Years (1968-73)\Disc 3\10 Someone There You Know.wav

Pre-gap length 0:00:01.04

Peak level 99.2 %
Extraction speed 4.1 X
Track quality 100.0 %
Test CRC 73E91DBC
Copy CRC 73E91DBC
Track not present in AccurateRip database
Copy OK

Track 11

Filename E:\eacrips\Barclay James Harvest - 2011 - Taking Some Time On (The Parlophone-Harvest Years (1968-73)\Disc 3\11 Ursula (The Swansea Song).wav

Pre-gap length 0:00:01.66

Peak level 97.7 %
Extraction speed 4.0 X
Track quality 100.0 %
Test CRC C0791253
Copy CRC C0791253
Track not present in AccurateRip database
Copy OK

Track 12

Filename E:\eacrips\Barclay James Harvest - 2011 - Taking Some Time On (The Parlophone-Harvest Years (1968-73)\Disc 3\12 Medicine Man.wav

Pre-gap length 0:00:01.76

Peak level 95.7 %
Extraction speed 4.9 X
Track quality 100.0 %
Test CRC D2E2F6C3
Copy CRC D2E2F6C3
Track not present in AccurateRip database
Copy OK


None of the tracks are present in the AccurateRip database

No errors occurred

End of status report

==== Log checksum 60957DA8853ACBA238F5956D66A558E47B215CD040CE0C12B6B621729B2ADB3E ====

Exact Audio Copy V1.0 beta 3 from 29. August 2011

EAC extraction logfile from 18. March 2012, 20:25

Barclay James Harvest / Taking Some Time On (The Parlophone-Harvest Years (1968-73) (CD 4)

Used drive : TSSTcorpDVD+-RW TS-L633A Adapter: 2 ID: 0

Read mode : Secure
Utilize accurate stream : Yes
Defeat audio cache : Yes
Make use of C2 pointers : No

Read offset correction : 6
Overread into Lead-In and Lead-Out : No
Fill up missing offset samples with silence : Yes
Delete leading and trailing silent blocks : No
Null samples used in CRC calculations : Yes
Used interface : Native Win32 interface for Win NT & 2000
Gap handling : Appended to previous track

Used output format : User Defined Encoder
Selected bitrate : 1024 kBit/s
Quality : High
Add ID3 tag : No
Command line compressor : C:\Program Files\Exact Audio Copy\FLAC\FLAC.EXE
Additional command line options : -8 -V -T "ARTIST=%artist%" -T "TITLE=%title%" -T "ALBUM=%albumtitle%" -T "DATE=%year%" -T "TRACKNUMBER=%tracknr%" -T "GENRE=%genre%" -T "PERFORMER=%albuminterpret%" -T "COMPOSER=%composer%" %haslyrics%–tag-from-file=LYRICS="%lyricsfile%"%haslyrics% -T "ALBUMARTIST=%albumartist%" -T "DISCNUMBER=%cdnumber%" -T "TOTALDISCS=%totalcds%" -T "TOTALTRACKS=%numtracks%" -T "COMMENT=%comment%" %source% -o %dest%


TOC of the extracted CD

Track | Start | Length | Start sector | End sector
––––––––––––––––––––––––––––-
1 | 0:00.00 | 3:58.35 | 0 | 17884
2 | 3:58.35 | 3:48.69 | 17885 | 35053
3 | 7:47.29 | 3:54.48 | 35054 | 52651
4 | 11:42.02 | 2:54.52 | 52652 | 65753
5 | 14:36.54 | 4:59.40 | 65754 | 88218
6 | 19:36.19 | 4:22.36 | 88219 | 107904
7 | 23:58.55 | 6:50.01 | 107905 | 138655
8 | 30:48.56 | 4:55.23 | 138656 | 160803
9 | 35:44.04 | 4:48.52 | 160804 | 182455
10 | 40:32.56 | 3:58.32 | 182456 | 200337
11 | 44:31.13 | 3:36.29 | 200338 | 216566
12 | 48:07.42 | 3:51.17 | 216567 | 233908
13 | 51:58.59 | 3:19.57 | 233909 | 248890
14 | 55:18.41 | 3:06.28 | 248891 | 262868
15 | 58:24.69 | 4:11.65 | 262869 | 281758
16 | 62:36.59 | 4:27.48 | 281759 | 301831


Track 1

Filename E:\eacrips\Barclay James Harvest - 2011 - Taking Some Time On (The Parlophone-Harvest Years (1968-73)\Disc 4\01 Medicine Man.wav

Pre-gap length 0:00:02.00

Peak level 99.1 %
Extraction speed 2.3 X
Track quality 100.0 %
Test CRC BCAD5C64
Copy CRC BCAD5C64
Track not present in AccurateRip database
Copy OK

Track 2

Filename E:\eacrips\Barclay James Harvest - 2011 - Taking Some Time On (The Parlophone-Harvest Years (1968-73)\Disc 4\02 Someone There You Know.wav

Pre-gap length 0:00:04.98

Peak level 82.2 %
Extraction speed 2.5 X
Track quality 100.0 %
Test CRC 5B7859F0
Copy CRC 5B7859F0
Track not present in AccurateRip database
Copy OK

Track 3

Filename E:\eacrips\Barclay James Harvest - 2011 - Taking Some Time On (The Parlophone-Harvest Years (1968-73)\Disc 4\03 Harry's Song.wav

Pre-gap length 0:00:04.29

Peak level 83.2 %
Extraction speed 2.6 X
Track quality 100.0 %
Test CRC 8F24CADA
Copy CRC 8F24CADA
Track not present in AccurateRip database
Copy OK

Track 4

Filename E:\eacrips\Barclay James Harvest - 2011 - Taking Some Time On (The Parlophone-Harvest Years (1968-73)\Disc 4\04 Ursula (The Swansea Song).wav

Pre-gap length 0:00:05.34

Peak level 70.4 %
Extraction speed 2.7 X
Track quality 100.0 %
Test CRC 587C1755
Copy CRC 587C1755
Track not present in AccurateRip database
Copy OK

Track 5

Filename E:\eacrips\Barclay James Harvest - 2011 - Taking Some Time On (The Parlophone-Harvest Years (1968-73)\Disc 4\05 Little Lapwing.wav

Pre-gap length 0:00:02.92

Peak level 99.1 %
Extraction speed 3.2 X
Track quality 100.0 %
Test CRC 3DBF1678
Copy CRC 3DBF1678
Track not present in AccurateRip database
Copy OK

Track 6

Filename E:\eacrips\Barclay James Harvest - 2011 - Taking Some Time On (The Parlophone-Harvest Years (1968-73)\Disc 4\06 Song With No Meaning.wav

Pre-gap length 0:00:05.40

Peak level 57.1 %
Extraction speed 3.2 X
Track quality 100.0 %
Test CRC 4AEFA02A
Copy CRC 4AEFA02A
Track not present in AccurateRip database
Copy OK

Track 7

Filename E:\eacrips\Barclay James Harvest - 2011 - Taking Some Time On (The Parlophone-Harvest Years (1968-73)\Disc 4\07 Blue John's Blues.wav

Pre-gap length 0:00:03.30

Peak level 99.1 %
Extraction speed 3.2 X
Track quality 99.9 %
Test CRC 1CCE04EA
Copy CRC 1CCE04EA
Track not present in AccurateRip database
Copy OK

Track 8

Filename E:\eacrips\Barclay James Harvest - 2011 - Taking Some Time On (The Parlophone-Harvest Years (1968-73)\Disc 4\08 The Poet.wav

Pre-gap length 0:00:03.37

Peak level 46.7 %
Extraction speed 3.7 X
Track quality 100.0 %
Test CRC 89C1177A
Copy CRC 89C1177A
Track not present in AccurateRip database
Copy OK

Track 9

Filename E:\eacrips\Barclay James Harvest - 2011 - Taking Some Time On (The Parlophone-Harvest Years (1968-73)\Disc 4\09 After The Day.wav

Peak level 99.1 %
Extraction speed 3.9 X
Track quality 100.0 %
Test CRC 2800B899
Copy CRC 2800B899
Track not present in AccurateRip database
Copy OK

Track 10

Filename E:\eacrips\Barclay James Harvest - 2011 - Taking Some Time On (The Parlophone-Harvest Years (1968-73)\Disc 4\10 Brave New World (Demo).wav

Pre-gap length 0:00:08.94

Peak level 50.2 %
Extraction speed 3.9 X
Track quality 100.0 %
Test CRC 1257AEEF
Copy CRC 1257AEEF
Track not present in AccurateRip database
Copy OK

Track 11

Filename E:\eacrips\Barclay James Harvest - 2011 - Taking Some Time On (The Parlophone-Harvest Years (1968-73)\Disc 4\11 Child Of Man.wav

Pre-gap length 0:00:01.84

Peak level 92.6 %
Extraction speed 3.9 X
Track quality 100.0 %
Test CRC 571699BB
Copy CRC 571699BB
Track not present in AccurateRip database
Copy OK

Track 12

Filename E:\eacrips\Barclay James Harvest - 2011 - Taking Some Time On (The Parlophone-Harvest Years (1968-73)\Disc 4\12 I'm Over You (Single A side).wav

Pre-gap length 0:00:01.65

Peak level 97.0 %
Extraction speed 3.7 X
Track quality 100.0 %
Test CRC BDE59757
Copy CRC BDE59757
Track not present in AccurateRip database
Copy OK

Track 13

Filename E:\eacrips\Barclay James Harvest - 2011 - Taking Some Time On (The Parlophone-Harvest Years (1968-73)\Disc 4\13 Child Of Man (Single B side).wav

Pre-gap length 0:00:00.94

Peak level 99.0 %
Extraction speed 4.0 X
Track quality 100.0 %
Test CRC 68D9240A
Copy CRC 68D9240A
Track not present in AccurateRip database
Copy OK

Track 14

Filename E:\eacrips\Barclay James Harvest - 2011 - Taking Some Time On (The Parlophone-Harvest Years (1968-73)\Disc 4\14 Breathless (Single A side).wav

Pre-gap length 0:00:01.84

Peak level 99.1 %
Extraction speed 3.8 X
Track quality 100.0 %
Test CRC 3C171F90
Copy CRC 3C171F90
Track not present in AccurateRip database
Copy OK

Track 15

Filename E:\eacrips\Barclay James Harvest - 2011 - Taking Some Time On (The Parlophone-Harvest Years (1968-73)\Disc 4\15 When The City Sleeps (Single B side).wav

Pre-gap length 0:00:00.68

Peak level 97.3 %
Extraction speed 4.4 X
Track quality 100.0 %
Test CRC 7B3D0E72
Copy CRC 7B3D0E72
Track not present in AccurateRip database
Copy OK

Track 16

Filename E:\eacrips\Barclay James Harvest - 2011 - Taking Some Time On (The Parlophone-Harvest Years (1968-73)\Disc 4\16 Medicine Man (Single B side).wav

Pre-gap length 0:00:01.74

Peak level 96.1 %
Extraction speed 4.4 X
Track quality 100.0 %
Test CRC 1C7686A8
Copy CRC 1C7686A8
Track not present in AccurateRip database
Copy OK


None of the tracks are present in the AccurateRip database

No errors occurred

End of status report

==== Log checksum 944AB8153D3719A897AE5B6BDDD21F694E8F10C2DE3842AD238E1A305F16D254 ====

Exact Audio Copy V1.0 beta 3 from 29. August 2011

EAC extraction logfile from 18. March 2012, 21:25

Barclay James Harvest / Taking Some Time On (The Parlophone-Harvest Years (1968-73) (CD 5)

Used drive : TSSTcorpDVD+-RW TS-L633A Adapter: 2 ID: 0

Read mode : Secure
Utilize accurate stream : Yes
Defeat audio cache : Yes
Make use of C2 pointers : No

Read offset correction : 6
Overread into Lead-In and Lead-Out : No
Fill up missing offset samples with silence : Yes
Delete leading and trailing silent blocks : No
Null samples used in CRC calculations : Yes
Used interface : Native Win32 interface for Win NT & 2000
Gap handling : Appended to previous track

Used output format : User Defined Encoder
Selected bitrate : 1024 kBit/s
Quality : High
Add ID3 tag : No
Command line compressor : C:\Program Files\Exact Audio Copy\FLAC\FLAC.EXE
Additional command line options : -8 -V -T "ARTIST=%artist%" -T "TITLE=%title%" -T "ALBUM=%albumtitle%" -T "DATE=%year%" -T "TRACKNUMBER=%tracknr%" -T "GENRE=%genre%" -T "PERFORMER=%albuminterpret%" -T "COMPOSER=%composer%" %haslyrics%–tag-from-file=LYRICS="%lyricsfile%"%haslyrics% -T "ALBUMARTIST=%albumartist%" -T "DISCNUMBER=%cdnumber%" -T "TOTALDISCS=%totalcds%" -T "TOTALTRACKS=%numtracks%" -T "COMMENT=%comment%" %source% -o %dest%


TOC of the extracted CD

Track | Start | Length | Start sector | End sector
––––––––––––––––––––––––––––-
1 | 0:00.00 | 5:10.64 | 0 | 23313
2 | 5:10.64 | 3:48.13 | 23314 | 40426
3 | 8:59.02 | 3:08.45 | 40427 | 54571
4 | 12:07.47 | 4:16.50 | 54572 | 73821
5 | 16:24.22 | 4:48.39 | 73822 | 95460
6 | 21:12.61 | 10:27.53 | 95461 | 142538
7 | 31:40.39 | 4:23.51 | 142539 | 162314
8 | 36:04.15 | 6:04.67 | 162315 | 189681
9 | 42:09.07 | 7:19.73 | 189682 | 222679
10 | 49:29.05 | 4:26.56 | 222680 | 242685
11 | 53:55.61 | 3:14.65 | 242686 | 257300
12 | 57:10.51 | 3:29.16 | 257301 | 272991


Track 1

Filename E:\eacrips\Barclay James Harvest - 2011 - Taking Some Time On (The Parlophone-Harvest Years (1968-73)\Disc 5\01 One Hundred Thousand Smiles Out.wav

Pre-gap length 0:00:02.00

Peak level 86.8 %
Extraction speed 2.4 X
Track quality 100.0 %
Test CRC 77C56DB0
Copy CRC 77C56DB0
Track not present in AccurateRip database
Copy OK

Track 2

Filename E:\eacrips\Barclay James Harvest - 2011 - Taking Some Time On (The Parlophone-Harvest Years (1968-73)\Disc 5\02 Delph Town Morn.wav

Pre-gap length 0:00:01.77

Peak level 78.8 %
Extraction speed 2.6 X
Track quality 100.0 %
Test CRC E3468B53
Copy CRC E3468B53
Track not present in AccurateRip database
Copy OK

Track 3

Filename E:\eacrips\Barclay James Harvest - 2011 - Taking Some Time On (The Parlophone-Harvest Years (1968-73)\Disc 5\03 Thank You.wav

Pre-gap length 0:00:02.73

Peak level 84.5 %
Extraction speed 2.6 X
Track quality 100.0 %
Test CRC 0ED5CB4B
Copy CRC 0ED5CB4B
Track not present in AccurateRip database
Copy OK

Track 4

Filename E:\eacrips\Barclay James Harvest - 2011 - Taking Some Time On (The Parlophone-Harvest Years (1968-73)\Disc 5\04 Crazy Over (You).wav

Pre-gap length 0:00:02.86

Peak level 91.6 %
Extraction speed 3.0 X
Track quality 100.0 %
Test CRC 39BC3816
Copy CRC 39BC3816
Track not present in AccurateRip database
Copy OK

Track 5

Filename E:\eacrips\Barclay James Harvest - 2011 - Taking Some Time On (The Parlophone-Harvest Years (1968-73)\Disc 5\05 Delph Town Morn.wav

Pre-gap length 0:00:06.81

Peak level 84.1 %
Extraction speed 2.8 X
Track quality 99.9 %
Test CRC 704B3947
Copy CRC 704B3947
Track not present in AccurateRip database
Copy OK

Track 6

Filename E:\eacrips\Barclay James Harvest - 2011 - Taking Some Time On (The Parlophone-Harvest Years (1968-73)\Disc 5\06 Summer Soldier.wav

Pre-gap length 0:00:06.49

Peak level 84.5 %
Extraction speed 3.9 X
Track quality 100.0 %
Test CRC 41F045C5
Copy CRC 41F045C5
Track not present in AccurateRip database
Copy OK

Track 7

Filename E:\eacrips\Barclay James Harvest - 2011 - Taking Some Time On (The Parlophone-Harvest Years (1968-73)\Disc 5\07 Thank You.wav

Pre-gap length 0:00:03.29

Peak level 89.2 %
Extraction speed 3.6 X
Track quality 100.0 %
Test CRC 70934BDD
Copy CRC 70934BDD
Track not present in AccurateRip database
Copy OK

Track 8

Filename E:\eacrips\Barclay James Harvest - 2011 - Taking Some Time On (The Parlophone-Harvest Years (1968-73)\Disc 5\08 One Hundred Thousand Smiles Out.wav

Peak level 84.5 %
Extraction speed 3.5 X
Track quality 99.9 %
Test CRC E84439F0
Copy CRC E84439F0
Track not present in AccurateRip database
Copy OK

Track 9

Filename E:\eacrips\Barclay James Harvest - 2011 - Taking Some Time On (The Parlophone-Harvest Years (1968-73)\Disc 5\09 Moonwater.wav

Peak level 86.3 %
Extraction speed 4.3 X
Track quality 100.0 %
Test CRC 4E5AC31A
Copy CRC 4E5AC31A
Track not present in AccurateRip database
Copy OK

Track 10

Filename E:\eacrips\Barclay James Harvest - 2011 - Taking Some Time On (The Parlophone-Harvest Years (1968-73)\Disc 5\10 Thank You (Alternate Version).wav

Pre-gap length 0:00:01.70

Peak level 98.6 %
Extraction speed 4.0 X
Track quality 100.0 %
Test CRC 191B6F0B
Copy CRC 191B6F0B
Track not present in AccurateRip database
Copy OK

Track 11

Filename E:\eacrips\Barclay James Harvest - 2011 - Taking Some Time On (The Parlophone-Harvest Years (1968-73)\Disc 5\11 Rock And Roll Woman (Single A side).wav

Pre-gap length 0:00:02.25

Peak level 98.7 %
Extraction speed 3.0 X
Track quality 99.9 %
Test CRC 1C8501E0
Copy CRC 1C8501E0
Track not present in AccurateRip database
Copy OK

Track 12

Filename E:\eacrips\Barclay James Harvest - 2011 - Taking Some Time On (The Parlophone-Harvest Years (1968-73)\Disc 5\12 The Joker (Single B side).wav

Pre-gap length 0:00:01.02

Peak level 98.2 %
Extraction speed 4.3 X
Track quality 100.0 %
Test CRC B3DC5C91
Copy CRC B3DC5C91
Track not present in AccurateRip database
Copy OK


None of the tracks are present in the AccurateRip database

No errors occurred

End of status report

==== Log checksum 9850901A52C732F07F92079F66C400522277BDFB06A66EE76F51F1C248057044 ====


Many thanks to the original uploader: erro