Subcategories

Babylon A.D. - Nothing Sacred (1992)

Posted By: popsakov
Babylon A.D. - Nothing Sacred (1992)

Babylon A.D. - Nothing Sacred (1992)
EAC Rip | FLAC (Img) + Cue + Log ~ 385 Mb | MP3 CBR320 ~ 123 Mb
Full Scans (PNG, 400 dpi) ~ 107 Mb | RAR 5% Recovery
Hard Rock, Glam Metal | Arista #07822-18702-2

More hard-rock than heavy metal, L.A.'s Babylon A.D. get the commercial sound right on Nothing Sacred, despite the tacky cover artwork. More muscular and real than most of the pop-metal to hit the charts in recent years, one can only hope that groups like this will continue to supplant Poison-type dross. The live-wire guitars on uptempo material like "Sacrifice Your Love" and "Psychedelic Sex Reaction" owe a debt to Michael Schenker from his UFO days; lead vocalist Derek (just Derek to you) sings as if life itself depended on every note; the group delivers powerful, memorable ballads on "So Savage the Heart" (serious hit material) and "Down on the River of No Return" without resorting to power-ballad cliché; and integrates some cool banjo picking on the Aerosmith-like "Dream Train."

Formed in 1986, Babylon A.D. hail from the Bay Area in California. Original members vocalist and songwriter Derek Davis, guitarists and music writers Dan De La Rosa and Ron Freschi, percussionist James Pacheco, and bassist Eric Pacheco were in rival bands until uniting as Babylon A.D. After joining together, they caught the attention of Arista Records president and industry music mogul Clive Davis, who signed them at a showcase in Los Angeles thanks to their impressive three-song demo and homemade video. Their self-titled album was released in 1990 and their sophomore effort, Nothing Sacred, followed two years later. After spending several years with Arista and following a five-year hiatus, the band signed with Apocalypse Records and released American Blitzkrieg in 1999. That same year, the band also released Live in Your Face, a compilation of live tracks. They have cited Led Zeppelin, UFO, Aerosmith, AC/DC, and Kiss as influences.
~ All Music

***************

Babylon A.D. - Nothing Sacred (1992)

Babylon A.D. - Nothing Sacred (1992)

Track List:

01. Take The Dog Off The Chain [4:40]
02. Bad Blood [3:58]
03. So Savage The Heart [5:15]
04. Sacrifice Your Love [5:37]
05. Redemption [4:58]
06. Down The River Of No Return [3:08]
07. Psychedelic Sex Reaction [4:30]
08. Dream Train [4:50]
09. Blind Ambition [4:32]
10. Slave Your Body [3:50]
11. Of The Rose [1:32]
12. Pray For The Wicked [4:32]

Exact Audio Copy V1.0 beta 3 from 29. August 2011

EAC extraction logfile from 10. November 2017, 19:46

Babylon A.D. / Nothing Sacred

Used drive : PIONEER BD-RW BDR-TD03 Adapter: 0 ID: 1

Read mode : Secure
Utilize accurate stream : Yes
Defeat audio cache : Yes
Make use of C2 pointers : No

Read offset correction : 667
Overread into Lead-In and Lead-Out : No
Fill up missing offset samples with silence : Yes
Delete leading and trailing silent blocks : No
Null samples used in CRC calculations : Yes
Used interface : Native Win32 interface for Win NT & 2000

Used output format : User Defined Encoder
Selected bitrate : 768 kBit/s
Quality : High
Add ID3 tag : No
Command line compressor : C:\Program Files (x86)\Exact Audio Copy\FLAC\FLAC.EXE
Additional command line options : -6 -V -T "ARTIST=%artist%" -T "TITLE=%title%" -T "ALBUM=%albumtitle%" -T "DATE=%year%" -T "TRACKNUMBER=%tracknr%" -T "GENRE=%genre%" -T "COMMENT=%comment%" -T "BAND=%albuminterpret%" -T "ALBUMARTIST=%albuminterpret%" -T "COMPOSER=%composer%" %haslyrics%–tag-from-file=LYRICS="%lyricsfile%"%haslyrics% -T "DISCNUMBER=%cdnumber%" -T "TOTALDISCS=%totalcds%" -T "TOTALTRACKS=%numtracks%" %hascover%–picture="%coverfile%"%hascover% %source% -o %dest%


TOC of the extracted CD

Track | Start | Length | Start sector | End sector
––––––––––––––––––––––––––––-
1 | 0:00.00 | 4:39.73 | 0 | 20997
2 | 4:39.73 | 3:58.32 | 20998 | 38879
3 | 8:38.30 | 5:14.68 | 38880 | 62497
4 | 13:53.23 | 5:37.07 | 62498 | 87779
5 | 19:30.30 | 4:58.00 | 87780 | 110129
6 | 24:28.30 | 3:08.20 | 110130 | 124249
7 | 27:36.50 | 4:29.60 | 124250 | 144484
8 | 32:06.35 | 4:50.00 | 144485 | 166234
9 | 36:56.35 | 4:31.60 | 166235 | 186619
10 | 41:28.20 | 3:50.08 | 186620 | 203877
11 | 45:18.28 | 1:32.02 | 203878 | 210779
12 | 46:50.30 | 4:31.53 | 210780 | 231157


Range status and errors

Selected range

Filename C:\Users\Deris\Desktop\Babylon92\Babylon A.D. - Nothing Sacred.wav

Peak level 100.0 %
Extraction speed 4.7 X
Range quality 100.0 %
Test CRC 261D1F8B
Copy CRC 261D1F8B
Copy OK

No errors occurred


AccurateRip summary

Track 1 accurately ripped (confidence 18) [F547444C] (AR v2)
Track 2 accurately ripped (confidence 18) [4B6FABC1] (AR v2)
Track 3 accurately ripped (confidence 18) [9C990090] (AR v2)
Track 4 accurately ripped (confidence 18) [97970A3B] (AR v2)
Track 5 accurately ripped (confidence 18) [7493E7F9] (AR v2)
Track 6 accurately ripped (confidence 18) [4459FCB6] (AR v2)
Track 7 accurately ripped (confidence 18) [4138D2F6] (AR v2)
Track 8 accurately ripped (confidence 18) [7C261312] (AR v2)
Track 9 accurately ripped (confidence 18) [A3620DCA] (AR v2)
Track 10 accurately ripped (confidence 18) [82FF69B4] (AR v2)
Track 11 accurately ripped (confidence 18) [C0AC292E] (AR v2)
Track 12 accurately ripped (confidence 18) [0BA4BE7C] (AR v2)

All tracks accurately ripped

End of status report

–– CUETools DB Plugin V2.1.3

[CTDB TOCID: ykECWhTQXD._2crcA2IBja1TR1Y-] found, Submit result: ykECWhTQXD._2crcA2IBja1TR1Y- has been confirmed
[cfc5c5ed] (20/22) Accurately ripped
[929939f8] (01/22) No match
[c6ff06b3] (01/22) No match


==== Log checksum CE21415C5AE963CE5F20A01A23A9BC9B471D320358E963444A9E96006CF7F7DC ====

foobar2000 1.3.16 / Dynamic Range Meter 1.1.1
log date: 2017-11-13 14:04:33

––––––––––––––––––––––––––––––––––––––––
Analyzed: Babylon A.D. / Nothing Sacred
––––––––––––––––––––––––––––––––––––––––

DR Peak RMS Duration Track
––––––––––––––––––––––––––––––––––––––––
DR10 -1.86 dB -13.37 dB 4:40 01-Take The Dog Off The Chain
DR10 -1.12 dB -12.25 dB 3:58 02-Bad Blood
DR9 -0.74 dB -11.74 dB 5:15 03-So Savage The Heart
DR9 -0.60 dB -11.51 dB 5:37 04-Sacrifice Your Love
DR9 -0.85 dB -13.51 dB 4:58 05-Redemption
DR11 -1.25 dB -16.37 dB 3:08 06-Down The River Of No Return
DR10 -0.05 dB -12.32 dB 4:30 07-Psychedelic Sex Reaction
DR9 0.00 dB -11.03 dB 4:50 08-Dream Train
DR9 -0.05 dB -10.75 dB 4:32 09-Blind Ambition
DR9 0.00 dB -10.34 dB 3:50 10-Slave Your Body
DR9 -0.23 dB -12.04 dB 1:32 11-Of The Rose
DR9 -0.20 dB -10.47 dB 4:32 12-Pray For The Wicked
––––––––––––––––––––––––––––––––––––––––

Number of tracks: 12
Official DR value: DR9

Samplerate: 44100 Hz
Channels: 2
Bits per sample: 16
Bitrate: 997 kbps
Codec: FLAC
================================================================================

[CUETools log; Date: 13.11.2017 14:04:40; Version: 2.1.5]
[CTDB TOCID: ykECWhTQXD._2crcA2IBja1TR1Y-] database access error: В документе XML (1, 1) присутствует ошибка..
[AccurateRip ID: 001839ec-00dfe5ae-970c0a0c] found.
Track [ CRC | V2 ] Status
01 [f5557157|f547444c] (17+18/35) Accurately ripped
02 [b22fd980|4b6fabc1] (18+18/36) Accurately ripped
03 [ef051063|9c990090] (18+18/36) Accurately ripped
04 [87cad478|97970a3b] (19+18/37) Accurately ripped
05 [4efaa71c|7493e7f9] (18+18/36) Accurately ripped
06 [49f80b50|4459fcb6] (18+18/36) Accurately ripped
07 [a001087e|4138d2f6] (18+18/36) Accurately ripped
08 [7f5b7ab5|7c261312] (17+18/35) Accurately ripped
09 [b2c77feb|a3620dca] (18+18/36) Accurately ripped
10 [98035a68|82ff69b4] (18+18/36) Accurately ripped
11 [c1a3fe40|c0ac292e] (18+18/36) Accurately ripped
12 [1871aa3e|0ba4be7c] (18+18/36) Accurately ripped

Track Peak [ CRC32 ] [W/O NULL] [ LOG ]
– 100,0 [261D1F8B] [2CFA00B7] CRC32
01 80,7 [3F33FAA2] [64460C59]
02 87,9 [292CDCAD] [807A84BD]
03 91,8 [2664BED6] [B82C56DB]
04 93,3 [340319D9] [17BE44FC]
05 90,7 [712A5CA4] [F484F9DA]
06 86,5 [89E95FA2] [AA668C97]
07 99,4 [B7FC8A86] [CE2ED87F]
08 100,0 [6897DAAA] [90B1BA61]
09 99,3 [2705C8A5] [FEF288D7]
10 100,0 [8F36485D] [824E1D7A]
11 97,3 [73005A27] [5C51ED61]
12 97,7 [5753DF6E] [3F38BF0C]

Babylon A.D. - Nothing Sacred (1992)

All thanks go to Boris1

>>> My Blog <<<

Download from icerbox.com: