Masaaki Suzuki, Bach Collegium Japan - Johann Sebastian Bach: Complete Sacred Cantatas Vol.51-55 (55CDs) [1995-2013]

Posted By: Ebisu
Masaaki Suzuki, Bach Collegium Japan - Johann Sebastian Bach: Complete Sacred Cantatas Vol.51-55 (55CDs) [1995-2013]

Masaaki Suzuki, Bach Collegium Japan - Johann Sebastian Bach: Complete Sacred Cantatas Vol.46-50 (55CDs) [1995-2013]
Classical | Eac. Flac, Image+Cue, Log | Scans | 2.02 GB
Label: BIS

Since founding Bach Collegium Japan in 1990, Masaaki Suzuki has established himself as a leading authority on the works of Bach. He has remained their Music Director ever since, taking them regularly to major venues and festivals in Europe and the USA and building up an outstanding reputation for the expressive refinement and truth of his performances.
In addition to working with renowned period ensembles, such as Collegium Vocale Gent and Philharmonia Baroque, he is invited to conduct modern instrument orchestras in repertoire as diverse as Britten, Fauré, Haydn, Mahler, Mendelssohn, Mozart and Stravinsky. Last season saw his debut appearances with the Deutsches Symphonie Orchester Berlin, Melbourne Symphony, Rotterdam Philharmonic and St. Paul Chamber Orchestra, while engagements for 2012/2013 include return visits to the Netherlands Radio Chamber Philharmonic Orchestra, Orchestre de Chambre de Paris and Verbier Festival and his debuts with the New York Philharmonic and the Radio-Sinfonieorchester Stuttgart.
Suzuki’s impressive discography on the BIS label, featuring Bach’s complete works for harpsichord and his interpretations of Bach’s major choral works and sacred cantatas with Bach Collegium Japan (of which he has already completed over fifty volumes of a project to record the complete series) have brought him many critical plaudits – the Times has written: “it would take an iron bar not to be moved by his crispness, sobriety and spiritual vigour”. In 2010, Suzuki and his ensemble were awarded both a German Record Critics’ Award (Preis der Deutschen Schallplattenkritik) and a Diapason d’Or de l’Année for their recording of Bach motets, which was also honoured in 2011 with a BBC Music Magazine Award.
Highlights of last season with Bach Collegium Japan included a European tour incorporating concerts at the Amsterdam Concertgebouw, Brussels Palais des Beaux-Arts and Paris Salle Pleyel amongst others, and culminating with a performance of the St Matthew Passion at the Thomaskirche, Leipzig where Suzuki was presented with the 2012 Leipzig Bach Prize. This season sees the group in residence at the Festival Oude Muziek Utrecht and Bremen Musikfest.
Masaaki Suzuki combines his conducting career with his work as organist and harpsichordist. Born in Kobe, he graduated from the Tokyo University of Fine Arts and Music with a degree in composition and organ performance and went on to study harpsichord and organ at the Sweelinck Conservatory in Amsterdam under Ton Koopman and Piet Kee. Founder and head of the early music department at the Tokyo University of the Arts, he is currently Visiting Professor of Choral Conducting at the Yale School of Music and Yale Institute of Sacred Music and the conductor of Yale Schola Cantorum.
Suzuki was decorated with ‘Das Verdienstkreuz am Bande des Verdienstordens der Bundesrepublik’ from Germany in April 2001, Bremen Musikfest Award 2011, and Bach Medal 2012 by the city of Leipzig in June 2012.

Tracklist & Cast:
Vol.51: BWV 120a • 157 • 192 • 195 (1:20'18")
'Dem Gerechten muss das Licht immer wieder aufgehen' BWV 195
01. I. Dem Gerechten
02. II. Dem Freudenlicht
03. III. Ruhmet Gottes
04. IV. Wohlan, so knupfet
05. V. Wir kommen
06. VI. Nun danket
'Nun danket alle Gott' BWV 192
07. I. Nun danket alle Gott
08. II. Der ewig reiche Gott
09. III. Lob, Ehr und Preis sei Gott
'Ich lasse dich nicht, du segnest mich denn!' BWV 157
10. I. Ich lasse dich
11. II. Ich halte meinen
12. III. Mein lieber Jesu du
13. IV. Ja, ja, ich halte
14. V. Meinen Jesum lass
'Herr Gott, Beherrscher aller Dinge' BWV 120a
15. I. Herr Gott, Beherrscher
16. II. Wie wunderbar, o Gott
17. III. Leit, o Gott, durch
18. IV. Sinfonia
19. V. Herr Zebaoth
20. VI. Herr, fange an und
21. VII. Der Herr, Herr unser Gott
22. VIII. Lobe den Herren

Hana Blazikova, soprano
Damien Guillon, counter-tenor
Christoph Genz, tenor
Peter Kooij, bass

Vol.52: BWV 29 • 112 • 140 (1:03'38")
'Wachet auf, ruft uns die Stimme' BWV 140
01. I. Wachet auf
02. II. Er kommt, er kommt
03. III. Wenn kommst du
04. IV. Zion hort die Wachter singen
05. V. So geh herein zu mir
06. VI. Mein Freund
07. VII. Gloria sei dir gesungen
'Der Herr ist mein getreuer Hirt' BWV 112
08. I. Der Herr ist
09. II. Zum reinen Wasser er mich weist
10. III. Und ob ich wandert
11. IV. Du bereitest fur mir einen Tisch
12. V. Gutes und die Barmherzigkeit
'Wir danken dir, Gott, wir danken dir' BWV 29
13. I. Sinfonia
14. II. Wir danken dir, Gott
15. III. Halleluja, Stark und Macht
16. IV. Gott Lob!
17. V. Gedenk an uns
18. VI. Vergiss es ferner nicht
19. VII. Halleluja, Stark und Macht
20. VIII. Sei Lob und Preis

Hana Blazikova, soprano
Robin Blaze, counter-tenor
Gerd Turk, tenor
Peter Kooij, bass

Vol.53: BWV 9 • 97 • 177 (1:07'37")
'In allen meinen Taten' BWV 97
01. I. In allen meinen Taten
02. II. Nichts ist es spat und fruhe
03. III. Es kann mir nichts geschehen
04. IV. Ich traue seiner Gnaden
05. V. Er wolle meiner Sunden
06. VI. Leg ich mich spate nieder
07. VII. Hat er es denn beschlossen
08. VIII. Ihm hab ich mich ergeben
09. IX. So sein nun, Seele, deine
'Ich ruf zu dir, Herr Jesu Christ' BWV 177
10. I. Ich ruf zu dir, Herr Jesu Christ
11. II. Ich bitt noch mehr, o Herre
12. III. Verleih, dass ich aus
13. IV. Lass mich kein Lust noch
14. V. Ich lieg im Streit
'Es ist das Heil uns kommen her' BWV 9
15. I. Es ist das Heil uns kommen her
16. II. Gott gab uns ein Gesetz
17. III. Wir waren schon zu tief gesunken
18. IV. Doch musste das Gesetz erfullet
19. V. Herr, du siehst statt guter Werke
20. VI. Wenn wir die Sund' aus dem
21. VII. Ob sich's anliess, als wollt'

Hana Blazikova, soprano
Robin Blaze, counter-tenor
Gerd Turk, tenor
Peter Kooij, bass

Vol.54: BWV 14 • 100 • 197 • 197a (1:15'40")
'Was Gott tut, das ist wohlgetan' BWV 100
01. I. Versus 1 (Chorus)
02. II. Versus 2 Duetto (Alto, Tenore)
03. III. Versus 3 Aria (Soprano)
04. IV. Versus 4 Aria (Basso)
05. V. Versus 5 Aria (Alto)
06. VI. Versus ultimus (Choral)
'War Gott nicht mit uns diese Zeit' BWV 14
07. I. War Gott nicht mit uns diese
08. II. Unsre Starke heisst zu schwach
09. III. Ja, hatt es Gott nur zugegeben
10. IV. Gott, bei deinem starken
11. V. Gott Lob und Dank, der nicht
'Gott ist unsre Zuversicht' BWV 197
12. I. Gott ist unsre Zuversicht
13. II. Gott ist und bleibt der beste Sorger
14. III. Schlafert allen Sorgenkummer
15. IV. Drum folget Gott und seinem Triebe
16. V. Du susse Lieb, schenk uns deine Gunst
17. VI. O du angenehmes Paar
18. VII. So wie es Gott mit dir
19. VIII. Vergnugen und Lust
20. IX. Und dieser frohe Lebenslauf
21. X. So wandelt froh auf Gottes Wegen
'Ehre sei Gott in der Hohe' BWV 197a
22. IV. O! du angenehmer Schatz
23. V. Das Kind ist mein
24. VI. Ich lasse dich nicht
25. VII. Wohlan! so will ich mich

Hana Blazikova, soprano
Damien Guillon, counter-tenor
Gerd Turk, tenor
Peter Kooij, bass

Vol.55: BWV 30 • 69 • 191 (1:08'40")
'Lobe den Herrn, meine Seele' BWV 69
01. I. Lobe den Herrn, meine Seele
02. II. Wie gross ist Gottes Gute doch!
03. III. Meine Seele
04. IV. Der Herr hat grosse Ding an uns getan
05. V. Mein Erloser und Erhalter
06. VI. Es danke, Gott, und lobe dich
'Freue dich, erloste Schar' BWV 30
07. I. Freue dich, erloste Schar
08. II. Wir haben Rast
09. III. Gelobet sei Gott
10. IV. Der Herold kommt
11. V. Kommt, ihr angefochtnen Sunder
12. VI. Eine Stimme lasst sich horen
13. VII. So bist du denn, mein Heil
14. VIII. Ich will nun hassen
15. IX. Und ob wohl sonst der Unbestand
16. X. Eilt, ihr Stunden, kommt herbei
17. XI. Geduld, der angenehme Tag
18. XII. Chorus. Freue dich, erloste Schar
'Gloria in excelsis Deo' BWV 191
19. I. Gloria in excelsis Deo
20. II. Gloria Patri et Filio et Spiritui sancto
21. III. Sicut erat in principio et nunc

Hana Blazikova, soprano
Robin Blaze, counter-tenor
Gerd Turk, tenor
Peter Kooij, bass

Exact Audio Copy V1.0 beta 1 from 15. November 2010

EAC extraction logfile from 9. February 2013, 12:05

Johann Sebastian Bach / Complete Cantatas (51)

Used drive : Optiarc DVD RW AD-7203A Adapter: 4 ID: 1

Read mode : Secure
Utilize accurate stream : Yes
Defeat audio cache : Yes
Make use of C2 pointers : No

Read offset correction : 48
Overread into Lead-In and Lead-Out : No
Fill up missing offset samples with silence : Yes
Delete leading and trailing silent blocks : No
Null samples used in CRC calculations : Yes
Used interface : Native Win32 interface for Win NT & 2000

Used output format : User Defined Encoder
Selected bitrate : 128 kBit/s
Quality : High
Add ID3 tag : No
Command line compressor : C:\Program Files\FLAC\flac.exe
Additional command line options : -T "COMMENT=Ripped by GFox" -8 -V %s

TOC of the extracted CD

Track | Start | Length | Start sector | End sector
––––––––––––––––––––––––––––-
1 | 0:00.00 | 4:39.54 | 0 | 20978
2 | 4:39.54 | 1:08.28 | 20979 | 26106
3 | 5:48.07 | 4:50.41 | 26107 | 47897
4 | 10:38.48 | 1:08.02 | 47898 | 52999
5 | 11:46.50 | 6:06.00 | 53000 | 80449
6 | 17:52.50 | 0:58.49 | 80450 | 84848
7 | 18:51.24 | 4:54.35 | 84849 | 106933
8 | 23:45.59 | 2:57.63 | 106934 | 120271
9 | 26:43.47 | 3:09.19 | 120272 | 134465
10 | 29:52.66 | 4:50.23 | 134466 | 156238
11 | 34:43.14 | 6:45.22 | 156239 | 186635
12 | 41:28.36 | 1:20.70 | 186636 | 192705
13 | 42:49.31 | 5:48.28 | 192706 | 218833
14 | 48:37.59 | 0:59.51 | 218834 | 223309
15 | 49:37.35 | 6:20.14 | 223310 | 251823
16 | 55:57.49 | 2:56.42 | 251824 | 265065
17 | 58:54.16 | 6:09.58 | 265066 | 292798
18 | 65:03.74 | 3:34.08 | 292799 | 308856
19 | 68:38.07 | 1:21.38 | 308857 | 314969
20 | 69:59.45 | 7:03.74 | 314970 | 346768
21 | 77:03.44 | 1:26.12 | 346769 | 353230
22 | 78:29.56 | 1:48.27 | 353231 | 361357

Range status and errors

Selected range

Filename D:\EAC\Johann Sebastian Bach - Complete Cantatas (51).wav

Peak level 99.9 %
Extraction speed 0.0 X
Range quality 100.0 %
Test CRC B8B48687
Copy CRC B8B48687
Copy OK

No errors occurred

AccurateRip summary

Track 1 accurately ripped (confidence 1) [87B9A7DF]
Track 2 accurately ripped (confidence 1) [AA33C3B9]
Track 3 accurately ripped (confidence 1) [79B56AC7]
Track 4 accurately ripped (confidence 1) [7512EAAA]
Track 5 accurately ripped (confidence 1) [8D4518FD]
Track 6 accurately ripped (confidence 1) [337F98D5]
Track 7 accurately ripped (confidence 1) [F40267FF]
Track 8 accurately ripped (confidence 1) [0B517AEF]
Track 9 accurately ripped (confidence 1) [E948D885]
Track 10 accurately ripped (confidence 1) [3AEA421D]
Track 11 accurately ripped (confidence 1) [7644F816]
Track 12 accurately ripped (confidence 1) [B747BC29]
Track 13 accurately ripped (confidence 1) [243EBBE0]
Track 14 accurately ripped (confidence 1) [28DFBAB7]
Track 15 accurately ripped (confidence 1) [57687836]
Track 16 accurately ripped (confidence 1) [2E9C6AC2]
Track 17 accurately ripped (confidence 1) [C79FD02B]
Track 18 accurately ripped (confidence 1) [353CE62B]
Track 19 accurately ripped (confidence 1) [CAB31302]
Track 20 accurately ripped (confidence 1) [E7DEA6E6]
Track 21 accurately ripped (confidence 1) [6359AC01]
Track 22 accurately ripped (confidence 1) [BAF4D021]

All tracks accurately ripped

End of status report

==== Log checksum 10358CC034BE75A4AFDD7C6A7FA3C5BD07AB3788612D950C2FB0096E479707AA ====

Exact Audio Copy V1.0 beta 1 from 15. November 2010

EAC extraction logfile from 1. August 2013, 20:15

Johann Sebastian Bach / Complete Cantatas (52)

Used drive : Optiarc DVD RW AD-7203A Adapter: 4 ID: 1

Read mode : Secure
Utilize accurate stream : Yes
Defeat audio cache : Yes
Make use of C2 pointers : No

Read offset correction : 48
Overread into Lead-In and Lead-Out : No
Fill up missing offset samples with silence : Yes
Delete leading and trailing silent blocks : No
Null samples used in CRC calculations : Yes
Used interface : Native Win32 interface for Win NT & 2000

Used output format : User Defined Encoder
Selected bitrate : 128 kBit/s
Quality : High
Add ID3 tag : No
Command line compressor : C:\Program Files\FLAC\flac.exe
Additional command line options : -T "COMMENT=Ripped by GFox" -8 -V %s

TOC of the extracted CD

Track | Start | Length | Start sector | End sector
––––––––––––––––––––––––––––-
1 | 0:00.00 | 6:54.13 | 0 | 31062
2 | 6:54.13 | 1:04.38 | 31063 | 35900
3 | 7:58.51 | 5:57.65 | 35901 | 62740
4 | 13:56.41 | 3:55.00 | 62741 | 80365
5 | 17:51.41 | 1:23.25 | 80366 | 86615
6 | 19:14.66 | 5:24.49 | 86616 | 110964
7 | 24:39.40 | 1:47.52 | 110965 | 119041
8 | 26:27.17 | 2:37.65 | 119042 | 130881
9 | 29:05.07 | 4:00.22 | 130882 | 148903
10 | 33:05.29 | 1:37.35 | 148904 | 156213
11 | 34:42.64 | 3:45.58 | 156214 | 173146
12 | 38:28.47 | 1:15.38 | 173147 | 178809
13 | 39:44.10 | 3:41.04 | 178810 | 195388
14 | 43:25.14 | 3:11.43 | 195389 | 209756
15 | 46:36.57 | 5:40.20 | 209757 | 235276
16 | 52:17.02 | 0:59.55 | 235277 | 239756
17 | 53:16.57 | 5:49.47 | 239757 | 265978
18 | 59:06.29 | 0:29.58 | 265979 | 268211
19 | 59:36.12 | 1:49.11 | 268212 | 276397
20 | 61:25.23 | 2:13.45 | 276398 | 286417

Range status and errors

Selected range

Filename D:\EAC\Johann Sebastian Bach - Complete Cantatas (52).wav

Peak level 99.8 %
Extraction speed 0.1 X
Range quality 100.0 %
Test CRC 9258DD9E
Copy CRC 9258DD9E
Copy OK

No errors occurred

AccurateRip summary

Track 1 accurately ripped (confidence 7) [F4F96A09]
Track 2 accurately ripped (confidence 7) [A6421646]
Track 3 accurately ripped (confidence 7) [C3ABACE7]
Track 4 accurately ripped (confidence 7) [1371379F]
Track 5 accurately ripped (confidence 7) [EC42A8B9]
Track 6 accurately ripped (confidence 7) [9AA6AC1F]
Track 7 accurately ripped (confidence 7) [05245D99]
Track 8 accurately ripped (confidence 7) [2E1D8990]
Track 9 accurately ripped (confidence 7) [735E602F]
Track 10 accurately ripped (confidence 7) [F6F06ADB]
Track 11 accurately ripped (confidence 7) [095646DE]
Track 12 accurately ripped (confidence 7) [66A14E14]
Track 13 accurately ripped (confidence 7) [93E10A83]
Track 14 accurately ripped (confidence 7) [D1DC87D1]
Track 15 accurately ripped (confidence 7) [9C6557A1]
Track 16 accurately ripped (confidence 7) [9F8A664A]
Track 17 accurately ripped (confidence 7) [AC429E21]
Track 18 accurately ripped (confidence 7) [98CFB5E9]
Track 19 accurately ripped (confidence 7) [09C6BAAA]
Track 20 accurately ripped (confidence 7) [F7FBF224]

All tracks accurately ripped

End of status report

==== Log checksum EC60343AF1FABC7F53AEF255BEFFF1A002FE8C827342AA5111389B84696052A9 ====

Exact Audio Copy V1.0 beta 1 from 15. November 2010

EAC extraction logfile from 1. August 2013, 20:58

Johann Sebastian Bach / Complete Cantatas (53)

Used drive : Optiarc DVD RW AD-7203A Adapter: 4 ID: 1

Read mode : Secure
Utilize accurate stream : Yes
Defeat audio cache : Yes
Make use of C2 pointers : No

Read offset correction : 48
Overread into Lead-In and Lead-Out : No
Fill up missing offset samples with silence : Yes
Delete leading and trailing silent blocks : No
Null samples used in CRC calculations : Yes
Used interface : Native Win32 interface for Win NT & 2000

Used output format : User Defined Encoder
Selected bitrate : 128 kBit/s
Quality : High
Add ID3 tag : No
Command line compressor : C:\Program Files\FLAC\flac.exe
Additional command line options : -T "COMMENT=Ripped by GFox" -8 -V %s

TOC of the extracted CD

Track | Start | Length | Start sector | End sector
––––––––––––––––––––––––––––-
1 | 0:00.00 | 3:59.26 | 0 | 17950
2 | 3:59.26 | 3:20.02 | 17951 | 32952
3 | 7:19.28 | 0:33.70 | 32953 | 35497
4 | 7:53.23 | 6:08.47 | 35498 | 63144
5 | 14:01.70 | 0:42.32 | 63145 | 66326
6 | 14:44.27 | 2:59.16 | 66327 | 79767
7 | 17:43.43 | 3:16.52 | 79768 | 94519
8 | 21:00.20 | 3:23.16 | 94520 | 109760
9 | 24:23.36 | 0:57.23 | 109761 | 114058
10 | 25:20.59 | 6:15.30 | 114059 | 142213
11 | 31:36.14 | 5:35.24 | 142214 | 167362
12 | 37:11.38 | 5:48.28 | 167363 | 193490
13 | 42:59.66 | 4:20.60 | 193491 | 213050
14 | 47:20.51 | 1:16.62 | 213051 | 218812
15 | 48:37.38 | 4:40.28 | 218813 | 239840
16 | 53:17.66 | 1:09.20 | 239841 | 245035
17 | 54:27.11 | 4:01.37 | 245036 | 263147
18 | 58:28.48 | 1:15.41 | 263148 | 268813
19 | 59:44.14 | 5:09.57 | 268814 | 292045
20 | 64:53.71 | 1:21.16 | 292046 | 298136
21 | 66:15.12 | 1:22.39 | 298137 | 304325

Range status and errors

Selected range

Filename D:\EAC\Johann Sebastian Bach - Complete Cantatas (53).wav

Peak level 99.9 %
Extraction speed 0.0 X
Range quality 100.0 %
Test CRC 09889703
Copy CRC 09889703
Copy OK

No errors occurred

AccurateRip summary

Track 1 accurately ripped (confidence 3) [1E35576B]
Track 2 accurately ripped (confidence 3) [4E91CB4A]
Track 3 accurately ripped (confidence 3) [5343725B]
Track 4 accurately ripped (confidence 3) [A51DE631]
Track 5 accurately ripped (confidence 3) [99C6D1D0]
Track 6 accurately ripped (confidence 3) [A9077CFA]
Track 7 accurately ripped (confidence 3) [305191AA]
Track 8 accurately ripped (confidence 3) [20F7ED9C]
Track 9 accurately ripped (confidence 3) [069F4F94]
Track 10 accurately ripped (confidence 3) [03958A21]
Track 11 accurately ripped (confidence 3) [147560E0]
Track 12 accurately ripped (confidence 3) [08BA5C17]
Track 13 accurately ripped (confidence 3) [59C0EA70]
Track 14 accurately ripped (confidence 3) [BEF8F938]
Track 15 accurately ripped (confidence 3) [81A79DC3]
Track 16 accurately ripped (confidence 3) [ADDFFCCE]
Track 17 accurately ripped (confidence 3) [A7567530]
Track 18 accurately ripped (confidence 3) [B3C5E709]
Track 19 accurately ripped (confidence 3) [A04EC17E]
Track 20 accurately ripped (confidence 3) [310A3D35]
Track 21 accurately ripped (confidence 3) [AC176FB9]

All tracks accurately ripped

End of status report

==== Log checksum AC123B665B02BD189869FC82623F652FB709E082654B16218E099520854B056F ====

Exact Audio Copy V1.0 beta 1 from 15. November 2010

EAC extraction logfile from 15. October 2013, 22:34

Johann Sebastian Bach / Complete Cantatas (54)

Used drive : Optiarc DVD RW AD-7203A Adapter: 4 ID: 1

Read mode : Secure
Utilize accurate stream : Yes
Defeat audio cache : Yes
Make use of C2 pointers : No

Read offset correction : 48
Overread into Lead-In and Lead-Out : No
Fill up missing offset samples with silence : Yes
Delete leading and trailing silent blocks : No
Null samples used in CRC calculations : Yes
Used interface : Native Win32 interface for Win NT & 2000

Used output format : User Defined Encoder
Selected bitrate : 128 kBit/s
Quality : High
Add ID3 tag : No
Command line compressor : C:\Program Files\FLAC\flac.exe
Additional command line options : -T "COMMENT=Ripped by GFox" -8 -V %s

TOC of the extracted CD

Track | Start | Length | Start sector | End sector
––––––––––––––––––––––––––––-
1 | 0:00.00 | 4:29.62 | 0 | 20236
2 | 4:29.62 | 2:55.34 | 20237 | 33395
3 | 7:25.21 | 4:46.41 | 33396 | 54886
4 | 12:11.62 | 3:20.07 | 54887 | 69893
5 | 15:31.69 | 2:49.41 | 69894 | 82609
6 | 18:21.35 | 1:56.25 | 82610 | 91334
7 | 20:17.60 | 5:02.10 | 91335 | 113994
8 | 25:19.70 | 4:11.19 | 113995 | 132838
9 | 29:31.14 | 0:44.58 | 132839 | 136196
10 | 30:15.72 | 3:47.03 | 136197 | 153224
11 | 34:03.00 | 1:01.36 | 153225 | 157835
12 | 35:04.36 | 5:58.28 | 157836 | 184713
13 | 41:02.64 | 1:12.70 | 184714 | 190183
14 | 42:15.59 | 7:08.20 | 190184 | 222303
15 | 49:24.04 | 0:44.43 | 222304 | 225646
16 | 50:08.47 | 0:58.02 | 225647 | 229998
17 | 51:06.49 | 5:23.39 | 229999 | 254262
18 | 56:30.13 | 1:27.17 | 254263 | 260804
19 | 57:57.30 | 4:02.28 | 260805 | 278982
20 | 61:59.58 | 0:48.07 | 278983 | 282589
21 | 62:47.65 | 1:02.05 | 282590 | 287244
22 | 63:49.70 | 5:19.22 | 287245 | 311191
23 | 69:09.17 | 1:22.50 | 311192 | 317391
24 | 70:31.67 | 3:52.17 | 317392 | 334808
25 | 74:24.09 | 1:16.53 | 334809 | 340561

Range status and errors

Selected range

Filename D:\EAC\Johann Sebastian Bach - Complete Cantatas (54).wav

Peak level 99.8 %
Extraction speed 0.0 X
Range quality 100.0 %
Test CRC B9827FAE
Copy CRC B9827FAE
Copy OK

No errors occurred

AccurateRip summary

Track 1 accurately ripped (confidence 1) [D9B93475]
Track 2 accurately ripped (confidence 1) [4EE4444C]
Track 3 accurately ripped (confidence 1) [F1DC8397]
Track 4 accurately ripped (confidence 1) [116CC802]
Track 5 accurately ripped (confidence 1) [A11EFABE]
Track 6 accurately ripped (confidence 1) [55B77B6F]
Track 7 accurately ripped (confidence 1) [366688D4]
Track 8 accurately ripped (confidence 1) [84E64C70]
Track 9 accurately ripped (confidence 1) [07F130D5]
Track 10 accurately ripped (confidence 1) [652A35F2]
Track 11 accurately ripped (confidence 1) [829DBA6F]
Track 12 accurately ripped (confidence 1) [A019E2A5]
Track 13 accurately ripped (confidence 1) [EC8DB94D]
Track 14 accurately ripped (confidence 1) [819A2D3F]
Track 15 accurately ripped (confidence 1) [5EB413E6]
Track 16 accurately ripped (confidence 1) [6FB63AA6]
Track 17 accurately ripped (confidence 1) [9EAAA6FD]
Track 18 accurately ripped (confidence 1) [7DD0B71C]
Track 19 accurately ripped (confidence 1) [855705FA]
Track 20 accurately ripped (confidence 1) [0D569C3A]
Track 21 accurately ripped (confidence 1) [40849E0B]
Track 22 accurately ripped (confidence 1) [C4E42070]
Track 23 accurately ripped (confidence 1) [3081C394]
Track 24 accurately ripped (confidence 1) [C17538CD]
Track 25 accurately ripped (confidence 1) [EE20081E]

All tracks accurately ripped

End of status report

==== Log checksum C8C267EF34CF1B64E557673E521425A82E9EF20CEA2DF970117B1D470AB2BFA8 ====

Exact Audio Copy V1.0 beta 1 from 15. November 2010

EAC extraction logfile from 21. December 2013, 12:21

Johann Sebastian Bach / Complete Cantatas (55)

Used drive : Optiarc DVD RW AD-7203A Adapter: 4 ID: 1

Read mode : Secure
Utilize accurate stream : Yes
Defeat audio cache : Yes
Make use of C2 pointers : No

Read offset correction : 48
Overread into Lead-In and Lead-Out : No
Fill up missing offset samples with silence : Yes
Delete leading and trailing silent blocks : No
Null samples used in CRC calculations : Yes
Used interface : Native Win32 interface for Win NT & 2000

Used output format : User Defined Encoder
Selected bitrate : 128 kBit/s
Quality : High
Add ID3 tag : No
Command line compressor : C:\Program Files\FLAC\flac.exe
Additional command line options : -T "COMMENT=Ripped by GFox" -8 -V %s

TOC of the extracted CD

Track | Start | Length | Start sector | End sector
––––––––––––––––––––––––––––-
1 | 0:00.00 | 4:58.53 | 0 | 22402
2 | 4:58.53 | 1:15.68 | 22403 | 28095
3 | 6:14.46 | 5:59.26 | 28096 | 55046
4 | 12:13.72 | 2:13.14 | 55047 | 65035
5 | 14:27.11 | 3:16.33 | 65036 | 79768
6 | 17:43.44 | 1:36.74 | 79769 | 87042
7 | 19:20.43 | 4:01.19 | 87043 | 105136
8 | 23:21.62 | 0:54.70 | 105137 | 109256
9 | 24:16.57 | 4:33.59 | 109257 | 129790
10 | 28:50.41 | 0:44.50 | 129791 | 133140
11 | 29:35.16 | 5:19.58 | 133141 | 157123
12 | 34:54.74 | 1:21.07 | 157124 | 163205
13 | 36:16.06 | 0:58.47 | 163206 | 167602
14 | 37:14.53 | 5:38.40 | 167603 | 192992
15 | 42:53.18 | 0:57.28 | 192993 | 197295
16 | 43:50.46 | 4:30.26 | 197296 | 217571
17 | 48:20.72 | 1:14.60 | 217572 | 223181
18 | 49:35.57 | 4:20.16 | 223182 | 242697
19 | 53:55.73 | 6:14.64 | 242698 | 270811
20 | 60:10.62 | 4:05.27 | 270812 | 289213
21 | 64:16.14 | 4:23.71 | 289214 | 309009

Range status and errors

Selected range

Filename D:\EAC\Johann Sebastian Bach - Complete Cantatas (55).wav

Peak level 97.5 %
Extraction speed 0.2 X
Range quality 100.0 %
Test CRC D15E8DDF
Copy CRC D15E8DDF
Copy OK

No errors occurred

AccurateRip summary

Track 1 accurately ripped (confidence 1) [EF0F63F3]
Track 2 accurately ripped (confidence 1) [D82FFB24]
Track 3 accurately ripped (confidence 1) [B57E805B]
Track 4 accurately ripped (confidence 1) [75C48C6E]
Track 5 accurately ripped (confidence 1) [788A5090]
Track 6 accurately ripped (confidence 1) [12143666]
Track 7 accurately ripped (confidence 1) [D93FBD8E]
Track 8 accurately ripped (confidence 1) [751B6E19]
Track 9 accurately ripped (confidence 1) [815BBE85]
Track 10 accurately ripped (confidence 1) [45A41F24]
Track 11 accurately ripped (confidence 1) [EC7AFDFD]
Track 12 accurately ripped (confidence 1) [B4358B15]
Track 13 accurately ripped (confidence 1) [FBF2E638]
Track 14 accurately ripped (confidence 1) [597527B5]
Track 15 accurately ripped (confidence 1) [D2706449]
Track 16 accurately ripped (confidence 1) [85512DA4]
Track 17 accurately ripped (confidence 1) [63202B62]
Track 18 accurately ripped (confidence 1) [42FA57C6]
Track 19 accurately ripped (confidence 1) [B76EFEE5]
Track 20 accurately ripped (confidence 1) [CB8845F9]
Track 21 accurately ripped (confidence 1) [5E6A79B2]

All tracks accurately ripped

End of status report

==== Log checksum 02C05D31B42729D9A653E0665CDCEE52869DB3708CA4E3E79DA8EEBD4CC40195 ====

“Thanks to the original releaser"