Subcategories

Barry Douglas, Łukasz Długosz, Antoni Wit - Penderecki: Piano Concerto 'Resurrection', Flute Concerto (2013) (Repost)

Posted By: tirexiss
Barry Douglas, Łukasz Długosz, Antoni Wit - Penderecki: Piano Concerto 'Resurrection', Flute Concerto (2013) (Repost)

Barry Douglas, Łukasz Długosz, Antoni Wit – Penderecki: Piano Concerto 'Resurrection', Flute Concerto (2013)
EAC | FLAC (image+.cue, log) | Covers Included | 60:30 | 290 MB
Genre: Classical | Label: Naxos | Catalog: 8.572696

Scored for a large orchestra, including triple wind and a raft of percussion, Penderecki’s Piano Concerto, heard here in its 2007 revision first performed by Barry Douglas, renews the composer’s direct involvement with the ‘grand’ concerto tradition that culminated in Rachmaninov and Prokofiev. Its sub-title ‘Resurrection’ refers to the melody based on a chorale of a non-religious character, which gradually make its way into the foreground before emerging with striking power at the work’s climax. The more modest forces used in the Flute Concerto place no restriction on this work’s exceptional emotional range and kaleidoscopic colours.

Barry Douglas, Łukasz Długosz, Antoni Wit - Penderecki: Piano Concerto 'Resurrection', Flute Concerto (2013) (Repost)

Track List:

Krzysztof Penderecki (b.1933)

[1]-[10] Piano Concerto ‘Resurrection’ (2001/02, rev. 2007)
[11]-[15] Concerto for Flute and Chamber Orchestra (1992)

Performers:
Barry Douglas, piano
Łukasz Długosz, flute
Warsaw Philharmonic Orchestra
Antoni Wit

Exact Audio Copy V1.0 beta 3 from 29. August 2011

EAC extraction logfile from 28. November 2013, 1:24

Warsaw Philharmonic Orchestra, Antoni Wit / Penderecki - Piano Concerto; Flute Concerto

Used drive : HL-DT-STDVDRAM GSA-4083N Adapter: 1 ID: 0

Read mode : Secure
Utilize accurate stream : Yes
Defeat audio cache : Yes
Make use of C2 pointers : No

Read offset correction : 667
Overread into Lead-In and Lead-Out : No
Fill up missing offset samples with silence : Yes
Delete leading and trailing silent blocks : No
Null samples used in CRC calculations : Yes
Used interface : Native Win32 interface for Win NT & 2000

Used output format : User Defined Encoder
Selected bitrate : 896 kBit/s
Quality : High
Add ID3 tag : No
Command line compressor : C:\Program Files\Exact Audio Copy\Flac\flac.exe
Additional command line options : -V -8 %source%


TOC of the extracted CD

Track | Start | Length | Start sector | End sector
––––––––––––––––––––––––––––-
1 | 0:00.00 | 4:40.01 | 0 | 21000
2 | 4:40.01 | 5:26.44 | 21001 | 45494
3 | 10:06.45 | 3:20.72 | 45495 | 60566
4 | 13:27.42 | 2:55.60 | 60567 | 73751
5 | 16:23.27 | 1:40.02 | 73752 | 81253
6 | 18:03.29 | 4:20.70 | 81254 | 100823
7 | 22:24.24 | 3:34.33 | 100824 | 116906
8 | 25:58.57 | 3:59.57 | 116907 | 134888
9 | 29:58.39 | 2:06.73 | 134889 | 144411
10 | 32:05.37 | 5:16.26 | 144412 | 168137
11 | 37:21.63 | 5:01.64 | 168138 | 190776
12 | 42:23.52 | 2:22.61 | 190777 | 201487
13 | 44:46.38 | 3:39.06 | 201488 | 217918
14 | 48:25.44 | 3:36.55 | 217919 | 234173
15 | 52:02.24 | 8:25.51 | 234174 | 272099


Range status and errors

Selected range

Filename J:\New Music\Penderecki - Piano Concerto; Flute Concerto\Penderecki - Piano Concerto; Flute Concerto.wav

Peak level 98.4 %
Extraction speed 2.8 X
Range quality 100.0 %
Test CRC 485C5449
Copy CRC 485C5449
Copy OK

No errors occurred


AccurateRip summary

Track 1 accurately ripped (confidence 7) [23379172] (AR v2)
Track 2 accurately ripped (confidence 7) [AC9780E9] (AR v2)
Track 3 accurately ripped (confidence 7) [72CF102E] (AR v2)
Track 4 accurately ripped (confidence 7) [ADA161CE] (AR v2)
Track 5 accurately ripped (confidence 7) [81251E61] (AR v2)
Track 6 accurately ripped (confidence 7) [2367C9BE] (AR v2)
Track 7 accurately ripped (confidence 7) [AE79438D] (AR v2)
Track 8 accurately ripped (confidence 7) [20379472] (AR v2)
Track 9 accurately ripped (confidence 7) [EC694D22] (AR v2)
Track 10 accurately ripped (confidence 7) [C73EFA01] (AR v2)
Track 11 accurately ripped (confidence 7) [D5ADC17E] (AR v2)
Track 12 accurately ripped (confidence 7) [D5185B46] (AR v2)
Track 13 accurately ripped (confidence 7) [0589C2E4] (AR v2)
Track 14 accurately ripped (confidence 7) [4A88939A] (AR v2)
Track 15 accurately ripped (confidence 7) [F82DE1A4] (AR v2)

All tracks accurately ripped

End of status report

==== Log checksum 94623A384EDA428DE357F2DCE7A0093E4DFA4D0BA3BA412C8015C4E14E814470 ====

Thanks to the Original ripper (A-Z)!

Download: