Tags
Language
Tags

The Beatles: Dr. Ebbetts German Albums Collection (1964-1975) [2001-2008, 8CD]

Posted By: v3122
The Beatles: Dr. Ebbetts German Albums Collection (1964-1975) [2001-2008, 8CD]

The Beatles: Dr. Ebbetts German Albums Collection (1964-1975)
CDRip | Flac(Image) + Cue | no Log | MP3 CBR 320Kbps
Dr. Ebbetts | ~ 1929 or 838 Mb | Artwork(jpg) -> 31 Mb
Classic Rock

~ Die Beatles (German Stereo) (1964) [SHZE 117], Magical Mystery Tour (German True Stereo) (1971) [SHZE 327], The White Album (German Stereo, DMM) (1985) [1C 172-04 173-74], Something New (German Stereo) (1977) [1C 072-04 600], The Beatles' Greatest (German Stereo) (1969) [1C 062-04 207], And Now The Beatles (German Stereo) (1966) [73 735 P 15], The World's Best (German Stereo) (1968) [77 235] ~

Dr. Ebbets was a needledropper (a person who rips near mint/mint condition or unplayed vinyl records) who was famous in the bootleg/audiophile communities for his Beatles releases, which are regarded by some as being the best sounding versions of those albums.

He retired in 2009 due to the upcoming release of The Beatles, but returned in 2010 to release four new titles to his most dedicated customers.

~ discogs
The Beatles: Dr. Ebbetts German Albums Collection (1964-1975):

The Beatles: Dr. Ebbetts German Albums Collection (1964-1975) [2001-2008, 8CD]

Tracklist CD01 Die Beatles (German Stereo) (1964) [SHZE 117]:

01. I Saw Her Standing There [2:58]
02. Misery [1:53]
03. Anna [2:59]
04. Chains [2:28]
05. Boys [2:30]
06. Ask Me Why [2:29]
07. Please Please Me [2:04]
08. Love Me Do [2:25]
09. P.S. I Love You [2:07]
10. Baby It's You [2:45]
11. Do You Want To Know A Secret [2:02]
12. A Taste Of Honey [2:07]
13. Threre's A Place [1:54]
14. Twist And Shout [2:34]

[CUETools log; Date: 25.01.2020 14:25:35; Version: 2.1.6]
[CTDB TOCID: XU_6QTniUrOfZtycmsjOFc3fMKE-] disk not present in database.
[AccurateRip ID: 0011af73-00badafa-a607ce0e] found.
Track [ CRC | V2 ] Status
01 [dcccde2c|6d9130c3] (0+1/2) Accurately ripped
02 [7b51584a|17fc7420] (0+1/2) Accurately ripped
03 [ab41c83c|df7ae2b7] (0+1/2) Accurately ripped
04 [c483f9ff|8562071a] (0+1/2) Accurately ripped
05 [eae3c5a9|318ec78e] (0+1/2) Accurately ripped
06 [21ba69d0|5afb9cf8] (0+1/2) Accurately ripped
07 [210c3d9c|358d427d] (0+1/2) Accurately ripped
08 [d079ec5d|a0edad26] (0+1/2) Accurately ripped
09 [b1b7a01b|42dd2438] (0+1/2) Accurately ripped
10 [367dfed9|93c36f77] (0+1/2) Accurately ripped
11 [fbf5a612|e30b1cad] (0+1/2) Accurately ripped
12 [9208deac|1f0ea207] (0+1/2) Accurately ripped
13 [7567405d|f7add480] (0+1/2) Accurately ripped
14 [21ac183e|74624741] (0+1/2) Accurately ripped

Track Peak [ CRC32 ] [W/O NULL]
– 99,9 [1FF3A517] [4FF3C5BF]
01 99,9 [F7F3A846] [4B59C5D7]
02 95,9 [CD4235F5] [B07105F2]
03 99,9 [3620C53E] [DEAD0FF7]
04 92,8 [EE4DF700] [BBE9660E]
05 99,9 [94E3DBA6] [E1EA44A5]
06 91,9 [4BAEC5D9] [B1D15369]
07 86,8 [FB8A045F] [1EDDC046]
08 99,9 [0A2511FC] [6EDFD784]
09 89,6 [8F372884] [996A8F6A]
10 99,9 [03984A2E] [B480953D]
11 80,4 [C23AB2D6] [E469B1B0]
12 78,1 [413A432D] [9E89ECD6]
13 97,4 [D86A7A30] [F1B2AE31]
14 99,9 [1C8A17E7] [28E6899F]


The Beatles: Dr. Ebbetts German Albums Collection (1964-1975) [2001-2008, 8CD]

Tracklist CD02 Magical Mystery Tour (German True Stereo) (1971) [SHZE 327]:

01. Magical Mystery Tour [2:52]
02. The Fool On The Hill [3:01]
03. Flying [2:16]
04. Blue Jay Way [3:56]
05. Your Mother Should Know [2:30]
06. I'm The Walrus [4:37]
07. Hello Goodbye [3:26]
08. Strawberry Fields Forever [4:04]
09. Penny Lane [3:00]
10. Baby You're A Rich Man [2:59]
11. All You Need Is Love [3:46]

[CUETools log; Date: 25.01.2020 14:27:14; Version: 2.1.6]
[CTDB TOCID: PM8RFxSGEbJJMntXTHMVf2qpd4M-] found.
Track | CTDB Status
1 | (9/9) Accurately ripped
2 | (9/9) Accurately ripped
3 | (9/9) Accurately ripped
4 | (9/9) Accurately ripped
5 | (9/9) Accurately ripped
6 | (0/9) No match
7 | (9/9) Accurately ripped
8 | (9/9) Accurately ripped
9 | (9/9) Accurately ripped
10 | (9/9) Accurately ripped
11 | (9/9) Accurately ripped
[AccurateRip ID: 000e7e66-007f5cf6-9a088c0b] found.
Track [ CRC | V2 ] Status
01 [9d361deb|d942aef0] (2+0/4) Accurately ripped
02 [90cbc2b4|d82f964c] (2+0/4) Accurately ripped
03 [6b218783|a55e622b] (2+0/4) Accurately ripped
04 [59c7dbad|fd71ba14] (2+0/4) Accurately ripped
05 [7dc4d1e6|9f47d7b2] (2+0/4) Accurately ripped
06 [ecfb971f|09a868cc] (0+0/2) No match
07 [a3c1c554|5be46159] (2+0/4) Accurately ripped
08 [6074ff35|0f19cee8] (2+0/4) Accurately ripped
09 [d2fa8941|1411a66b] (2+0/4) Accurately ripped
10 [870f499c|a990cac4] (2+0/4) Accurately ripped
11 [dbc536a1|bae1536f] (2+0/4) Accurately ripped
Offsetted by -24:
01 [d28c18c4] (2/4) Accurately ripped
02 [f4476801] (2/4) Accurately ripped
03 [3aa87d3f] (2/4) Accurately ripped
04 [b75556cc] (2/4) Accurately ripped
05 [73275ffb] (2/4) Accurately ripped
06 [16cb7c31] (0/2) No match (V2 was not tested)
07 [6a8c88d5] (2/4) Accurately ripped
08 [ff38e6e0] (2/4) Accurately ripped
09 [be04dee8] (2/4) Accurately ripped
10 [4bc86e9e] (2/4) Accurately ripped
11 [0ebdd0cd] (2/4) Accurately ripped

Track Peak [ CRC32 ] [W/O NULL]
– 100,0 [241A7FFA] [0F1A47E4]
01 100,0 [9693D239] [79B938D2]
02 81,8 [A8FA464A] [D11A0AB2]
03 79,8 [22A0F9E3] [F2530A79]
04 94,9 [D457B69E] [3B3949DD]
05 98,1 [1D462A3E] [0F2304AF]
06 98,9 [BD5CA1D8] [F6E529DA]
07 95,4 [B7ADD85B] [B53F7AB8]
08 92,7 [031A6B85] [CEA65EC0]
09 86,7 [22ED7E38] [D1EB4350]
10 99,8 [AC4BEC80] [4EEE0354]
11 96,7 [7E8BC57A] [777EE029]


The Beatles: Dr. Ebbetts German Albums Collection (1964-1975) [2001-2008, 8CD]

Tracklist CD03-04 The White Album (German Stereo, DMM) (1985) [1C 172-04 173 & 174]:

01. Back In The U.S.S.R. [2:43]
02. Dear Prudence [3:54]
03. Glass Onion [2:17]
04. Ob-La-Di, Ob-La-Da [3:08]
05. Wild Honey Pie [0:53]
06. The Continuing Story Of Bungalow Bill [3:13]
07. While My Guitar Gently Weeps [4:46]
08. Happiness Is A Warm Gun [2:43]
09. Martha My Dear [2:28]
10. I'm So Tired [2:03]
11. Blackbird [2:18]
12. Piggies [2:04]
13. Rocky Raccoon [3:32]
14. Don't Pass Me By [3:49]
15. Why Don't We Do It In The Road [1:41]
16. I Will [1:46]
17. Julia [2:56]

[CUETools log; Date: 25.01.2020 14:29:30; Version: 2.1.6]
[CTDB TOCID: MgoIn5DIduhnkAA9ww3q.MwdzBg-] found.
Track | CTDB Status
1 | (3/3) Accurately ripped
2 | (3/3) Accurately ripped
3 | (3/3) Accurately ripped
4 | (3/3) Accurately ripped
5 | (3/3) Accurately ripped
6 | (3/3) Accurately ripped
7 | (3/3) Accurately ripped
8 | (3/3) Accurately ripped
9 | (3/3) Accurately ripped
10 | (3/3) Accurately ripped
11 | (3/3) Accurately ripped
12 | (3/3) Accurately ripped
13 | (3/3) Accurately ripped
14 | (3/3) Accurately ripped
15 | (3/3) Accurately ripped
16 | (3/3) Accurately ripped
17 | (3/3) Accurately ripped
[AccurateRip ID: 001d6001-0171916e-0f0ad411] found.
Track [ CRC | V2 ] Status
01 [20436d86|934608e7] (1+0/2) Accurately ripped
02 [05a57411|bcdaa7d9] (1+0/2) Accurately ripped
03 [e1a8aee3|e113a013] (1+0/2) Accurately ripped
04 [d441b882|f1f8c7d1] (1+0/2) Accurately ripped
05 [dd5b24d4|d06bf2da] (1+0/2) Accurately ripped
06 [c0844881|946b02d0] (1+0/2) Accurately ripped
07 [c1397cba|80c13020] (1+0/2) Accurately ripped
08 [11d90a11|4a15466d] (1+0/2) Accurately ripped
09 [bc2a73a3|afd3dd45] (1+0/2) Accurately ripped
10 [6614bd66|49a92493] (1+0/2) Accurately ripped
11 [41687b6c|64a01c2d] (1+0/2) Accurately ripped
12 [4aaf2294|a08f253a] (1+0/2) Accurately ripped
13 [8c0e487d|ba1dfa1b] (1+0/2) Accurately ripped
14 [611e0b99|086080ab] (0+0/2) No match
15 [bc394f15|0793b4f5] (1+0/2) Accurately ripped
16 [d3f7c89f|73a32fe5] (1+0/2) Accurately ripped
17 [075fe49f|10f4d2a6] (1+0/2) Accurately ripped

Track Peak [ CRC32 ] [W/O NULL]
– 100,0 [A320EE52] [8E0C3DFB]
01 100,0 [1E9C8143] [58D6843E]
02 100,0 [5861FF97] [64E7DAF7]
03 97,6 [60A1D031] [4B231042]
04 98,0 [D55E5E19] [19E5EBB7]
05 99,9 [16825D93] [2D0DDE00]
06 97,4 [D0983DA8] [8A2B70AB]
07 99,9 [4DFD7591] [1B6C0788]
08 91,1 [DFFB33D7] [B0E83E8D]
09 99,9 [FDC3A09C] [3104743F]
10 100,0 [313D1AB0] [E96FD0C0]
11 57,7 [0CF28391] [FD0BE458]
12 93,7 [2CFAD0D7] [EEFF5EED]
13 100,0 [29EA5CD4] [E2AE5392]
14 99,9 [B25BD5F6] [0D4C438E]
15 92,8 [188091D1] [6FE308C1]
16 92,2 [40A54F54] [8C377036]
17 45,6 [478ECB4D] [4E02BD86]



01. Birthday [2:42]
02. Yer Blues [3:59]
03. Mother Nature's Son [2:47]
04. Everybody's Got Something To Hide Except Me And My Monkey [2:24]
05. Sexy Sadie [3:14]
06. Helter Skelter [4:27]
07. Long, Long, Long [3:04]
08. Revolution 1 [4:14]
09. Honey Pie [2:40]
10. Savoy Truffle [2:52]
11. Cry Baby Cry [3:00]
12. Revolution 9 [8:20]
13. Good Night [3:13]

CUE Corrector v. 8.3.3 / b. 847 (Feb. 21, 2018)

The Beatles / The White Album (German Stereo, DMM) (1985) [1C 172-04 174]

AccurateRip ID [0014c721-00d2f6c5-a10aff0d] found.
Get file: http://www.accuraterip.com/accuraterip/1/2/7/dBAR-013-0014c721-00d2f6c5-a10aff0d.bin

AccurateRip summary:

Track 1 not present in database
Track 2 not present in database
Track 3 not present in database
Track 4 not present in database
Track 5 not present in database
Track 6 not present in database
Track 7 not present in database
Track 8 not present in database
Track 9 not present in database
Track 10 not present in database
Track 11 not present in database
Track 12 not present in database
Track 13 not present in database

None of the tracks are present in the AccurateRip database

——————————————————————————————————————————————————

Offsetted by 12:

Track 1 cannot be verified as accurate (confidence 1) [B57AE716], AccurateRip returned [437A6427] (AR v1)
Track 2 cannot be verified as accurate (confidence 1) [4F76B4AD], AccurateRip returned [3084B4D8] (AR v1)
Track 3 cannot be verified as accurate (confidence 1) [A7762935], AccurateRip returned [9D0C5E87] (AR v1)
Track 4 cannot be verified as accurate (confidence 1) [6C09A0EC], AccurateRip returned [F9B37314] (AR v1)
Track 5 cannot be verified as accurate (confidence 1) [E75D2373], AccurateRip returned [FD386DEF] (AR v1)
Track 6 cannot be verified as accurate (confidence 1) [86770CB1], AccurateRip returned [DE323A4E] (AR v1)
Track 7 cannot be verified as accurate (confidence 1) [612C503E], AccurateRip returned [C9EF5BF3] (AR v1)
Track 8 cannot be verified as accurate (confidence 1) [549AC75C], AccurateRip returned [A981E7EF] (AR v1)
Track 9 cannot be verified as accurate (confidence 1) [B94A369D], AccurateRip returned [FC5C23B9] (AR v1)
Track 10 cannot be verified as accurate (confidence 1) [3C92408D], AccurateRip returned [D1342541] (AR v1)
Track 11 cannot be verified as accurate (confidence 1) [DCF7197D], AccurateRip returned [2330B12E] (AR v1)
Track 12 cannot be verified as accurate (confidence 1) [11535048], AccurateRip returned [D577A8F4] (AR v1)
Track 13 cannot be verified as accurate (confidence 1) [CB43F003], AccurateRip returned [32017EB8] (AR v1)

No tracks could be verified as accurate
You may have a different pressing from the one(s) in the database


Track Peak [ CRC32 ] [W/O NULL] [ LOG ] [ ARv1 ] [ ARv2 ]
– 100.0 [4C9EA4F6] [CADFB9F5]
01 100.0 [49C84E3C] [B18D22EE] [92619E52] [22EE4FDE]
02 100.0 [1B449D97] [F95A4C03] [EFEBBE40] [CDDB6EAE]
03 86.3 [A65582C9] [F20905EF] [B34D9BB5] [A9C5DB76]
04 100.0 [9C281BEE] [F39B6395] [9F725330] [2EFEDCF8]
05 99.9 [E9350B54] [6DAE8C6E] [BF3F31A3] [D2061415]
06 99.9 [19C6A07F] [88FD6068] [A73AD1B2] [FCDF60B3]
07 87.9 [CDE54CAB] [468E6C32] [83E39C5B] [ECA39CCC]
08 100.0 [65121254] [AE91ADCC] [31722BD3] [8A5AA202]
09 89.2 [7D4C1EB4] [D3BDB949] [4D5E99BE] [293C14B1]
10 100.0 [CEC9CFEB] [3D5EE31F] [B7D1718A] [4F2607A0]
11 100.0 [EDC4ED1D] [1F6B8EF3] [386B653D] [7BCDCDF3]
12 88.4 [0ACDB2BA] [EA632F06] [4EA7BF5C] [1AB09117]
13 75.5 [8D17A304] [88A761B6] [D8883B95] [413D6AA7]

Log created at February 25, 2018 00:20:38
Time elapsed: 7.858 s

=== 7A678ABC6B9C0BA6EE7155D98F1DF5BB52F24DB63318FB15D87294B4C56D04D6 ===

The Beatles: Dr. Ebbetts German Albums Collection (1964-1975) [2001-2008, 8CD]

Tracklist CD05 Something New (German Stereo) (1977) [1C 072-04 600]:

01. I'll Cry Instead [1:49]
02. Things We Said Today [2:38]
03. Any Time At All [2:13]
04. When I Get Home [2:18]
05. Slow Down [2:57]
06. Match Box [2:00]
07. Tell Me Why [2:10]
08. And I Love Her [2:39]
09. I'm Happy Just To Dance With You [1:58]
10. If I Fell [2:20]
11. Komm Gib Mir Deine Hand [2:26]

[CUETools log; Date: 25.01.2020 14:33:08; Version: 2.1.6]
[CTDB TOCID: npddYCprLQ..SD7t_DMB.uPpWQg-] found.
Track | CTDB Status
1 | (1/1) Accurately ripped
2 | (1/1) Accurately ripped
3 | (1/1) Accurately ripped
4 | (1/1) Accurately ripped
5 | (1/1) Accurately ripped
6 | (1/1) Accurately ripped
7 | (1/1) Accurately ripped
8 | (1/1) Accurately ripped
9 | (1/1) Accurately ripped
10 | (1/1) Accurately ripped
11 | (1/1) Accurately ripped
[AccurateRip ID: 000a6b99-005ab461-8405f90b] found.
Track [ CRC | V2 ] Status
01 [a60251e6|ce729aa0] (0+0/1) No match
02 [4ef531fb|a94a6461] (0+0/1) No match
03 [b7d5a9fb|fb81499d] (0+0/1) No match
04 [fedcf398|c0a219c2] (0+0/1) No match
05 [e5c64aa1|f1d55507] (0+0/1) No match
06 [316e3034|628a15d7] (0+0/1) No match
07 [d60f1fa8|4c3eced7] (0+0/1) No match
08 [49740dd6|5dd1ab4b] (0+0/1) No match
09 [43716ad0|695148dd] (0+0/1) No match
10 [90295ed4|84e4ea73] (0+0/1) No match
11 [ca63131f|2428c71e] (0+0/1) No match
Offsetted by -6:
01 [7e2b56a4] (0/1) No match (V2 was not tested)
02 [cf39901e] (0/1) No match (V2 was not tested)
03 [dc03eea4] (0/1) No match (V2 was not tested)
04 [732fb987] (0/1) No match (V2 was not tested)
05 [dcd49892] (0/1) No match (V2 was not tested)
06 [5674e5ed] (0/1) No match (V2 was not tested)
07 [36780ec3] (0/1) No match (V2 was not tested)
08 [8489a0d6] (0/1) No match (V2 was not tested)
09 [243807d6] (0/1) No match (V2 was not tested)
10 [014bac25] (0/1) No match (V2 was not tested)
11 [377656f6] (0/1) No match (V2 was not tested)

Track Peak [ CRC32 ] [W/O NULL]
– 100,0 [6525CAD9] [CEBD4982]
01 99,2 [EDA2F53E] [4E4BECD4]
02 96,7 [0515BCB7] [3D688EED]
03 100,0 [CD507F38] [169B6CA6]
04 99,2 [71F52D90] [8983FAD9]
05 99,2 [929EA5DA] [D1384A1E]
06 88,4 [0B9C41E0] [1E939663]
07 89,5 [D05C953D] [41701439]
08 88,1 [CC7BA5D7] [FF5D3C07]
09 96,4 [AE059E59] [37C339EA]
10 89,6 [B767E7C8] [BDE2690C]
11 93,9 [E4395DAF] [2D7D8F05]


The Beatles: Dr. Ebbetts German Albums Collection (1964-1975) [2001-2008, 8CD]

Tracklist CD06 The Beatles' Greatest (German Stereo) (1969) [1C 062-04 207]:

01. I Want To Hold Your Hand [2:27]
02. Twist And Shout [2:35]
03. A Hard Day's Night [2:35]
04. Eight Days A Week [2:45]
05. I Should Have Known Better [2:45]
06. Long Tall Sally [2:06]
07. She Loves You [2:23]
08. Please Mister Postman [2:35]
09. I Feel Fine [2:24]
10. Rock And Roll Music [2:33]
11. Ticket To Ride [3:08]
12. Please Please Me [2:01]
13. It Won't Be Long [2:14]
14. From Me To You [1:58]
15. Can't Buy Me Love [2:13]
16. All My Loving [2:09]

[CUETools log; Date: 25.01.2020 14:34:46; Version: 2.1.6]
[CTDB TOCID: mF2yiSNv0VrQYevgPlIis6mdwG4-] found.
Track | CTDB Status
1 | (1/1) Accurately ripped
2 | (1/1) Accurately ripped
3 | (1/1) Accurately ripped
4 | (1/1) Accurately ripped
5 | (1/1) Accurately ripped
6 | (1/1) Accurately ripped
7 | (1/1) Accurately ripped
8 | (1/1) Accurately ripped
9 | (1/1) Accurately ripped
10 | (1/1) Accurately ripped
11 | (1/1) Accurately ripped
12 | (1/1) Accurately ripped
13 | (1/1) Accurately ripped
14 | (1/1) Accurately ripped
15 | (1/1) Accurately ripped
16 | (1/1) Accurately ripped
[AccurateRip ID: 0017629f-01174c98-d1091b10] found.
Track [ CRC | V2 ] Status
01 [f0a53320|1dc869b1] (0+0/2) No match
02 [c6eb0127|4ff79f78] (0+0/2) No match
03 [f9967fd8|75257e8e] (0+0/2) No match
04 [2f8b72ca|0ac30abf] (0+0/2) No match
05 [59a55d6a|423ac83e] (0+0/2) No match
06 [12d9ec7d|2212dc06] (0+0/2) No match
07 [40ffe39a|4bb34683] (0+0/2) No match
08 [f7745dd4|0d499b9c] (0+0/2) No match
09 [1c7aaf7b|793e5c72] (0+0/2) No match
10 [8ca00904|d136fa69] (0+0/2) No match
11 [6122d914|8a625fcf] (0+0/2) No match
12 [9004fc64|178e04e6] (0+0/2) No match
13 [eab8fac8|609c0a2d] (0+0/2) No match
14 [08971dbc|4c97bd28] (0+0/2) No match
15 [a418e152|e49d9ee7] (0+0/2) No match
16 [392f6bec|8e6b4666] (0+0/2) No match

Track Peak [ CRC32 ] [W/O NULL]
– 100,0 [B6034970] [B2430E7F]
01 100,0 [015C937E] [2393243D]
02 96,7 [F3098D15] [609AC7CE]
03 96,1 [B0A99546] [708A32F9]
04 96,1 [AA114F62] [0F62B41B]
05 95,3 [F2C63F0C] [2D8A1612]
06 99,8 [AE8ABB48] [B909E84D]
07 99,9 [5665820D] [FEDBAD34]
08 97,6 [335360EA] [EEF53E4D]
09 100,0 [FC019159] [1A9ECB23]
10 98,2 [4A621A1E] [6AF7A3B8]
11 96,9 [5057446D] [45C39070]
12 91,9 [BCD0FCD1] [40C3FB18]
13 96,5 [CBE94507] [44B89F30]
14 96,6 [E1B9A37D] [3295B64D]
15 99,8 [3F9C5CAC] [206EA927]
16 91,9 [F878BC43] [2E27ABD2]


The Beatles: Dr. Ebbetts German Albums Collection (1964-1975) [2001-2008, 8CD]

Tracklist CD07 And Now The Beatles (German Stereo) (1966) [73 735 P 15]:

01. She Loves You [2:23]
02. Thank You Girl [2:04]
03. From Me To You [1:57]
04. I'll Get You [2:07]
05. I Want To Hold Your Hand [2:25]
06. Hold Me Tight [2:30]
07. Can't Buy Me Love [2:12]
08. You Can't Do That [2:37]
09. Roll Over Beethoven [2:46]
10. Till There Was You [2:13]
11. Money (That's What I Want) [2:47]
12. Please Mister Postman [2:34]

[CUETools log; Date: 25.01.2020 14:38:32; Version: 2.1.6]
[CTDB TOCID: d4.onF46iBP053JqgJx2LYWHtL8-] found.
Track | CTDB Status
1 | (1/1) Accurately ripped
2 | (1/1) Accurately ripped
3 | (1/1) Accurately ripped
4 | (1/1) Accurately ripped
5 | (1/1) Accurately ripped
6 | (1/1) Accurately ripped
7 | (1/1) Accurately ripped
8 | (1/1) Accurately ripped
9 | (1/1) Accurately ripped
10 | (1/1) Accurately ripped
11 | (1/1) Accurately ripped
12 | (1/1) Accurately ripped
[AccurateRip ID: 000c4818-0073b2e1-aa06b30c] found.
Track [ CRC | V2 ] Status
01 [94c56a7a|e32d4239] (0+0/2) No match
02 [c4cc6719|68f93468] (0+0/2) No match
03 [cfa7c581|96c71dfe] (0+0/2) No match
04 [fe2f7562|8ca52d13] (0+0/2) No match
05 [fccccb68|6d98326e] (0+0/2) No match
06 [12a90e3e|0e1e2c60] (0+0/2) No match
07 [9dc933c9|b0065ffd] (0+0/2) No match
08 [4aed7108|c61ccc07] (0+0/2) No match
09 [74a4e12c|95202497] (0+0/2) No match
10 [0937de69|c1a31d57] (0+0/2) No match
11 [f3438f28|07f36c1f] (0+0/2) No match
12 [6353cd7c|0606bc1e] (0+0/2) No match

Track Peak [ CRC32 ] [W/O NULL]
– 100,0 [A12B7D70] [E8F1BB53]
01 84,6 [521CD49B] [7F2732AB]
02 90,2 [573A36DE] [78B83079]
03 93,1 [A065EECD] [7F1068C1]
04 80,7 [CC020C93] [F181CA2A]
05 96,6 [DFC62C30] [0DFE842E]
06 100,0 [64642F0C] [22AB1490]
07 98,3 [AB647726] [BDDA48BD]
08 100,0 [A3770311] [12099D2C]
09 85,7 [DA83AE83] [E80FDC7D]
10 93,6 [8B04745A] [F648317D]
11 100,0 [19239F47] [2D42B397]
12 88,8 [17DF22AB] [D9F95CF6]


The Beatles: Dr. Ebbetts German Albums Collection (1964-1975) [2001-2008, 8CD]

Tracklist CD08 The World's Best (German Stereo) (1968) [77 235]:

01. Good Day Sunshine [2:13]
02. All My Loving [2:11]
03. Eight Days A Week [2:48]
04. No Reply [2:20]
05. Rock And Roll Music [2:35]
06. A Hard Day's Night [2:38]
07. I Should Have Known Better [2:48]
08. And I Love Her [2:34]
09. Things We Said Today [2:40]
10. Michelle [2:46]
11. Dr. Robert [2:16]
12. Yellow Submarine [2:44]
13. If I Fell [2:21]
14. And Your Bird Can Sing [2:04]
15. Girl [2:34]
16. Eleanor Rigby [2:09]

[CUETools log; Date: 25.01.2020 14:40:26; Version: 2.1.6]
[CTDB TOCID: fSDehCCCQb_ld1NRHctSz4SqIdg-] found.
Track | CTDB Status
1 | (2/2) Accurately ripped
2 | (2/2) Accurately ripped
3 | (2/2) Accurately ripped
4 | (2/2) Accurately ripped
5 | (2/2) Accurately ripped
6 | (2/2) Accurately ripped
7 | (2/2) Accurately ripped
8 | (2/2) Accurately ripped
9 | (2/2) Accurately ripped
10 | (2/2) Accurately ripped
11 | (2/2) Accurately ripped
12 | (2/2) Accurately ripped
13 | (2/2) Accurately ripped
14 | (2/2) Accurately ripped
15 | (2/2) Accurately ripped
16 | (2/2) Accurately ripped
[AccurateRip ID: 00174de5-0118b7ed-e0094b10] found.
Track [ CRC | V2 ] Status
01 [55470fd9|6ab78f68] (0+0/1) No match
02 [5a446879|ef0bcf1d] (0+0/1) No match
03 [d7a2e9a9|91a0dc9b] (0+0/1) No match
04 [437968a3|51038d02] (0+0/1) No match
05 [f80310a7|2519a0c5] (0+0/1) No match
06 [73e85d51|f21aeffc] (0+0/1) No match
07 [2269dc10|4c8c1066] (0+0/1) No match
08 [a7769589|196ae86b] (0+0/1) No match
09 [7c84a340|e10b2dcf] (0+0/1) No match
10 [559727fe|4128f043] (0+0/1) No match
11 [e956c976|ff3e1496] (0+0/1) No match
12 [02e9c5a2|c72297d5] (0+0/1) No match
13 [4f50ba4e|6a974799] (0+0/1) No match
14 [956acf2d|1bfd7f91] (0+0/1) No match
15 [e4754d58|29e9a2a2] (0+0/1) No match
16 [b04eae6a|2e1a8e39] (0+0/1) No match
Offsetted by -6:
01 [8f167a0c] (0/1) No match (V2 was not tested)
02 [902d75ee] (0/1) No match (V2 was not tested)
03 [437c79b9] (0/1) No match (V2 was not tested)
04 [78580333] (0/1) No match (V2 was not tested)
05 [1586ae05] (0/1) No match (V2 was not tested)
06 [6b93b7d3] (0/1) No match (V2 was not tested)
07 [44d30bf0] (0/1) No match (V2 was not tested)
08 [156e32a5] (0/1) No match (V2 was not tested)
09 [05857882] (0/1) No match (V2 was not tested)
10 [9d2aebc3] (0/1) No match (V2 was not tested)
11 [df1b9ec3] (0/1) No match (V2 was not tested)
12 [0b84c190] (0/1) No match (V2 was not tested)
13 [fe0c9512] (0/1) No match (V2 was not tested)
14 [8be85f00] (0/1) No match (V2 was not tested)
15 [cb431fff] (0/1) No match (V2 was not tested)
16 [09d54d47] (0/1) No match (V2 was not tested)

Track Peak [ CRC32 ] [W/O NULL]
– 100,0 [52F75C78] [05E060FD]
01 74,0 [DB96BF38] [78E4A04B]
02 82,4 [C5A20E9A] [9849553B]
03 80,4 [4AD6CB35] [1C642A4E]
04 100,0 [5C9D5226] [D4C56456]
05 84,4 [197B4FE0] [35500C52]
06 83,4 [DB88767D] [1C4A684A]
07 82,7 [2EEC3CD4] [09438522]
08 63,6 [7FEBFAE8] [A5B23A06]
09 72,8 [57429908] [502863D3]
10 75,2 [9873FF9C] [769F543E]
11 83,9 [9C9C7D5E] [7D226606]
12 80,7 [72EEB312] [404C494A]
13 71,2 [88053572] [1CE90472]
14 86,9 [AB9B118B] [95FCA21B]
15 81,7 [44C5D05B] [2DBA08BB]
16 79,1 [D188E019] [9C55E20B]


All thanks go to the original releaser

Beatles in my Blog

Download The Beatles: Dr. Ebbetts German Albums Collection (1964-1975):