Tags
Language
Tags

Behzod Abduraimov - Debussy, Chopin, Mussorgsky: Piano Music (2020)

Posted By: ArlegZ
Behzod Abduraimov - Debussy, Chopin, Mussorgsky: Piano Music (2020)

Behzod Abduraimov - Debussy, Chopin, Mussorgsky: Piano Music (2020)
EAC | FLAC | Image (Cue & Log) ~ 202 Mb | Total time: 85:51 | Scans included
Classical | Label: Alpha | # ALPHA653 | Recorded: 2020

Behzod Abduraimov joins Alpha for several recordings, starting with this kaleidoscope of miniatures miniatures that are in fact fairly gigantic, and showcase the Uzbek pianists extreme virtuosity and sensitivity. Each movement is in itself a miniature, and taken together they form a kaleidoscope of human emotions and images of all kinds, says Behzod Abduraimov. In his view, the pieces in Debussys Childrens Corner are not intended for young piano students, but for adults, so that they can immerse themselves in the world of children with a little nostalgia and a lot of humor. When it comes to Chopin, each prelude has a different musical essence, creates its own atmosphere. Together they form an arc spanning the distance from the first prelude to the last. So I tried to consider them as a whole. Finally, Mussorgsky evokes in ten highly expressive movements the paintings at an exhibition held in posthumous tribute to his friend Viktor Hartmann. A Promenade heard several times suggests Mussorgsky himself strolling through the exhibition. For Behzod Abduraimov, the Promenades play a key role in this cycle: they create the atmosphere before each painting.

Performer:
Behzod Abduraimov, piano

Track List:
Claude Debussy
Children's Corner, L.113
01. I. Doctor Gradus ad Parnassum
02. II. Jimbo's Lullaby
03. III. Serenade for the Doll
04. IV. The Snow Is Dancing
05. V. The Little Shepherd
06. VI. Golliwog's Cake-walk
Frédéric Chopin
24 Preludes, Op.28
07. No.1 in C Major – Agitato
08. No.2 in A Minor – Lento
09. No.3 in G Major – Vivace
10. No.4 in E Minor – Largo
11. No.5 in D Major – Allegro Molto
12. No.6 in B Minor – Lento Assai
13. No.7 in A Major – Andantino
14. No.8 in F Sharp Minor – Molto Agitato
15. No.9 in E Major – Largo
16. No.10 in C Sharp Minor – Allegro Molto
17. No.11 in B Major – Vivace
18. No.12 in G Sharp Minor – Presto
19. No.13 in F Sharp Major – Lento
20. No.14 in E Flat Minor – Allegro
21. No.15 in D Flat Major – Sostenuto
22. No.16 in B Flat Minor – Presto Con Fuoco
23. No.17 in A Flat Major – Allegretto
24. No.18 in F Minor – Allegro Molto
25. No.19 in E Flat Major – Vivace
26. No.20 in C Minor – Largo
27. No.21 in B Flat Major – Cantabile
28. No.22 in G Minor – Molto Agitato
29. No.23 in F Major – Moderato
30. No.24 in D Minor – Allegro Appassionato
Modest Mussorgsky
Pictures at an Exhibition
31. Promenade I
32. 1. Gnomus
33. Promenade II
34. 2. Il Vecchio Castello
35. Promenade III
36. 3. Tuileries (Dispute d'enfants après jeux)
37. 4. Bydło
38. Promenade IV
39. 5. Ballet of the Unhatched Chicks
40. 6. "Samuel" Goldenberg und "Schmuÿle"
41. 7. Limoges, le marché (La grande nouvelle)
42. 8. Catacombae (Sepulcrum romanum)
43. 9. The Hut on Fowl's Legs (Baba-Yagá)
44. 10. The Great Gate of Kiev


Exact Audio Copy V1.5 from 20. February 2020

EAC extraction logfile from 28. April 2021, 20:45

Behzod Abduraimov / Debussy, Chopin, Mussorgsky - Piano Music

Used drive : ASUS SDRW-08U7M-U Adapter: 1 ID: 0

Read mode : Secure
Utilize accurate stream : Yes
Defeat audio cache : Yes
Make use of C2 pointers : No

Read offset correction : 6
Overread into Lead-In and Lead-Out : No
Fill up missing offset samples with silence : Yes
Delete leading and trailing silent blocks : No
Null samples used in CRC calculations : Yes
Used interface : Native Win32 interface for Win NT & 2000

Used output format : User Defined Encoder
Selected bitrate : 128 kBit/s
Quality : High
Add ID3 tag : No
Command line compressor : C:\Program Files (x86)\Exact Audio Copy\Flac\flac.exe
Additional command line options : -V -8 -T "Date=%year%" -T "Genre=%genre%" %source%


TOC of the extracted CD

Track | Start | Length | Start sector | End sector
––––––––––––––––––––––––––––-
1 | 0:00.00 | 2:13.25 | 0 | 9999
2 | 2:13.25 | 3:22.54 | 10000 | 25203
3 | 5:36.04 | 2:19.68 | 25204 | 35696
4 | 7:55.72 | 2:27.59 | 35697 | 46780
5 | 10:23.56 | 2:30.02 | 46781 | 58032
6 | 12:53.58 | 2:57.58 | 58033 | 71365
7 | 15:51.41 | 0:36.56 | 71366 | 74121
8 | 16:28.22 | 2:13.24 | 74122 | 84120
9 | 18:41.46 | 0:51.19 | 84121 | 87964
10 | 19:32.65 | 1:54.18 | 87965 | 96532
11 | 21:27.08 | 0:34.30 | 96533 | 99112
12 | 22:01.38 | 1:50.34 | 99113 | 107396
13 | 23:51.72 | 0:35.34 | 107397 | 110055
14 | 24:27.31 | 1:39.71 | 110056 | 117551
15 | 26:07.27 | 1:20.40 | 117552 | 123591
16 | 27:27.67 | 0:32.69 | 123592 | 126060
17 | 28:00.61 | 0:32.42 | 126061 | 128502
18 | 28:33.28 | 1:10.42 | 128503 | 133794
19 | 29:43.70 | 2:56.19 | 133795 | 147013
20 | 32:40.14 | 0:28.19 | 147014 | 149132
21 | 33:08.33 | 5:23.55 | 149133 | 173412
22 | 38:32.13 | 1:01.34 | 173413 | 178021
23 | 39:33.47 | 3:11.63 | 178022 | 192409
24 | 42:45.35 | 0:54.08 | 192410 | 196467
25 | 43:39.43 | 1:17.07 | 196468 | 202249
26 | 44:56.50 | 1:39.29 | 202250 | 209703
27 | 46:36.04 | 1:44.50 | 209704 | 217553
28 | 48:20.54 | 0:42.63 | 217554 | 220766
29 | 49:03.42 | 0:55.50 | 220767 | 224941
30 | 49:59.17 | 2:23.50 | 224942 | 235716
31 | 52:22.67 | 1:24.38 | 235717 | 242054
32 | 53:47.30 | 2:32.13 | 242055 | 253467
33 | 56:19.43 | 0:50.26 | 253468 | 257243
34 | 57:09.69 | 4:28.18 | 257244 | 277361
35 | 61:38.12 | 0:28.21 | 277362 | 279482
36 | 62:06.33 | 1:02.03 | 279483 | 284135
37 | 63:08.36 | 3:04.67 | 284136 | 298002
38 | 66:13.28 | 0:45.37 | 298003 | 301414
39 | 66:58.65 | 1:08.17 | 301415 | 306531
40 | 68:07.07 | 2:32.57 | 306532 | 317988
41 | 70:39.64 | 1:20.15 | 317989 | 324003
42 | 72:00.04 | 3:46.58 | 324004 | 341011
43 | 75:46.62 | 3:12.70 | 341012 | 355481
44 | 78:59.57 | 4:49.37 | 355482 | 377193


Range status and errors

Selected range

Filename C:\temp\Alpha 653 - Debussy, Chopin, Mussorgsky - Abduraimov - 2020\Debussy, Chopin, Mussorgsky - Piano Music.wav

Peak level 100.0 %
Extraction speed 5.5 X
Range quality 100.0 %
Test CRC 3B124EC0
Copy CRC 3B124EC0
Copy OK

No errors occurred


AccurateRip summary

Track 1 accurately ripped (confidence 1) [4956812E] (AR v2)
Track 2 accurately ripped (confidence 1) [E15930E2] (AR v2)
Track 3 accurately ripped (confidence 1) [403549AC] (AR v2)
Track 4 accurately ripped (confidence 1) [40754681] (AR v2)
Track 5 accurately ripped (confidence 1) [11964FC3] (AR v2)
Track 6 accurately ripped (confidence 1) [9C17B092] (AR v2)
Track 7 accurately ripped (confidence 1) [52EE1B8F] (AR v2)
Track 8 accurately ripped (confidence 1) [8F06BDB0] (AR v2)
Track 9 accurately ripped (confidence 1) [18BFE9FA] (AR v2)
Track 10 accurately ripped (confidence 1) [242752BA] (AR v2)
Track 11 accurately ripped (confidence 1) [B733CE34] (AR v2)
Track 12 accurately ripped (confidence 1) [7E9B0F21] (AR v2)
Track 13 accurately ripped (confidence 1) [CB5F0811] (AR v2)
Track 14 accurately ripped (confidence 1) [34F57AD9] (AR v2)
Track 15 accurately ripped (confidence 1) [CE0D944F] (AR v2)
Track 16 accurately ripped (confidence 1) [A6BDFCDB] (AR v2)
Track 17 accurately ripped (confidence 1) [F6884933] (AR v2)
Track 18 accurately ripped (confidence 1) [F0D147A3] (AR v2)
Track 19 accurately ripped (confidence 1) [3F1F921E] (AR v2)
Track 20 accurately ripped (confidence 1) [5198167B] (AR v2)
Track 21 accurately ripped (confidence 1) [FAF5CE24] (AR v2)
Track 22 accurately ripped (confidence 1) [1FB8CD13] (AR v2)
Track 23 accurately ripped (confidence 1) [E625AA18] (AR v2)
Track 24 accurately ripped (confidence 1) [AFE3D506] (AR v2)
Track 25 accurately ripped (confidence 1) [EDD41AEE] (AR v2)
Track 26 accurately ripped (confidence 1) [525A5531] (AR v2)
Track 27 accurately ripped (confidence 1) [8DE0F6BC] (AR v2)
Track 28 accurately ripped (confidence 1) [1026769B] (AR v2)
Track 29 accurately ripped (confidence 1) [DE2CF309] (AR v2)
Track 30 accurately ripped (confidence 1) [C75A7A7C] (AR v2)
Track 31 accurately ripped (confidence 1) [8AC6A5FB] (AR v2)
Track 32 accurately ripped (confidence 1) [2705DD02] (AR v2)
Track 33 accurately ripped (confidence 1) [915BD6CC] (AR v2)
Track 34 accurately ripped (confidence 1) [98AA8C9E] (AR v2)
Track 35 accurately ripped (confidence 1) [3B5A9C53] (AR v2)
Track 36 accurately ripped (confidence 1) [4F074432] (AR v2)
Track 37 accurately ripped (confidence 1) [97AD5893] (AR v2)
Track 38 accurately ripped (confidence 1) [4AFAC881] (AR v2)
Track 39 accurately ripped (confidence 1) [A0031555] (AR v2)
Track 40 accurately ripped (confidence 1) [82C3F650] (AR v2)
Track 41 accurately ripped (confidence 1) [E3A52011] (AR v2)
Track 42 accurately ripped (confidence 1) [33E8D2D9] (AR v2)
Track 43 accurately ripped (confidence 1) [24B26582] (AR v2)
Track 44 accurately ripped (confidence 1) [98F8E59B] (AR v2)

All tracks accurately ripped

End of status report

==== Log checksum 3803FAB505243D8286E893E6D1E327852BA138F00E5EAEABAC9273585E2B572B ====

Behzod Abduraimov - Debussy, Chopin, Mussorgsky: Piano Music (2020)

Thanks to the original releaser