Subcategories

Bela Fleck & Marcus Roberts - Across The Imaginary Divide (2012)

Posted By: tiburon
Bela Fleck & Marcus Roberts - Across The Imaginary Divide (2012)

Bela Fleck And The Marcus Roberts Trio - Across the Imaginary Divide (2012)
EAC 1.0b3 | FLAC tracks level 8 | Cue+Log+M3U | Full Scans 300dpi | 357MB + 5% Recovery
MP3 CBR 320 Kbps | 161MB + 5% Recovery
Genre: Jazz

2012 collaboration between banjo virtuoso Bela Fleck and Jazz pianist Marcus Roberts and his trio. Roberts' Trio is known for its virtuosic style: a style that is strongly rhythmic, melodic, and filled with dynamic contrast. Fleck is often considered the premier banjo player in the world. He has virtually reinvented the image and the sound of the banjo through a remarkable performing and recording career that has taken him all over the musical map and on a range of solo projects and collaborations.
Track List
01. Some Roads Lead Home 6:19
02. I'm Gonna Tell You This Story One More Time 5:44
03. Across The Imaginary Divide 4:45
04. Let Me Show You What To Do 4:57
05. Petunia 5:03
06. Topaika 4:36
07. One Blue Truth 4:29
08. Let's Go 6:00
09. Kalimba 6:24
10. The Sunshine And The Moonlight 5:39
11. That Old Thing 5:10
12. That Ragtime Feeling 4:08

musicians
Bela Fleck - banjo
Marcus Roberts - piano
Rodney Jordan - bass
Jason Marsalis - drums

Produced by Bela Fleck and Marcus Roberts


Exact Audio Copy V1.0 beta 3 from 29. August 2011

EAC extraction logfile from 12. November 2012, 10:15

Bela Fleck & The Marcus Roberts / Across The Imaginary Divide

Used drive : HL-DT-STDVDRAM GH20NS10 Adapter: 2 ID: 1

Read mode : Secure
Utilize accurate stream : Yes
Defeat audio cache : Yes
Make use of C2 pointers : No

Read offset correction : 667
Overread into Lead-In and Lead-Out : No
Fill up missing offset samples with silence : Yes
Delete leading and trailing silent blocks : No
Null samples used in CRC calculations : Yes
Used interface : Native Win32 interface for Win NT & 2000
Gap handling : Appended to previous track

Used output format : User Defined Encoder
Selected bitrate : 1024 kBit/s
Quality : High
Add ID3 tag : No
Command line compressor : C:\Program Files\Exact Audio Copy\Flac\flac.exe
Additional command line options : -8 -V -T "ARTIST=%artist%" -T "TITLE=%title%" -T "ALBUM=%albumtitle%" -T "DATE=%year%" -T "TRACKNUMBER=%tracknr%" -T "TOTALTRACKS=%numtracks%" -T "GENRE=%genre%" -T "ALBUMARTIST=%albumartist%" -T "ALBUM ARTIST=%albumartist%" -T "COMMENT=EAC Secure Mode, Test & Copy, AccurateRip, FLAC -8" %source%


TOC of the extracted CD

Track | Start | Length | Start sector | End sector
––––––––––––––––––––––––––––-
1 | 0:00.00 | 6:16.59 | 0 | 28258
2 | 6:16.59 | 5:41.73 | 28259 | 53906
3 | 11:58.57 | 4:42.59 | 53907 | 75115
4 | 16:41.41 | 4:54.71 | 75116 | 97236
5 | 21:36.37 | 5:01.17 | 97237 | 119828
6 | 26:37.54 | 4:33.39 | 119829 | 140342
7 | 31:11.18 | 4:26.54 | 140343 | 160346
8 | 35:37.72 | 5:57.74 | 160347 | 187195
9 | 41:35.71 | 6:22.25 | 187196 | 215870
10 | 47:58.21 | 5:36.72 | 215871 | 241142
11 | 53:35.18 | 5:07.61 | 241143 | 264228
12 | 58:43.04 | 4:08.32 | 264229 | 282860


Track 1

Filename D:\Bela Fleck & Marcus Roberts - Across The Imaginary Divide (2012) [FLAC]\01 - Some Roads Lead Home.wav

Pre-gap length 0:00:02.00

Peak level 99.5 %
Extraction speed 4.3 X
Track quality 99.9 %
Test CRC 1AE47CFC
Copy CRC 1AE47CFC
Cannot be verified as accurate (confidence 6) [BB08658D], AccurateRip returned [21F34EA6] (AR v2)
Copy OK

Track 2

Filename D:\Bela Fleck & Marcus Roberts - Across The Imaginary Divide (2012) [FLAC]\02 - I'm Gonna Tell You This Story One More Time.wav

Peak level 99.5 %
Extraction speed 4.8 X
Track quality 99.9 %
Test CRC C9E58363
Copy CRC C9E58363
Cannot be verified as accurate (confidence 6) [75BF8958], AccurateRip returned [C3BCCDCA] (AR v2)
Copy OK

Track 3

Filename D:\Bela Fleck & Marcus Roberts - Across The Imaginary Divide (2012) [FLAC]\03 - Across The Imaginary Divide.wav

Peak level 99.5 %
Extraction speed 5.8 X
Track quality 100.0 %
Test CRC 41B27D34
Copy CRC 41B27D34
Cannot be verified as accurate (confidence 6) [15794BF3], AccurateRip returned [DD8B66FC] (AR v2)
Copy OK

Track 4

Filename D:\Bela Fleck & Marcus Roberts - Across The Imaginary Divide (2012) [FLAC]\04 - Let Me Show You What To Do.wav

Peak level 99.5 %
Extraction speed 6.3 X
Track quality 100.0 %
Test CRC 1985EF7E
Copy CRC 1985EF7E
Cannot be verified as accurate (confidence 6) [BDFB946E], AccurateRip returned [C633EF26] (AR v2)
Copy OK

Track 5

Filename D:\Bela Fleck & Marcus Roberts - Across The Imaginary Divide (2012) [FLAC]\05 - Petunia.wav

Peak level 99.5 %
Extraction speed 6.6 X
Track quality 100.0 %
Test CRC 9C74A14D
Copy CRC 9C74A14D
Cannot be verified as accurate (confidence 6) [2145DBEE], AccurateRip returned [A1E315A7] (AR v2)
Copy OK

Track 6

Filename D:\Bela Fleck & Marcus Roberts - Across The Imaginary Divide (2012) [FLAC]\06 - Topaika.wav

Peak level 99.5 %
Extraction speed 5.8 X
Track quality 99.9 %
Test CRC 1B406325
Copy CRC 1B406325
Cannot be verified as accurate (confidence 6) [35F76FFF], AccurateRip returned [E0B74B21] (AR v2)
Copy OK

Track 7

Filename D:\Bela Fleck & Marcus Roberts - Across The Imaginary Divide (2012) [FLAC]\07 - One Blue Truth.wav

Peak level 99.5 %
Extraction speed 7.2 X
Track quality 100.0 %
Test CRC 711C9B63
Copy CRC 711C9B63
Cannot be verified as accurate (confidence 6) [05C1D886], AccurateRip returned [8C797FB3] (AR v2)
Copy OK

Track 8

Filename D:\Bela Fleck & Marcus Roberts - Across The Imaginary Divide (2012) [FLAC]\08 - Let's Go.wav

Peak level 99.5 %
Extraction speed 7.6 X
Track quality 100.0 %
Test CRC 30BAE39C
Copy CRC 30BAE39C
Cannot be verified as accurate (confidence 6) [3A20F3EB], AccurateRip returned [D563784B] (AR v2)
Copy OK

Track 9

Filename D:\Bela Fleck & Marcus Roberts - Across The Imaginary Divide (2012) [FLAC]\09 - Kalimba.wav

Peak level 99.5 %
Extraction speed 8.0 X
Track quality 100.0 %
Test CRC 71C54D68
Copy CRC 71C54D68
Cannot be verified as accurate (confidence 6) [E427D655], AccurateRip returned [0287A829] (AR v2)
Copy OK

Track 10

Filename D:\Bela Fleck & Marcus Roberts - Across The Imaginary Divide (2012) [FLAC]\10 - The Sunshine And The Moonlight.wav

Peak level 99.5 %
Extraction speed 7.3 X
Track quality 99.9 %
Test CRC 85F5971B
Copy CRC 85F5971B
Cannot be verified as accurate (confidence 6) [9891A1FB], AccurateRip returned [AD920D35] (AR v2)
Copy OK

Track 11

Filename D:\Bela Fleck & Marcus Roberts - Across The Imaginary Divide (2012) [FLAC]\11 - That Old Thing.wav

Peak level 99.5 %
Extraction speed 8.6 X
Track quality 100.0 %
Test CRC 274EE67B
Copy CRC 274EE67B
Cannot be verified as accurate (confidence 6) [4C3CC7A5], AccurateRip returned [9BD546C1] (AR v2)
Copy OK

Track 12

Filename D:\Bela Fleck & Marcus Roberts - Across The Imaginary Divide (2012) [FLAC]\12 - That Ragtime Feeling.wav

Peak level 99.5 %
Extraction speed 7.9 X
Track quality 100.0 %
Test CRC FC1CAEF0
Copy CRC FC1CAEF0
Cannot be verified as accurate (confidence 6) [6653BAF9], AccurateRip returned [3C3ABE86] (AR v2)
Copy OK


No tracks could be verified as accurate
You may have a different pressing from the one(s) in the database

No errors occurred

End of status report

==== Log checksum 5261B5B8CA918CBEED0A4D84855AAE933F2276E31756B7D9CC614D27C179D426 ====


––––––––––––––––––––––––––––––––––––––––
Analyzed: Bela Fleck & The Marcus Roberts / Across The Imaginary Divide
––––––––––––––––––––––––––––––––––––––––

DR Peak RMS Duration Track
––––––––––––––––––––––––––––––––––––––––
DR10 -0.04 dB -13.15 dB 6:17 01-Some Roads Lead Home
DR10 -0.04 dB -12.52 dB 5:42 02-I'm Gonna Tell You This Story One More Time
DR8 -0.04 dB -10.59 dB 4:43 03-Across The Imaginary Divide
DR10 -0.04 dB -13.46 dB 4:55 04-Let Me Show You What To Do
DR10 -0.04 dB -12.04 dB 5:01 05-Petunia
DR11 -0.04 dB -13.60 dB 4:34 06-Topaika
DR11 -0.04 dB -14.11 dB 4:27 07-One Blue Truth
DR9 -0.04 dB -11.38 dB 5:58 08-Let's Go
DR12 -0.04 dB -16.75 dB 6:22 09-Kalimba
DR12 -0.04 dB -14.19 dB 5:37 10-The Sunshine And The Moonlight
DR11 -0.04 dB -14.51 dB 5:08 11-That Old Thing
DR11 -0.04 dB -12.84 dB 4:08 12-That Ragtime Feeling
––––––––––––––––––––––––––––––––––––––––

Number of tracks: 12
Official DR value: DR10

Samplerate: 44100 Hz
Channels: 2
Bits per sample: 16
Bitrate: 754 kbps
Codec: FLAC
================================================================================

Bela Fleck & Marcus Roberts - Across The Imaginary Divide (2012)
Bela Fleck & Marcus Roberts - Across The Imaginary Divide (2012)
Bela Fleck & Marcus Roberts - Across The Imaginary Divide (2012)