Subcategories

Bernard Allison Group - Hang On! (1993)

Posted By: popsakov
Bernard Allison Group - Hang On! (1993)

Bernard Allison Group - Hang On! (1993)
EAC Rip | FLAC (Tracks) + Cue + m3u + Log ~ 407 Mb | MP3 CBR320 ~ 151 Mb
Full Scans ~ 35 Mb | 01:03:08 | RAR 5% Recovery
Modern Electric Blues, Blues Rock | Inak #INAK 9017 CD

One of the earliest Bernard Allison albums, recorded in 1992 and reissued in late 2001 (unfortunately complete with its original tacky cover art), is a middling effort from a talented bluesman who hadn't found his niche. Recorded live in the studio with his dad Luther's band in Paris, where they were living at the time, Bernard compensates for his lack of direction by playing very loud and very fast. While the band of pros keeps the music simmering, Allison's gruff voice and aggressive approach make the songs often seem like bluesy Southern rock instead of the electrified Chicago blues that his dad epitomized. Certainly the younger Allison was grieving the then-recent death of Stevie Ray Vaughan, as tunes like "Missing Stevie," the title track (which edges dangerously close to Deep Purple territory), and the closing ten-minute "Voodoo Chile Medley" (which includes excerpts from Lonnie Mack's "Wham" and Vaughan's "Testify") attest. Even his rugged but not totally successful version of "Rockin' Robin" sounds like it was run through the SRV blender, all tough shards of solos and husky vocals twisting the twee radio hit into a boogie-fied romp. There's no doubt the man can play his guitar, as evidenced on the slow blues of "You're Hurting Me," and there are moments of startling intensity here. But the whole doesn't cohere as anything more than a talented guitarist who loves his blues-rawk but hasn't found his own voice yet. Oddly, this quickie reissue with almost no liner notes misspells Don Nix's name (the writer of "Going Down") and more shockingly leaves in a typo that omits a "t" in dad Luther's first name, showing that there was shamefully little time or effort put into this reissue. Still, fans of either father or son of the Allison surname will want to own this, if only as an indication of the raw talent that Bernard would later harness with more skill, creativity, and aplomb.

~ Hal Horowitz, All Music

***************

Bernard Allison Group - Hang On! (1993)

Bernard Allison Group - Hang On! (1993)

Track List:

01. Mai [5:12]
02. Going Down [4:20]
03. Cadillac Assembly Line [6:08]
04. Voodoo Thang [4:54]
05. Missing Stevie [3:50]
06. Action Speaks Louder Than Words [4:18]
07. Rockin Robin [6:51]
08. You’re Hurting Me [5:05]
09. Hang On [3:38]
10. Looking Beyond The Past [3:34]
11. Idols In Mind [4:26]
12. Voodoo Chile Medley [10:53]

Exact Audio Copy V1.3 from 2. September 2016

EAC extraction logfile from 30. April 2019, 10:17

Bernard Allison / Hang On!

Used drive : PIONEER DVD-RW DVR-219L Adapter: 1 ID: 0

Read mode : Secure
Utilize accurate stream : Yes
Defeat audio cache : Yes
Make use of C2 pointers : No

Read offset correction : 6
Overread into Lead-In and Lead-Out : No
Fill up missing offset samples with silence : Yes
Delete leading and trailing silent blocks : No
Null samples used in CRC calculations : Yes
Used interface : Native Win32 interface for Win NT & 2000
Gap handling : Appended to previous track

Used output format : User Defined Encoder
Selected bitrate : 128 kBit/s
Quality : High
Add ID3 tag : No
Command line compressor : C:\Program Files\Exact Audio Copy\Flac\flac.exe
Additional command line options : -8 -e -p -V -T "ARTIST=%artist%" -T "TITLE=%title%" -T "ALBUM=%albumtitle%" -T "DATE=%year%" -T "TRACKNUMBER=%tracknr%" -T "GENRE=%genre%" -T "PERFORMER=%albuminterpret%" -T "COMPOSER=%composer%" %haslyrics%–tag-from-file=LYRICS="%lyricsfile%"%haslyrics% -T "ALBUMARTIST=%albumartist%" -T "DISCNUMBER=%cdnumber%" -T "TOTALDISCS=%totalcds%" -T "TOTALTRACKS=%numtracks%" -T "COMMENT=%comment%" %source% -o %dest%


TOC of the extracted CD

Track | Start | Length | Start sector | End sector
––––––––––––––––––––––––––––-
1 | 0:00.00 | 5:11.57 | 0 | 23381
2 | 5:11.57 | 4:20.08 | 23382 | 42889
3 | 9:31.65 | 6:07.55 | 42890 | 70469
4 | 15:39.45 | 4:53.42 | 70470 | 92486
5 | 20:33.12 | 3:49.38 | 92487 | 109699
6 | 24:22.50 | 4:18.27 | 109700 | 129076
7 | 28:41.02 | 6:50.40 | 129077 | 159866
8 | 35:31.42 | 5:05.30 | 159867 | 182771
9 | 40:36.72 | 3:37.63 | 182772 | 199109
10 | 44:14.60 | 3:33.57 | 199110 | 215141
11 | 47:48.42 | 4:26.03 | 215142 | 235094
12 | 52:14.45 | 10:53.07 | 235095 | 284076


Track 1

Filename E:\alexbras\1993 Bernard Allison Group - Hang On!\01. Mai.wav

Pre-gap length 0:00:02.00

Peak level 79.3 %
Extraction speed 1.8 X
Track quality 99.9 %
Test CRC B5B2B152
Copy CRC B5B2B152
Accurately ripped (confidence 12) [EE2B51B5] (AR v2)
Copy OK

Track 2

Filename E:\alexbras\1993 Bernard Allison Group - Hang On!\02. Going Down.wav

Pre-gap length 0:00:02.05

Peak level 99.0 %
Extraction speed 2.1 X
Track quality 100.0 %
Test CRC 7C2D4295
Copy CRC 7C2D4295
Accurately ripped (confidence 13) [4F7CCF51] (AR v2)
Copy OK

Track 3

Filename E:\alexbras\1993 Bernard Allison Group - Hang On!\03. Cadillac Assembly Line.wav

Pre-gap length 0:00:01.13

Peak level 94.3 %
Extraction speed 2.4 X
Track quality 100.0 %
Test CRC DD9B9D74
Copy CRC DD9B9D74
Accurately ripped (confidence 12) [574D340B] (AR v2)
Copy OK

Track 4

Filename E:\alexbras\1993 Bernard Allison Group - Hang On!\04. Voodoo Thang.wav

Pre-gap length 0:00:01.68

Peak level 82.2 %
Extraction speed 2.6 X
Track quality 100.0 %
Test CRC D1321C8D
Copy CRC D1321C8D
Accurately ripped (confidence 12) [458D9789] (AR v2)
Copy OK

Track 5

Filename E:\alexbras\1993 Bernard Allison Group - Hang On!\05. Missing Stevie.wav

Pre-gap length 0:00:03.35

Peak level 93.7 %
Extraction speed 2.7 X
Track quality 100.0 %
Test CRC 6FE8F472
Copy CRC 6FE8F472
Accurately ripped (confidence 13) [0B501A13] (AR v2)
Copy OK

Track 6

Filename E:\alexbras\1993 Bernard Allison Group - Hang On!\06. Action Speaks Louder Than Words.wav

Pre-gap length 0:00:01.73

Peak level 94.2 %
Extraction speed 2.9 X
Track quality 100.0 %
Test CRC 4995906E
Copy CRC 4995906E
Accurately ripped (confidence 12) [F1382BBC] (AR v2)
Copy OK

Track 7

Filename E:\alexbras\1993 Bernard Allison Group - Hang On!\07. Rockin Robin.wav

Pre-gap length 0:00:01.25

Peak level 95.0 %
Extraction speed 3.2 X
Track quality 100.0 %
Test CRC A0B6CC78
Copy CRC A0B6CC78
Accurately ripped (confidence 12) [1EDE7212] (AR v2)
Copy OK

Track 8

Filename E:\alexbras\1993 Bernard Allison Group - Hang On!\08. You’re Hurting Me.wav

Peak level 93.4 %
Extraction speed 3.3 X
Track quality 100.0 %
Test CRC 18CBFE69
Copy CRC 18CBFE69
Accurately ripped (confidence 12) [F8A15B16] (AR v2)
Copy OK

Track 9

Filename E:\alexbras\1993 Bernard Allison Group - Hang On!\09. Hang On.wav

Pre-gap length 0:00:01.20

Peak level 74.7 %
Extraction speed 3.3 X
Track quality 100.0 %
Test CRC F6513263
Copy CRC F6513263
Accurately ripped (confidence 13) [0B6E8C42] (AR v2)
Copy OK

Track 10

Filename E:\alexbras\1993 Bernard Allison Group - Hang On!\10. Looking Beyond The Past.wav

Pre-gap length 0:00:01.08

Peak level 82.6 %
Extraction speed 2.9 X
Track quality 99.9 %
Test CRC 75AB369F
Copy CRC 75AB369F
Accurately ripped (confidence 12) [4733D929] (AR v2)
Copy OK

Track 11

Filename E:\alexbras\1993 Bernard Allison Group - Hang On!\11. Idols In Mind.wav

Pre-gap length 0:00:00.65

Peak level 93.6 %
Extraction speed 3.5 X
Track quality 100.0 %
Test CRC 225E703B
Copy CRC 225E703B
Accurately ripped (confidence 12) [217E0865] (AR v2)
Copy OK

Track 12

Filename E:\alexbras\1993 Bernard Allison Group - Hang On!\12. Voodoo Chile Medley.wav

Pre-gap length 0:00:00.68

Peak level 44.3 %
Extraction speed 4.0 X
Track quality 100.0 %
Test CRC 6E182941
Copy CRC 6E182941
Accurately ripped (confidence 12) [782C04CA] (AR v2)
Copy OK


All tracks accurately ripped

No errors occurred

End of status report

==== Log checksum 42B168F52F24B0594CCA8E079148DABD7BBB9BA1E8436CBFD949A7C71BD199F7 ====

[CUETools log; Date: 16.11.2019 20:33:59; Version: 2.1.6]
[CTDB TOCID: rStNIc4wXT2c5_VF90paQrjJ.To-] found.
Track | CTDB Status
1 | (61/62) Accurately ripped
2 | (61/62) Accurately ripped
3 | (62/62) Accurately ripped
4 | (62/62) Accurately ripped
5 | (62/62) Accurately ripped
6 | (62/62) Accurately ripped
7 | (62/62) Accurately ripped
8 | (61/62) Accurately ripped
9 | (62/62) Accurately ripped
10 | (62/62) Accurately ripped
11 | (62/62) Accurately ripped
12 | (62/62) Accurately ripped
[AccurateRip ID: 001a9cc5-00f85eb8-980ecb0c] found.
Track [ CRC | V2 ] Status
01 [824ee922|ee2b51b5] (03+13/34) Accurately ripped
02 [dfb1f02d|4f7ccf51] (03+14/35) Accurately ripped
03 [3ad58813|574d340b] (03+13/35) Accurately ripped
04 [e1b8a72a|458d9789] (03+13/34) Accurately ripped
05 [4a7c0d64|0b501a13] (03+14/35) Accurately ripped
06 [4b406fc3|f1382bbc] (03+13/34) Accurately ripped
07 [69cb3eb6|1ede7212] (03+13/34) Accurately ripped
08 [60114f5e|f8a15b16] (03+13/35) Accurately ripped
09 [0c72fe68|0b6e8c42] (03+14/35) Accurately ripped
10 [25da8406|4733d929] (03+13/34) Accurately ripped
11 [ba6e50ea|217e0865] (03+13/34) Accurately ripped
12 [452e384f|782c04ca] (03+13/34) Accurately ripped
Offsetted by -1621:
01 [0e193e20] (04/34) Accurately ripped
02 [6311ff86] (04/35) Accurately ripped
03 [0c76dcab] (04/35) Accurately ripped
04 [344e21de] (04/34) Accurately ripped
05 [121dd162] (04/35) Accurately ripped
06 [f427347f] (04/34) Accurately ripped
07 [b1551069] (04/34) Accurately ripped
08 [b83e8877] (04/35) Accurately ripped
09 [2a91f35c] (04/35) Accurately ripped
10 [911dce98] (04/34) Accurately ripped
11 [5e437a87] (04/34) Accurately ripped
12 [80280c90] (04/34) Accurately ripped
Offsetted by -1552:
01 [f8505277] (02/34) Accurately ripped
02 [0de2ca90] (02/35) Accurately ripped
03 [bfdeb47d] (02/35) Accurately ripped
04 [7171448f] (02/34) Accurately ripped
05 [6977724d] (02/35) Accurately ripped
06 [cac46211] (02/34) Accurately ripped
07 [8494892f] (02/34) Accurately ripped
08 [ee003d18] (02/35) Accurately ripped
09 [cf0d0a7d] (02/35) Accurately ripped
10 [cb0a18a3] (02/34) Accurately ripped
11 [015d4282] (02/34) Accurately ripped
12 [6a137962] (02/34) Accurately ripped
Offsetted by -871:
01 [231eaa4f] (04/34) Accurately ripped
02 [3ac3fa21] (04/35) Accurately ripped
03 [6823c7e3] (05/35) Accurately ripped
04 [33828775] (04/34) Accurately ripped
05 [dad823f5] (04/35) Accurately ripped
06 [adc80d1b] (04/34) Accurately ripped
07 [c40b9160] (04/34) Accurately ripped
08 [dfa7f890] (05/35) Accurately ripped
09 [19e8e1d4] (04/35) Accurately ripped
10 [7e6491ea] (04/34) Accurately ripped
11 [cc6e9158] (04/34) Accurately ripped
12 [78f6cfef] (04/34) Accurately ripped
Offsetted by -2163:
01 [0b02611b] (00/34) No match (V2 was not tested)
02 [64361bbd] (00/35) No match (V2 was not tested)
03 [b64477e0] (00/35) No match (V2 was not tested)
04 [3a6f9eff] (00/34) No match (V2 was not tested)
05 [359dfbe2] (00/35) No match (V2 was not tested)
06 [0bfae7ab] (00/34) No match (V2 was not tested)
07 [3d3785e3] (00/34) No match (V2 was not tested)
08 [5bcaa235] (00/35) No match (V2 was not tested)
09 [b95f16f2] (00/35) No match (V2 was not tested)
10 [6f59389f] (00/34) No match (V2 was not tested)
11 [0a451504] (00/34) No match (V2 was not tested)
12 [6d1a3984] (00/34) No match (V2 was not tested)
Offsetted by -1535:
01 [4d68a003] (00/34) No match (V2 was not tested)
02 [93c74c8b] (00/35) No match (V2 was not tested)
03 [3d46998f] (00/35) No match (V2 was not tested)
04 [c7b47145] (00/34) No match (V2 was not tested)
05 [c6ef3769] (00/35) No match (V2 was not tested)
06 [ed4491bb] (00/34) No match (V2 was not tested)
07 [d7223ce0] (00/34) No match (V2 was not tested)
08 [a0e6dadd] (00/35) No match (V2 was not tested)
09 [ef255237] (00/35) No match (V2 was not tested)
10 [bff454c0] (00/34) No match (V2 was not tested)
11 [65a00b25] (00/34) No match (V2 was not tested)
12 [e186edd0] (00/34) No match (V2 was not tested)

Track Peak [ CRC32 ] [W/O NULL] [ LOG ]
– 99,0 [12D070D2] [EA18CE20]
01 79,3 [B5B2B152] [DB36931F] CRC32
02 99,0 [7C2D4295] [7EF75281] CRC32
03 94,3 [DD9B9D74] [AB2968BF] CRC32
04 82,2 [D1321C8D] [80AC1049] CRC32
05 93,7 [6FE8F472] [F5B0D569] CRC32
06 94,2 [4995906E] [3CFE64BD] CRC32
07 95,0 [A0B6CC78] [C859E7BC] CRC32
08 93,4 [18CBFE69] [13A4C495] CRC32
09 74,7 [F6513263] [67E22CE7] CRC32
10 82,6 [75AB369F] [3A092949] CRC32
11 93,6 [225E703B] [9603510B] CRC32
12 44,3 [6E182941] [E4ABFA14] CRC32

Bernard Allison Group - Hang On! (1993)


All thanks go to Badeny & pazanenok

>>> My Blog <<<

DOWNLOAD: