Subcategories

F.R. David - Best Of F.R. David (1998)

Posted By: v3122
F.R. David - Best Of F.R. David (1998)

F.R. David - Best Of F.R. David (1998)
EAC | Flac(Image) + Cue + Log & MP3 CBR 320Kbps
Columbia, Sony Music | 489536 2, 34-489536-10 | ~ 458 or 155 Mb | Artwork(jpg) -> 26 Mb
Electronic, Italo-Disco, Synth-pop, Disco

Paris-based singer/composer F.R. David (born Elli Robert Fitoussi on January 1, 1947 in Menzel Bourguiba, Tunisia) is often regarded as a one-hit wonder since he failed to repeat the success of his 1982 monster hit "Words" that topped the charts in a dozen European countries and even peaked at number two in Great Britain. He began his career in the early '70s as a guitarist for Vangelis and later, he was the lead vocalist in the French rock band Les Variations. After the dissolution of the band, he spent five years in the United States working as a studio musician for the Doobie Brothers, the O'Jays and Toto, among others. There he also recorded the album King of Hearts (as Robert Fitoussi.) Upon his return to Europe, F.R. David became an influential figure in Eurobeat, a style in dance music that dominated the continent in the 1980s. German producer/songwriter Dieter Bohlen (of Modern Talking fame) often cited F.R. David's hit "Pick Up the Phone" as a source of inspiration. In 1986 F.R. David recorded the album Sahara Night on CBS, characterized by a mixture of different music styles, followed by Reflections in 1987. The 1994 release I'll Try to Love Again marked the songwriter's return to his rock roots. After that, F.R. David's work included the album I'm Not In Love, produced at New York-based Hit Factory in 1997, classical music recordings with the London Symphony Orchestra, and a collection of his greatest hits.

~ allmusic
F.R. David - Best Of F.R. David (1998):

F.R. David - Best Of F.R. David (1998)

Tracklist:

01. Words (03:27)
02. Take Me Back (03:08)
03. Pick Up The Phone (03:12)
04. Music (03:14)
05. Rocker Blues (03:40)
06. I Need You (04:17)
07. This Time I Have To Win (03:12)
08. Girl (You Are My Song) (03:41)
09. Porcelain Eyes (02:38)
10. Can't Get Enough (03:59)
11. Givin' It Up (03:15)
12. Dream Away (03:40)
13. Liberty (03:31)
14. Long Distance Flight (03:30)
15. Stay (03:35)
16. Good Times (03:08)
17. Feedback Delay (03:56)
18. All I've Got (02:56)

Bonus Track:

19. Words (Radio Dance Remix) (03:27)

Exact Audio Copy V1.3 from 2. September 2016

Отчёт EAC об извлечении, выполненном 31. августа 2019, 12:49

F.R. David / Best Of F.R. David

Дисковод: PIONEER DVD-RW DVR-109 Adapter: 3 ID: 1

Режим чтения : Достоверность
Использование точного потока : Да
Отключение кэша аудио : Да
Использование указателей C2 : Нет

Коррекция смещения при чтении : 48
Способность читать области Lead-in и Lead-out : Нет
Заполнение пропущенных сэмплов тишиной : Да
Удаление блоков с тишиной в начале и конце : Нет
При вычислениях CRC использовались нулевые сэмплы : Да
Интерфейс : Установленный внешний ASPI-интерфейс

Выходной формат : Пользовательский кодировщик
Выбранный битрейт : 128 kBit/s
Качество : Высокий
Добавление ID3-тега : Нет
Утилита сжатия : C:\Program Files\Exact Audio Copy\FLAC\FLAC.EXE
Дополнительные параметры : -V -8 -T "Genre=%genre%" -T "Artist=%artist%" -T "Title=%title%" -T "Album=%albumtitle%" -T "Date=%year%" -T "Tracknumber=%tracknr%" -T "Comment=%comment%" %source%


TOC извлечённого CD

Трек | Старт | Длительность | Начальный сектор | Конечный сектор
––––––––––––––––––––––––––––––––––-
1 | 0:00.00 | 3:27.50 | 0 | 15574
2 | 3:27.50 | 3:08.10 | 15575 | 29684
3 | 6:35.60 | 3:12.37 | 29685 | 44121
4 | 9:48.22 | 3:14.48 | 44122 | 58719
5 | 13:02.70 | 3:40.37 | 58720 | 75256
6 | 16:43.32 | 4:17.50 | 75257 | 94581
7 | 21:01.07 | 3:12.40 | 94582 | 109021
8 | 24:13.47 | 3:41.58 | 109022 | 125654
9 | 27:55.30 | 2:38.60 | 125655 | 137564
10 | 30:34.15 | 3:59.27 | 137565 | 155516
11 | 34:33.42 | 3:15.70 | 155517 | 170211
12 | 37:49.37 | 3:40.18 | 170212 | 186729
13 | 41:29.55 | 3:31.50 | 186730 | 202604
14 | 45:01.30 | 3:30.12 | 202605 | 218366
15 | 48:31.42 | 3:35.73 | 218367 | 234564
16 | 52:07.40 | 3:08.50 | 234565 | 248714
17 | 55:16.15 | 3:56.30 | 248715 | 266444
18 | 59:12.45 | 2:56.32 | 266445 | 279676
19 | 62:09.02 | 3:27.10 | 279677 | 295211


Характеристики диапазона извлечения и сообщения об ошибках

Выбранный диапазон

Имя файла I:\MOI_RAZDACI\F.R. David - Best Of F.R. David (1998)\F.R. David - Best Of F.R. David (1998)\F.R. David - Best Of F.R. David.wav

Пиковый уровень 98.8 %
Скорость извлечения 7.7 X
Качество диапазона 100.0 %
CRC теста 6E54E287
CRC копии 6E54E287
Копирование… OK

Ошибок не произошло


AccurateRip: сводка

Трек 1 отсутствует в базе данных
Трек 2 отсутствует в базе данных
Трек 3 отсутствует в базе данных
Трек 4 отсутствует в базе данных
Трек 5 отсутствует в базе данных
Трек 6 отсутствует в базе данных
Трек 7 отсутствует в базе данных
Трек 8 отсутствует в базе данных
Трек 9 отсутствует в базе данных
Трек 10 отсутствует в базе данных
Трек 11 отсутствует в базе данных
Трек 12 отсутствует в базе данных
Трек 13 отсутствует в базе данных
Трек 14 отсутствует в базе данных
Трек 15 отсутствует в базе данных
Трек 16 отсутствует в базе данных
Трек 17 отсутствует в базе данных
Трек 18 отсутствует в базе данных
Трек 19 отсутствует в базе данных

Ни одного трека нет в базе AccurateRip

Конец отчёта

–– CUETools DB Plugin V2.1.6

[CTDB TOCID: lJmHuTYjE3a6smbVcIpEG1qIf5g-] found
Submit result: lJmHuTYjE3a6smbVcIpEG1qIf5g- has been confirmed
Track | CTDB Status
1 | (7/7) Accurately ripped
2 | (7/7) Accurately ripped
3 | (7/7) Accurately ripped
4 | (7/7) Accurately ripped
5 | (7/7) Accurately ripped
6 | (7/7) Accurately ripped
7 | (7/7) Accurately ripped
8 | (6/7) Accurately ripped
9 | (6/7) Accurately ripped
10 | (7/7) Accurately ripped
11 | (7/7) Accurately ripped
12 | (7/7) Accurately ripped
13 | (7/7) Accurately ripped
14 | (7/7) Accurately ripped
15 | (7/7) Accurately ripped
16 | (7/7) Accurately ripped
17 | (7/7) Accurately ripped
18 | (7/7) Accurately ripped
19 | (7/7) Accurately ripped


==== Контрольная сумма отчёта 4A9631892C39E69CFD2E8BF160300DE6F3E177C6968BC489C5217A70D80226DA ====


[CUETools log; Date: 01.09.2019 5:21:19; Version: 2.1.4]
[AccurateRip ID: 002cfc84-0277440b-0c0f6013] found.
Track [ CRC | V2 ] Status
01 [f9071bff|43c52ebd] (1+0/1) Accurately ripped
02 [8cdf615a|52bad584] (1+0/1) Accurately ripped
03 [c40ea8f4|1a199a42] (1+0/1) Accurately ripped
04 [4e6f02c2|abcf691b] (1+1/2) Accurately ripped
05 [68728137|b2d16b8e] (1+0/1) Accurately ripped
06 [6c06d22a|dfdcab58] (1+0/1) Accurately ripped
07 [21153d39|4d31e8f3] (1+0/1) Accurately ripped
08 [cf39c3f4|b27d1d04] (1+0/1) Accurately ripped
09 [c8f7b13d|42ddb381] (1+0/1) Accurately ripped
10 [f90cbe61|7f01ea12] (1+0/1) Accurately ripped
11 [426a8132|dea606ac] (1+0/1) Accurately ripped
12 [532beb73|ef9ce89b] (1+0/1) Accurately ripped
13 [9b607e0c|a89317a1] (1+0/1) Accurately ripped
14 [4f84c673|38e21eaa] (1+0/1) Accurately ripped
15 [fe2a7449|98632a8e] (1+0/1) Accurately ripped
16 [49d4bc89|1a8cfccf] (1+0/1) Accurately ripped
17 [b487e08a|5e75eccc] (1+0/1) Accurately ripped
18 [bc68aca4|1b9adc86] (1+0/1) Accurately ripped
19 [854d5392|32ee0523] (1+0/1) Accurately ripped

Track Peak [ CRC32 ] [W/O NULL] [ LOG ]
– 98,8 [6E54E287] [4E62687A] CRC32
01 95,6 [C1900C09] [402AFC05]
02 94,6 [7D116C11] [A010D746]
03 93,0 [29EF5151] [AA5C4383]
04 93,1 [F702421F] [797A57A2]
05 98,8 [3FE11B4D] [F88E2EDA]
06 92,9 [E8CDD86B] [1FADF40E]
07 98,4 [771ED27F] [F96B0207]
08 96,7 [D3E53951] [2D1E6C06]
09 94,8 [A854EF8D] [E997FF9F]
10 94,0 [6A3985C6] [D8107F99]
11 93,6 [72E84E42] [3D127391]
12 96,8 [A40C4627] [70325B85]
13 98,8 [9CA049F4] [E45EFDD6]
14 98,8 [BFF3C7FD] [EABE6633]
15 90,4 [B858238B] [731AD8C2]
16 97,2 [8D32780B] [2194A585]
17 92,0 [0B3FBFB8] [690F283A]
18 93,1 [2A24A56C] [1EB5E1BF]
19 74,7 [D1502551] [084EBB78]


F.R. David - Best Of F.R. David (1998)

All thanks go to the original releaser

F.R. David in my Blog

Download F.R. David - Best Of F.R. David (1998):