Subcategories
Tags
Language
Tags

Big Bill Broonzy - The Father Of Chicago Blues Guitar (2009)

Posted By: Designol
Big Bill Broonzy - The Father Of Chicago Blues Guitar (2009)

Big Bill Broonzy - The Father Of Chicago Blues Guitar (2009)
EAC | FLAC | Image (Cue&Log) ~ 289 Mb | Mp3 (CBR320) ~ 143 Mb | Scans ~ 125 Mb
Label: Pea Vine Blues | # PCD 15831 | Time: 01:02:40
Acoustic Chicago Blues, Country Blues, Pre-War Blues

Big Bill Broonzy was viewed as a beloved country blues player when he died in 1958, a master of raw and authentic-sounding folk-blues. But this public image, although Broonzy worked hard to maintain it in his later years, does him a bit of a disservice. He was much more than a rustic relic, however well he played the part. Broonzy was an excellent and even sophisticated guitarist, starting out in the '30s as a rag and hokum player but he was versatile enough to work with jazz and R&B combos, and his guitar approach was instrumental in the early formation of the Chicago blues sound. He was also a crafty songwriter, who managed to write blues pieces that bridged the line between traditional blues themes and modern structure. This 21-track collection focuses mostly on his early solo acoustic material, although there are some band pieces included as well toward the end of the sequence. The immortal and gritty "Pig Meat Strut" is here, as well as "I Can't Be Satisfied," "Mississippi River Blues," and a vibrant "Mountain Blues," but a couple of his key signature tracks are missing, most notably "Key to the Highway" and "All by Myself," leaving this a compilation that only begins to hint at the full range of what Big Bill brought to the table.

Review by Steve Leggett, Allmusic.com

Big Bill Broonzy - The Father Of Chicago Blues Guitar (2009)



Tracklist:

01. Pig Meat Strut (2:51)
02. I Can't Be Satisfied (2:49)
03. Tadpole Blues (2:32)
04. Saturday Night Rub (2:57)
05. How You Want It Done? (2:53)
06. Mike Cow Blues (3:20)
07. I'll Be Back Home Again (2:56)
08. Serve It To Me Right (3:28)
09. Mississippi River Blues (2:44)
10. Something Good (2:55)
11. Mountain Blues (3:05)
12. I Can't Make You Satisfied (3:15)
13. I.C. Blues (3:03)
14. Messed Up In Love (2:45)
15. Why Don't You Do Right? (2:59)
16. I Want You By My Side (feat. Jazz Gillum) (3:25)
17. I'm Feeling Low Down (feat. Washboard Sam) (3:04)
18. She Belongs To The Devil (feat. Washboard Sam) (3:04)
19. What's Gettin' Wrong With You? (feat. Sonny Boy Williamson) (2:51)
20. Come On Baby And Take A Walk (feat. Sonny Boy Williamson) (2:50)
21. Hey, Hey (2:54)


Exact Audio Copy V1.0 beta 6 from 9. April 2015

EAC extraction logfile from 19. October 2018, 16:52

Big Bill Broonzy / The Father Of Chicago Blues Gutiar

Used drive : TEAC CD-W548E Adapter: 1 ID: 0

Read mode : Secure
Utilize accurate stream : Yes
Defeat audio cache : Yes
Make use of C2 pointers : No

Read offset correction : 12
Overread into Lead-In and Lead-Out : No
Fill up missing offset samples with silence : Yes
Delete leading and trailing silent blocks : No
Null samples used in CRC calculations : Yes
Used interface : Installed external ASPI interface

Used output format : User Defined Encoder
Selected bitrate : 320 kBit/s
Quality : High
Add ID3 tag : No
Command line compressor : C:\Program Files\Exact Audio Copy 1.b6\Exact Audio Copy\Flac\flac.exe
Additional command line options : -V -8 -T "Genre=%genre%" -T "Artist=%artist%" -T "Title=%title%" -T "Album=%albumtitle%" -T "Date=%year%" -T "Tracknumber=%tracknr%" -T "Comment=%comment%" %source%


TOC of the extracted CD

Track | Start | Length | Start sector | End sector
––––––––––––––––––––––––––––-
1 | 0:00.00 | 2:51.04 | 0 | 12828
2 | 2:51.04 | 2:48.49 | 12829 | 25477
3 | 5:39.53 | 2:32.07 | 25478 | 36884
4 | 8:11.60 | 2:57.10 | 36885 | 50169
5 | 11:08.70 | 2:53.20 | 50170 | 63164
6 | 14:02.15 | 3:19.50 | 63165 | 78139
7 | 17:21.65 | 2:56.08 | 78140 | 91347
8 | 20:17.73 | 3:28.07 | 91348 | 106954
9 | 23:46.05 | 2:43.66 | 106955 | 119245
10 | 26:29.71 | 2:54.57 | 119246 | 132352
11 | 29:24.53 | 3:05.29 | 132353 | 146256
12 | 32:30.07 | 3:14.73 | 146257 | 160879
13 | 35:45.05 | 3:03.20 | 160880 | 174624
14 | 38:48.25 | 2:44.59 | 174625 | 186983
15 | 41:33.09 | 2:58.39 | 186984 | 200372
16 | 44:31.48 | 3:25.18 | 200373 | 215765
17 | 47:56.66 | 3:03.67 | 215766 | 229557
18 | 51:00.58 | 3:04.20 | 229558 | 243377
19 | 54:05.03 | 2:50.47 | 243378 | 256174
20 | 56:55.50 | 2:49.57 | 256175 | 268906
21 | 59:45.32 | 2:54.20 | 268907 | 281976


Range status and errors

Selected range

Filename L:\Audio\SWF\CD\Big Bill Broonzy\Big Bill Broonzy - Father Of The Chicago Blues Guitar (2009 Pea Vine, PCD 15831, Japan)\Big Bill Broonzy - The Father Of Chicago Blues Gutiar.wav

Peak level 100.0 %
Extraction speed 7.4 X
Range quality 100.0 %
Test CRC 125426F2
Copy CRC 125426F2
Copy OK

No errors occurred


AccurateRip summary

Track 1 accurately ripped (confidence 1) [A259FC7C] (AR v2)
Track 2 accurately ripped (confidence 1) [A137DEE8] (AR v2)
Track 3 accurately ripped (confidence 1) [9191D434] (AR v2)
Track 4 accurately ripped (confidence 1) [5B6D4E87] (AR v2)
Track 5 accurately ripped (confidence 1) [C27288A5] (AR v2)
Track 6 accurately ripped (confidence 1) [E313E6A3] (AR v2)
Track 7 accurately ripped (confidence 1) [83981AB0] (AR v2)
Track 8 accurately ripped (confidence 1) [82DC61E0] (AR v2)
Track 9 accurately ripped (confidence 1) [23B43148] (AR v2)
Track 10 accurately ripped (confidence 1) [2C17FA25] (AR v2)
Track 11 accurately ripped (confidence 1) [75E38B69] (AR v2)
Track 12 accurately ripped (confidence 1) [12455377] (AR v2)
Track 13 accurately ripped (confidence 1) [2BAF3014] (AR v2)
Track 14 accurately ripped (confidence 1) [433988BB] (AR v2)
Track 15 accurately ripped (confidence 1) [1A18DCDC] (AR v2)
Track 16 accurately ripped (confidence 1) [2B77F39A] (AR v2)
Track 17 accurately ripped (confidence 1) [2D8B5EF0] (AR v2)
Track 18 accurately ripped (confidence 1) [96C1444B] (AR v2)
Track 19 accurately ripped (confidence 1) [1D419834] (AR v2)
Track 20 accurately ripped (confidence 1) [CEF43A18] (AR v2)
Track 21 accurately ripped (confidence 1) [1CADBEDD] (AR v2)

All tracks accurately ripped

End of status report

–– CUETools DB Plugin V2.1.6

[CTDB TOCID: UN5WFpGNm35N0wYFgLaTrCdLXOY-] found
Submit result: UN5WFpGNm35N0wYFgLaTrCdLXOY- has been confirmed
Track | CTDB Status
1 | (1/1) Accurately ripped
2 | (1/1) Accurately ripped
3 | (1/1) Accurately ripped
4 | (1/1) Accurately ripped
5 | (1/1) Accurately ripped
6 | (1/1) Accurately ripped
7 | (1/1) Accurately ripped
8 | (1/1) Accurately ripped
9 | (1/1) Accurately ripped
10 | (1/1) Accurately ripped
11 | (1/1) Accurately ripped
12 | (1/1) Accurately ripped
13 | (1/1) Accurately ripped
14 | (1/1) Accurately ripped
15 | (1/1) Accurately ripped
16 | (1/1) Accurately ripped
17 | (1/1) Accurately ripped
18 | (1/1) Accurately ripped
19 | (1/1) Accurately ripped
20 | (1/1) Accurately ripped
21 | (1/1) Accurately ripped


==== Log checksum 3EBBE559B36EB61EA45BAB511EB33EB06BCB3F3C63D236EA9B1972B7AFB1DEC5 ====

foobar2000 1.2 / Dynamic Range Meter 1.1.1
log date: 2018-11-01 03:29:34

––––––––––––––––––––––––––––––––––––––––
Analyzed: Big Bill Broonzy / The Father Of Chicago Blues Gutiar
––––––––––––––––––––––––––––––––––––––––

DR Peak RMS Duration Track
––––––––––––––––––––––––––––––––––––––––
DR9 0.00 dB -10.17 dB 2:51 01-Pig Meat Strut
DR10 0.00 dB -11.51 dB 2:49 02-I Can't Be Satisfied
DR10 -0.75 dB -13.19 dB 2:32 03-Tadpole Blues
DR11 0.00 dB -12.05 dB 2:57 04-Saturday Night Rub
DR11 0.00 dB -14.25 dB 2:53 05-How You Want It Done?
DR10 0.00 dB -12.21 dB 3:20 06-Mike Cow Blues
DR13 0.00 dB -14.77 dB 2:56 07-I'll Be Back Home Again
DR11 0.00 dB -14.65 dB 3:28 08-Serve It To Me Right
DR10 0.00 dB -12.11 dB 2:44 09-Mississippi River Blues
DR9 0.00 dB -10.43 dB 2:55 10-Something Good
DR9 0.00 dB -10.30 dB 3:05 11-Mountain Blues
DR10 0.00 dB -11.24 dB 3:15 12-I Can't Make You Satisfied
DR12 0.00 dB -14.52 dB 3:03 13-I.c.blues
DR10 0.00 dB -12.06 dB 2:45 14-Messed Up In Love
DR13 0.00 dB -15.20 dB 2:59 15-Why Don't You Do Right?
DR11 -0.17 dB -13.18 dB 3:25 16-I Want You By My Side (jazz Gillum)
DR11 0.00 dB -12.28 dB 3:04 17-I'm Feeling Low Down (washboard Sam)
DR10 0.00 dB -12.76 dB 3:04 18-She Belongs To The Devil (washboard Sam)
DR10 0.00 dB -12.00 dB 2:51 19-What's Gettin' Wrong With You? (sonny Boy Williamson)
DR10 0.00 dB -12.48 dB 2:50 20-Come On Baby And Take A Walk (sonny Boy Williamson)
DR11 0.00 dB -13.32 dB 2:54 21-Hey,hey
––––––––––––––––––––––––––––––––––––––––

Number of tracks: 21
Official DR value: DR11

Samplerate: 44100 Hz
Channels: 2
Bits per sample: 16
Bitrate: 645 kbps
Codec: FLAC
================================================================================

Big Bill Broonzy - The Father Of Chicago Blues Guitar (2009)

Big Bill Broonzy - The Father Of Chicago Blues Guitar (2009)