Subcategories

Big Joe Louis & His Blues Kings - Big Joe Louis & His Blues Kings (1989) + The Stars In The Sky (1992) 2CD Set, Expanded 2002

Posted By: Designol
Big Joe Louis & His Blues Kings - Big Joe Louis & His Blues Kings (1989) + The Stars In The Sky (1992) 2CD Set, Expanded 2002

Big Joe Louis & His Blues Kings - Big Joe Louis & His Blues Kings (1989) + The Stars In The Sky (1992)
2CD Set, Expanded Remastered Reissue 2002

XLD | FLAC | Image (Cue&Log) ~ 671 Mb | Mp3 (CBR320) ~ 237 Mb | Scans ~ 61 Mb
British Blues, Rhythm & Blues | Label: Ace Records | # CDCHD 833 | Time: 01:43:15

In 2002, Ace released Big Joe Louis & His Blues Kings/The Stars in the Sky, which contained two albums – Big Joe Louis & His Blues Kings (1989, originally released on Blue Horizon) and The Stars in the Sky (1992, originally on Tramp) – by Big Joe Louis & His Blues Kings on one compact disc.

Tim Sendra, Allmusic.com

In his sleeve notes for the original 1989 vinyl issue of half of this 2CD set, producer/ renowned blues fan and expert Mike Vernon describes the sound of Big Joe Louis and his Blues Kings as being "…as tough as it gets this side of the pond", going on to say that "there simply was not another UK band…playing such uncompromising…juke joint down home blues (at that time)". Ever the astute judge of musicianship then and now, Mike was right on the money on both counts. And, happily, he still is, because BJL and his current line up of BK's are still the UK's most committed blues aggregation in 2002 (as Vernon himself again confirms in the all-new notes for this package…)

To say Joe and co. are better now than they were when they cut these sides more than a decade ago would be the truth, obviously. A honing-of-craft that only 10+ years of gigging could bring - and gigging everywhere from shoeboxed-sized rooms behind smoky pubs, to major world-wide blues festivals as far apart as Burnley and Belize - would render any other assertion a lie. But as you'll hear here, there never was a time when this band wasn't hotter than a proverbial two-dollar pistol, or smokin' like a roomful of beagles at laboratory-test time…

Big Joe's personal commitment to the blues (he's both a living archive of R&B information and a die-hard record collector) echoes that of another, earlier non-American artist who has dedicated his life to the same medium - John Mayall. Like Mayall, Joe's own abilities as a bluesman are on a par with those who have influenced him down the years, making him as much of the real deal as yer Muddy or Wolf (OK, he may not have 'enjoyed' their kind of personal hardships, but growing up close to the poverty and squalor that is a way of life in Kingston, Jamaica has given BJL a blues perspective that someone who achieved their adolescence in the semi-suburbia of Kingston, Surrey could not possibly have the same handle on!) And again like Mayall, he's worked with the finest musicians of his era to produce a body of work that can easily hold its own with that of the vintage artists he so admires. Along with four previously unreleased stormers that were originally excluded only because they wouldn't fit the finite running time of a vinyl LP, the early part of that 'body' can now be heard on CD for the first time, courtesy of Ace's new 2CD expansion of the original 1989 album of - and by! - Big Joe Louis And His Blues Kings.

There's an honesty and vitality about those first recordings that was still present three years later when BJL and band made their second good rockin' album with Vernon The Stars In The Sky - a former Dutch-only release that's now available here, at no extra cost, as the second half of our value-packed programme. These qualities have continued to be the hallmark of the Blues Kings' live and studio work, as you will know if you have either bought their mid 90s Ace album Big Sixteen - still available on CDCH 622 - or caught any of their more recent live performances as the new century has gotten under way.

When the first BJL album came out at the end of the 1980s, CD was still a relatively new-fangled thing and many record buyers were still not entirely convinced about its longevity. Some albums were still coming out in a vinyl-only format, and Big Joe Louis And His Blues Kings was one such album. We've been regularly asked about the prospect of a CD issue down the years since that vinyl issue was deleted. And now, in all its raw R&B glory and laden with a good hour's worth of added extras, here it is……you can run, but you can't hide, from the hard hitting musical uppercut of Big Joe Louis, London's foremost heavyweight of the Blues! First round knockout or what?

Tony Rounce

Big Joe Louis & His Blues Kings - Big Joe Louis & His Blues Kings (1989) + The Stars In The Sky (1992) 2CD Set, Expanded 2002



Tracklist:

CD1 - Big Joe Louis & His Blues Kings (1989):

01. What's The Matter With You? (04:05)
02. Down Home Blues (04:10)
03. Now She's Gone (05:30)
04. Monkey Motion (02:28)
05. You Can't Live Long (Drink On Little Girl) (04:27)
06. These You Girls (02:39)
07. I Cried Last Night (03:53)
08. Hey, Hey Now Baby (03:28)
09. I Think I Need A Shot (03:25)
10. She Felt Too Good (03:02)
11. Bloody Tears (05:22)
12. Mean Old Frisco Blues (03:30)
13. I Want You To Love Me (05:50)
14. My Love Is Here To Stay (03:09)
15. Ice Cream Man (03:24)
16. Back At Home (04:24)

CD2 - The Stars In The Sky (1992):

01. I'm So Glad (02:45)
02. I Need You Pretty Naby For My Own (02:49)
03. She's Yours, She's Mine (02:56)
04. Baby Child (03:48)
05. You Lied To Me, Baby (02:43)
06. Real Life (05:22)
07. Boogie Twist (03:05)
08. Trouble At Your Door (03:03)
09. Married Woman (03:22)
10. Why Don't You Do Right? (04:41)
11. The Stars In The Sky (02:40)
12. The Woman I Love (03:01)


X Lossless Decoder version 20121222 (142.2)

XLD extraction logfile from 2013-01-12 22:16:22 +0200

Big Joe Louis & His Blues Kings / Big Joe Louis & His Blues Kings

Used drive : MATSHITA DVD-R UJ-898 (revision HC09)
Media type : Pressed CD

Ripper mode : XLD Secure Ripper
Disable audio cache : OK for the drive with a cache less than 1375KiB
Make use of C2 pointers : NO
Read offset correction : 102
Max retry count : 20
Gap status : Analyzed, Appended

TOC of the extracted CD
Track | Start | Length | Start sector | End sector
––––––––––––––––––––––––––––-
1 | 00:00:00 | 04:05:31 | 0 | 18405
2 | 04:05:31 | 04:10:41 | 18406 | 37196
3 | 08:15:72 | 05:30:08 | 37197 | 61954
4 | 13:46:05 | 02:28:56 | 61955 | 73110
5 | 16:14:61 | 04:27:55 | 73111 | 93190
6 | 20:42:41 | 02:39:00 | 93191 | 105115
7 | 23:21:41 | 03:53:51 | 105116 | 122641
8 | 27:15:17 | 03:28:11 | 122642 | 138252
9 | 30:43:28 | 03:25:52 | 138253 | 153679
10 | 34:09:05 | 03:02:60 | 153680 | 167389
11 | 37:11:65 | 05:22:04 | 167390 | 191543
12 | 42:33:69 | 03:30:43 | 191544 | 207336
13 | 46:04:37 | 05:50:01 | 207337 | 233587
14 | 51:54:38 | 03:09:53 | 233588 | 247815
15 | 55:04:16 | 03:24:00 | 247816 | 263115
16 | 58:28:16 | 04:24:36 | 263116 | 282951

List of alternate offset correction values
# | Absolute | Relative | Confidence
–––––––––––––––––––––
1 | 114 | 12 | 1

AccurateRip Summary (DiscID: 0024946e-01b5579d-d90ebc10)
Track 01 : OK (v1, confidence 1/1, with different offset)
Track 02 : OK (v1, confidence 1/1, with different offset)
Track 03 : OK (v1, confidence 1/1, with different offset)
Track 04 : OK (v1, confidence 1/1, with different offset)
Track 05 : OK (v1, confidence 1/1, with different offset)
Track 06 : OK (v1, confidence 1/1, with different offset)
Track 07 : OK (v1, confidence 1/1, with different offset)
Track 08 : OK (v1, confidence 1/1, with different offset)
Track 09 : OK (v1, confidence 1/1, with different offset)
Track 10 : OK (v1, confidence 1/1, with different offset)
Track 11 : OK (v1, confidence 1/1, with different offset)
Track 12 : OK (v1, confidence 1/1, with different offset)
Track 13 : OK (v1, confidence 1/1, with different offset)
Track 14 : OK (v1, confidence 1/1, with different offset)
Track 15 : OK (v1, confidence 1/1, with different offset)
Track 16 : OK (v1, confidence 1/1, with different offset)
->All tracks accurately ripped.

All Tracks
Filename : /Users/Home/Music/Music/myRips/big joe louis & his blues kings-1989&1992(2cd)/disc one/Big Joe Louis & His Blues Kings - Big Joe Louis & His Blues Kings .flac
Album gain : -7.37 dB
Peak : 0.971771
CRC32 hash (test run) : 05F064AC
CRC32 hash : 05F064AC
CRC32 hash (skip zero) : 7A16CCA6
Statistics
Read error : 0
Jitter error (maybe fixed) : 0
Retry sector count : 0
Damaged sector count : 0

Track 01
Pre-gap length : 00:02:00

Track gain : -7.95 dB
Peak : 0.971680
CRC32 hash (test run) : E8EF9D16
CRC32 hash : E8EF9D16
CRC32 hash (skip zero) : DFD4A756
AccurateRip v1 signature : 4770DE58 (D84C6DF4 w/correction)
AccurateRip v2 signature : 14ECE350
->Accurately ripped with different offset (v1, confidence 1/1, offset +12)
Statistics
Read error : 0
Jitter error (maybe fixed) : 0
Retry sector count : 0
Damaged sector count : 0

Track 02
Pre-gap length : 00:01:54

Track gain : -6.40 dB
Peak : 0.971405
CRC32 hash (test run) : 49628544
CRC32 hash : 49628544
CRC32 hash (skip zero) : 126A1F03
AccurateRip v1 signature : 5ED63EEC (A4638000 w/correction)
AccurateRip v2 signature : 1C4DD352
->Accurately ripped with different offset (v1, confidence 1/1, offset +12)
Statistics
Read error : 0
Jitter error (maybe fixed) : 0
Retry sector count : 0
Damaged sector count : 0

Track 03
Pre-gap length : 00:01:22

Track gain : -6.66 dB
Peak : 0.971771
CRC32 hash (test run) : 40B93A29
CRC32 hash : 40B93A29
CRC32 hash (skip zero) : 1434764D
AccurateRip v1 signature : 207E12DA (0E42E4C6 w/correction)
AccurateRip v2 signature : E5230A97
->Accurately ripped with different offset (v1, confidence 1/1, offset +12)
Statistics
Read error : 0
Jitter error (maybe fixed) : 0
Retry sector count : 0
Damaged sector count : 0

Track 04
Pre-gap length : 00:01:27

Track gain : -8.54 dB
Peak : 0.971741
CRC32 hash (test run) : EC30E494
CRC32 hash : EC30E494
CRC32 hash (skip zero) : BCD92199
AccurateRip v1 signature : E3403942 (B825A762 w/correction)
AccurateRip v2 signature : 8557FCB4
->Accurately ripped with different offset (v1, confidence 1/1, offset +12)
Statistics
Read error : 0
Jitter error (maybe fixed) : 0
Retry sector count : 0
Damaged sector count : 0

Track 05
Pre-gap length : 00:02:15

Track gain : -6.81 dB
Peak : 0.971008
CRC32 hash (test run) : F9FAB6F8
CRC32 hash : F9FAB6F8
CRC32 hash (skip zero) : F6B13A51
AccurateRip v1 signature : 05B10865 (BF4E9029 w/correction)
AccurateRip v2 signature : 15FE4BFB
->Accurately ripped with different offset (v1, confidence 1/1, offset +12)
Statistics
Read error : 0
Jitter error (maybe fixed) : 0
Retry sector count : 0
Damaged sector count : 0

Track 06
Pre-gap length : 00:00:53

Track gain : -7.71 dB
Peak : 0.971619
CRC32 hash (test run) : DA3C7FF2
CRC32 hash : DA3C7FF2
CRC32 hash (skip zero) : EDE5EBC5
AccurateRip v1 signature : FB9D7039 (54BA0C69 w/correction)
AccurateRip v2 signature : 2A7DACF2
->Accurately ripped with different offset (v1, confidence 1/1, offset +12)
Statistics
Read error : 0
Jitter error (maybe fixed) : 0
Retry sector count : 0
Damaged sector count : 0

Track 07
Pre-gap length : 00:01:14

Track gain : -8.04 dB
Peak : 0.917053
CRC32 hash (test run) : 1051ACF7
CRC32 hash : 1051ACF7
CRC32 hash (skip zero) : AED67AF1
AccurateRip v1 signature : 0A6B424B (08F0FAC7 w/correction)
AccurateRip v2 signature : 8DF43F16
->Accurately ripped with different offset (v1, confidence 1/1, offset +12)
Statistics
Read error : 0
Jitter error (maybe fixed) : 0
Retry sector count : 0
Damaged sector count : 0

Track 08
Pre-gap length : 00:01:29

Track gain : -7.28 dB
Peak : 0.916840
CRC32 hash (test run) : 854CEB42
CRC32 hash : 854CEB42
CRC32 hash (skip zero) : 4D0A6ECE
AccurateRip v1 signature : 648F0341 (0C3B6E45 w/correction)
AccurateRip v2 signature : 4F3FA5EC
->Accurately ripped with different offset (v1, confidence 1/1, offset +12)
Statistics
Read error : 0
Jitter error (maybe fixed) : 0
Retry sector count : 0
Damaged sector count : 0

Track 09
Pre-gap length : 00:01:71

Track gain : -6.31 dB
Peak : 0.913666
CRC32 hash (test run) : 9ECED621
CRC32 hash : 9ECED621
CRC32 hash (skip zero) : 5C3A3D17
AccurateRip v1 signature : D073A36C (AA1DA72C w/correction)
AccurateRip v2 signature : F3DEE19A
->Accurately ripped with different offset (v1, confidence 1/1, offset +12)
Statistics
Read error : 0
Jitter error (maybe fixed) : 0
Retry sector count : 0
Damaged sector count : 0

Track 10
Pre-gap length : 00:04:56

Track gain : -6.70 dB
Peak : 0.917084
CRC32 hash (test run) : 54303085
CRC32 hash : 54303085
CRC32 hash (skip zero) : E8140853
AccurateRip v1 signature : 689CE915 (1F959795 w/correction)
AccurateRip v2 signature : 502C32B5
->Accurately ripped with different offset (v1, confidence 1/1, offset +12)
Statistics
Read error : 0
Jitter error (maybe fixed) : 0
Retry sector count : 0
Damaged sector count : 0

Track 11
Pre-gap length : 00:00:69

Track gain : -9.08 dB
Peak : 0.917633
CRC32 hash (test run) : 3E496563
CRC32 hash : 3E496563
CRC32 hash (skip zero) : 8252ADAB
AccurateRip v1 signature : EC2CCD9D (DEE45FC1 w/correction)
AccurateRip v2 signature : E84E20E5
->Accurately ripped with different offset (v1, confidence 1/1, offset +12)
Statistics
Read error : 0
Jitter error (maybe fixed) : 0
Retry sector count : 0
Damaged sector count : 0

Track 12
Pre-gap length : 00:01:23

Track gain : -7.99 dB
Peak : 0.917358
CRC32 hash (test run) : 338A11D6
CRC32 hash : 338A11D6
CRC32 hash (skip zero) : ADF87ECA
AccurateRip v1 signature : 3F8729F7 (A4F1DB6B w/correction)
AccurateRip v2 signature : AD73F2DE
->Accurately ripped with different offset (v1, confidence 1/1, offset +12)
Statistics
Read error : 0
Jitter error (maybe fixed) : 0
Retry sector count : 0
Damaged sector count : 0

Track 13
Pre-gap length : 00:01:62

Track gain : -6.52 dB
Peak : 0.971344
CRC32 hash (test run) : DA6E345C
CRC32 hash : DA6E345C
CRC32 hash (skip zero) : 71FFE2A1
AccurateRip v1 signature : BF85FE75 (4DD3BB29 w/correction)
AccurateRip v2 signature : 1821ED8D
->Accurately ripped with different offset (v1, confidence 1/1, offset +12)
Statistics
Read error : 0
Jitter error (maybe fixed) : 0
Retry sector count : 0
Damaged sector count : 0

Track 14
Pre-gap length : 00:01:36

Track gain : -6.93 dB
Peak : 0.971710
CRC32 hash (test run) : C8CA0E1B
CRC32 hash : C8CA0E1B
CRC32 hash (skip zero) : 56C8C465
AccurateRip v1 signature : 6E570FAE (8B116626 w/correction)
AccurateRip v2 signature : 99F01615
->Accurately ripped with different offset (v1, confidence 1/1, offset +12)
Statistics
Read error : 0
Jitter error (maybe fixed) : 0
Retry sector count : 0
Damaged sector count : 0

Track 15
Pre-gap length : 00:01:40

Track gain : -6.88 dB
Peak : 0.971680
CRC32 hash (test run) : D1CF6A56
CRC32 hash : D1CF6A56
CRC32 hash (skip zero) : ECB0B125
AccurateRip v1 signature : 6A271355 (1B218865 w/correction)
AccurateRip v2 signature : D14BF598
->Accurately ripped with different offset (v1, confidence 1/1, offset +12)
Statistics
Read error : 0
Jitter error (maybe fixed) : 0
Retry sector count : 0
Damaged sector count : 0

Track 16
Pre-gap length : 00:01:52

Track gain : -6.27 dB
Peak : 0.971375
CRC32 hash (test run) : CE3C3041
CRC32 hash : CE3C3041
CRC32 hash (skip zero) : 333C5DBB
AccurateRip v1 signature : E12348B0 (5A635ADC w/correction)
AccurateRip v2 signature : C324BBFB
->Accurately ripped with different offset (v1, confidence 1/1, offset +12)
Statistics
Read error : 0
Jitter error (maybe fixed) : 0
Retry sector count : 0
Damaged sector count : 0

No errors occurred

End of status report

foobar2000 1.2 / Dynamic Range Meter 1.1.1
log date: 2015-09-02 14:14:20

––––––––––––––––––––––––––––––––––––––––
Analyzed: Big Joe Louis & His Blues Kings / Big Joe Louis & His Blues Kings
––––––––––––––––––––––––––––––––––––––––

DR Peak RMS Duration Track
––––––––––––––––––––––––––––––––––––––––
DR9 -0.25 dB -10.47 dB 4:05 01-What's The Matter With You?
DR12 -0.25 dB -13.71 dB 4:11 02-Down Home Blues
DR11 -0.25 dB -13.45 dB 5:30 03-Now She's Gone
DR10 -0.25 dB -11.15 dB 2:29 04-Monkey Motion
DR11 -0.26 dB -12.38 dB 4:28 05-You Can't Live Long (Drink On Little Girl)
DR10 -0.25 dB -11.44 dB 2:39 06-These You Girls
DR9 -0.75 dB -11.69 dB 3:54 07-I Cried Last Night
DR10 -0.75 dB -12.34 dB 3:28 08-Hey, Hey Now Baby
DR11 -0.78 dB -14.01 dB 3:26 09-I Think I Need A Shot
DR10 -0.75 dB -11.71 dB 3:03 10-She Felt Too Good
DR10 -0.75 dB -12.70 dB 5:22 11-Bloody Tears
DR9 -0.75 dB -11.34 dB 3:31 12-Mean Old Frisco Blues
DR10 -0.25 dB -11.85 dB 5:50 13-I Want You To Love Me
DR9 -0.25 dB -10.31 dB 3:10 14-My Love Is Here To Stay
DR9 -0.25 dB -10.44 dB 3:24 15-Ice Cream Man
DR10 -0.25 dB -12.51 dB 4:24 16-Back At Home
––––––––––––––––––––––––––––––––––––––––

Number of tracks: 16
Official DR value: DR10

Samplerate: 44100 Hz
Channels: 2
Bits per sample: 16
Bitrate: 926 kbps
Codec: FLAC
================================================================================


X Lossless Decoder version 20121222 (142.2)

XLD extraction logfile from 2013-01-12 23:05:32 +0200

Big Joe Louis & His Blues Kings / The stars in the sky

Used drive : MATSHITA DVD-R UJ-898 (revision HC09)
Media type : Pressed CD

Ripper mode : XLD Secure Ripper
Disable audio cache : OK for the drive with a cache less than 1375KiB
Make use of C2 pointers : NO
Read offset correction : 102
Max retry count : 20
Gap status : Analyzed, Appended

TOC of the extracted CD
Track | Start | Length | Start sector | End sector
––––––––––––––––––––––––––––-
1 | 00:00:00 | 02:45:06 | 0 | 12380
2 | 02:45:06 | 02:49:25 | 12381 | 25080
3 | 05:34:31 | 02:56:70 | 25081 | 38350
4 | 08:31:26 | 03:48:00 | 38351 | 55450
5 | 12:19:26 | 02:43:55 | 55451 | 67730
6 | 15:03:06 | 05:22:59 | 67731 | 91939
7 | 20:25:65 | 03:05:28 | 91940 | 105842
8 | 23:31:18 | 03:03:67 | 105843 | 119634
9 | 26:35:10 | 03:22:63 | 119635 | 134847
10 | 29:57:73 | 04:41:70 | 134848 | 155992
11 | 34:39:68 | 02:40:62 | 155993 | 168054
12 | 37:20:55 | 03:01:71 | 168055 | 181700

List of alternate offset correction values
# | Absolute | Relative | Confidence
–––––––––––––––––––––
1 | 132 | 30 | 1

AccurateRip Summary (DiscID: 0011a792-00a70ac2-9909760c)
Track 01 : OK (v1, confidence 1/1, with different offset)
Track 02 : OK (v1, confidence 1/1, with different offset)
Track 03 : OK (v1, confidence 1/1, with different offset)
Track 04 : OK (v1, confidence 1/1, with different offset)
Track 05 : OK (v1, confidence 1/1, with different offset)
Track 06 : OK (v1, confidence 1/1, with different offset)
Track 07 : OK (v1, confidence 1/1, with different offset)
Track 08 : OK (v1, confidence 1/1, with different offset)
Track 09 : OK (v1, confidence 1/1, with different offset)
Track 10 : OK (v1, confidence 1/1, with different offset)
Track 11 : OK (v1, confidence 1/1, with different offset)
Track 12 : OK (v1, confidence 1/1, with different offset)
->All tracks accurately ripped.

All Tracks
Filename : /Users/Home/Music/Music/myRips/big joe louis & his blues kings-1989&1992(2cd)/disc two(the stars in the sky)/Big Joe Louis & His Blues Kings - The stars in the sky .flac
Album gain : -6.37 dB
Peak : 0.971710
CRC32 hash (test run) : BCAA25D2
CRC32 hash : BCAA25D2
CRC32 hash (skip zero) : 9BBD2A11
Statistics
Read error : 0
Jitter error (maybe fixed) : 0
Retry sector count : 0
Damaged sector count : 0

Track 01
Pre-gap length : 00:02:00

Track gain : -6.96 dB
Peak : 0.971405
CRC32 hash (test run) : CD7869C2
CRC32 hash : CD7869C2
CRC32 hash (skip zero) : 02C286DB
AccurateRip v1 signature : 790A120B (42198827 w/correction)
AccurateRip v2 signature : 0DCD74BF
->Accurately ripped with different offset (v1, confidence 1/1, offset +30)
Statistics
Read error : 0
Jitter error (maybe fixed) : 0
Retry sector count : 0
Damaged sector count : 0

Track 02
Pre-gap length : 00:01:12

Track gain : -7.23 dB
Peak : 0.971710
CRC32 hash (test run) : 47D92FA4
CRC32 hash : 47D92FA4
CRC32 hash (skip zero) : 46922CBB
AccurateRip v1 signature : 0ADCA6C0 (BA9D5CC0 w/correction)
AccurateRip v2 signature : E10C51A5
->Accurately ripped with different offset (v1, confidence 1/1, offset +30)
Statistics
Read error : 0
Jitter error (maybe fixed) : 0
Retry sector count : 0
Damaged sector count : 0

Track 03
Pre-gap length : 00:00:07

Track gain : -3.78 dB
Peak : 0.971588
CRC32 hash (test run) : F8BA4BE4
CRC32 hash : F8BA4BE4
CRC32 hash (skip zero) : 6E33B835
AccurateRip v1 signature : E9C28CBC (513CE880 w/correction)
AccurateRip v2 signature : D805F8A9
->Accurately ripped with different offset (v1, confidence 1/1, offset +30)
Statistics
Read error : 0
Jitter error (maybe fixed) : 0
Retry sector count : 0
Damaged sector count : 0

Track 04
Pre-gap length : 00:02:16

Track gain : -7.49 dB
Peak : 0.971222
CRC32 hash (test run) : 592996FC
CRC32 hash : 592996FC
CRC32 hash (skip zero) : 5E273941
AccurateRip v1 signature : 1B3D290F (C2825411 w/correction)
AccurateRip v2 signature : F8BB8DFF
->Accurately ripped with different offset (v1, confidence 1/1, offset +30)
Statistics
Read error : 0
Jitter error (maybe fixed) : 0
Retry sector count : 0
Damaged sector count : 0

Track 05
Pre-gap length : 00:01:47

Track gain : -5.88 dB
Peak : 0.971558
CRC32 hash (test run) : C5A232D0
CRC32 hash : C5A232D0
CRC32 hash (skip zero) : C5174A2B
AccurateRip v1 signature : 6CBB3AC1 (22231505 w/correction)
AccurateRip v2 signature : BF160056
->Accurately ripped with different offset (v1, confidence 1/1, offset +30)
Statistics
Read error : 0
Jitter error (maybe fixed) : 0
Retry sector count : 0
Damaged sector count : 0

Track 06
Pre-gap length : 00:01:25

Track gain : -4.55 dB
Peak : 0.817596
CRC32 hash (test run) : 26427E06
CRC32 hash : 26427E06
CRC32 hash (skip zero) : F71CAD2F
AccurateRip v1 signature : CC9A1DBB (52160BDD w/correction)
AccurateRip v2 signature : 821AD7DA
->Accurately ripped with different offset (v1, confidence 1/1, offset +30)
Statistics
Read error : 0
Jitter error (maybe fixed) : 0
Retry sector count : 0
Damaged sector count : 0

Track 07

Track gain : -5.45 dB
Peak : 0.970428
CRC32 hash (test run) : 041D1B6E
CRC32 hash : 041D1B6E
CRC32 hash (skip zero) : 59076B11
AccurateRip v1 signature : 6C84650E (15D59920 w/correction)
AccurateRip v2 signature : 111950FC
->Accurately ripped with different offset (v1, confidence 1/1, offset +30)
Statistics
Read error : 0
Jitter error (maybe fixed) : 0
Retry sector count : 0
Damaged sector count : 0

Track 08
Pre-gap length : 00:01:22

Track gain : -7.22 dB
Peak : 0.971680
CRC32 hash (test run) : 3BE811B1
CRC32 hash : 3BE811B1
CRC32 hash (skip zero) : 13509818
AccurateRip v1 signature : A8F151CE (FF0A19EA w/correction)
AccurateRip v2 signature : 1507147E
->Accurately ripped with different offset (v1, confidence 1/1, offset +30)
Statistics
Read error : 0
Jitter error (maybe fixed) : 0
Retry sector count : 0
Damaged sector count : 0

Track 09
Pre-gap length : 00:01:39

Track gain : -5.18 dB
Peak : 0.970398
CRC32 hash (test run) : 47AE1173
CRC32 hash : 47AE1173
CRC32 hash (skip zero) : E5D90E19
AccurateRip v1 signature : D4C20902 (8968A378 w/correction)
AccurateRip v2 signature : 33739DFD
->Accurately ripped with different offset (v1, confidence 1/1, offset +30)
Statistics
Read error : 0
Jitter error (maybe fixed) : 0
Retry sector count : 0
Damaged sector count : 0

Track 10
Pre-gap length : 00:00:28

Track gain : -1.98 dB
Peak : 0.971649
CRC32 hash (test run) : B9FFF154
CRC32 hash : B9FFF154
CRC32 hash (skip zero) : 343270FD
AccurateRip v1 signature : 33C2BF52 (2D15F226 w/correction)
AccurateRip v2 signature : 6F267DAC
->Accurately ripped with different offset (v1, confidence 1/1, offset +30)
Statistics
Read error : 0
Jitter error (maybe fixed) : 0
Retry sector count : 0
Damaged sector count : 0

Track 11
Pre-gap length : 00:01:36

Track gain : -6.91 dB
Peak : 0.969543
CRC32 hash (test run) : C7FA52EE
CRC32 hash : C7FA52EE
CRC32 hash (skip zero) : 456161C6
AccurateRip v1 signature : 60236CCA (A314CC46 w/correction)
AccurateRip v2 signature : AF250D53
->Accurately ripped with different offset (v1, confidence 1/1, offset +30)
Statistics
Read error : 0
Jitter error (maybe fixed) : 0
Retry sector count : 0
Damaged sector count : 0

Track 12
Pre-gap length : 00:00:68

Track gain : -7.02 dB
Peak : 0.971710
CRC32 hash (test run) : E0581EE5
CRC32 hash : E0581EE5
CRC32 hash (skip zero) : 2FCE0407
AccurateRip v1 signature : A3447F67 (986CD89F w/correction)
AccurateRip v2 signature : 9D0FB189
->Accurately ripped with different offset (v1, confidence 1/1, offset +30)
Statistics
Read error : 0
Jitter error (maybe fixed) : 0
Retry sector count : 0
Damaged sector count : 0

No errors occurred

End of status report

foobar2000 1.2 / Dynamic Range Meter 1.1.1
log date: 2015-09-02 14:14:37

––––––––––––––––––––––––––––––––––––––––
Analyzed: Big Joe Louis & His Blues Kings / The stars in the sky
––––––––––––––––––––––––––––––––––––––––

DR Peak RMS Duration Track
––––––––––––––––––––––––––––––––––––––––
DR10 -0.25 dB -11.53 dB 2:45 01-I'm So Glad
DR11 -0.25 dB -13.00 dB 2:49 02-I Need You Pretty Naby For My Own
DR14 -0.25 dB -15.63 dB 2:57 03-She's Yours, She's Mine
DR12 -0.25 dB -14.09 dB 3:48 04-Baby Child
DR12 -0.25 dB -13.09 dB 2:44 05-You Lied To Me, Baby
DR10 -1.75 dB -14.36 dB 5:23 06-Real Life
DR12 -0.26 dB -13.26 dB 3:05 07-Boogie Twist
DR10 -0.25 dB -11.47 dB 3:04 08-Trouble At Your Door
DR12 -0.26 dB -14.39 dB 3:23 09-Married Woman
DR14 -0.25 dB -17.77 dB 4:42 10-Why Don't You Do Right?
DR11 -0.27 dB -12.36 dB 2:41 11-The Stars In The Sky
DR11 -0.25 dB -12.14 dB 3:02 12-The Woman I Love
––––––––––––––––––––––––––––––––––––––––

Number of tracks: 12
Official DR value: DR12

Samplerate: 44100 Hz
Channels: 2
Bits per sample: 16
Bitrate: 877 kbps
Codec: FLAC
================================================================================

Big Joe Louis & His Blues Kings - Big Joe Louis & His Blues Kings (1989) + The Stars In The Sky (1992) 2CD Set, Expanded 2002

Big Joe Louis & His Blues Kings - Big Joe Louis & His Blues Kings (1989) + The Stars In The Sky (1992) 2CD Set, Expanded 2002

All thanks to original releaser - igaann

More interesting music in My Blog