The Bill Perkins Big Band - Our Man Woody (1991) Repost

Posted By: popsakov
The Bill Perkins Big Band - Our Man Woody (1991) Repost

The Bill Perkins Big Band - Our Man Woody (1991)
EAC Rip | FLAC (Img) + Cue + Log ~ 331 Mb | MP3 CBR320 ~ 125 Mb
Scans (JPG, 600 dpi) ~ 39 Mb | RAR 5% Recovery
Jazz, Big Band | Jazz Mark #110

Bill Perkins pays tribute to former boss Woody Herman on this CD by leading a 14-piece big band through a variety of standards, most of which were featured by Herman. Actually, this is more of a tribute to Herman's spirit than to his original recordings, for the arrangements (by Jim Knight, John La Barbera, Dennis Mackrel, Frank Strazzeri and Mark Taylor) are much newer; not all of the songs (such as "I Can't Believe That You're In Love With Me," "9:20 Special" and "Blue Lou") were that closely connected with Herman's legacy, and his hits ("Four Brothers" and "Early Autumn") are absent. In addition, there is no clarinetist in the band filling in for Herman. Many soloists are heard from, including Perkins (on tenor, alto and soprano), trumpeters Bob Summers and Clay Jenkins, Bob Cooper on tenor, baritonist Jack Nimitz, trombonists Charlie Loper and Andy Martin, and pianist Strazzeri. Among the highlights of the spirited set are Perkins' feature on "I Got It Bad," "Blue Lou," Nimitz on "Sweet Lorraine," and "Blues for Woody."
~ Scott Yanow, All Music

The Bill Perkins Big Band - Our Man Woody (1991) Repost


***************

The Bill Perkins Big Band - Our Man Woody (1991) Repost

Track List:

01. I Can't Believe That You're In Love With Me [3:09]
02. I've Got The World On A String [5:48]
03. Tenderly [4:04]
04. I Got It Bad And That Ain't Good [6:32]
05. 9:20 Special [5:14]
06. My Funny Valentine [5:41]
07. Blue Lou [4:43]
08. I've Got A Lot Of Living To Do [4:54]
09. Sweet Lorraine [6:05]
10. Blues For Woody [6:01]

Personnel:

Alto Saxophone [Lead], Tenor Saxophone, Soprano Saxophone – Bill Perkins
Baritone Saxophone – Jack Nimitz
Bass – Dave Stone (2)
Bass Trombone – Rich Bullock*
Drums – Paul Kreibich
Piano – Frank Strazzeri
Tenor Saxophone – Bob Cooper
Tenor Saxophone, Alto Saxophone – Brian Scanlon
Trombone – Andy Martin
Trombone [Lead] – Charlie Loper
Trumpet – Bob Summers (3), Clay Jenkins, Wayne Bergeron
Trumpet [Lead] – Joe Davis (10) (tracks: 1, 4, 6, 8, 10), Rick Baptist (tracks: 2, 3, 5, 7, 9)

Exact Audio Copy V0.99 prebeta 5 from 4. May 2009

EAC extraction logfile from 19. March 2011, 13:30

Bill Perkins Big Band / Our Man Woody

Used drive : HL-DT-STDVDRAM GH22NS40 Adapter: 5 ID: 0

Read mode : Secure
Utilize accurate stream : Yes
Defeat audio cache : Yes
Make use of C2 pointers : No

Read offset correction : 667
Overread into Lead-In and Lead-Out : No
Fill up missing offset samples with silence : Yes
Delete leading and trailing silent blocks : No
Null samples used in CRC calculations : Yes
Used interface : Native Win32 interface for Win NT & 2000

Used output format : User Defined Encoder
Selected bitrate : 768 kBit/s
Quality : High
Add ID3 tag : No
Command line compressor : C:\Program Files (x86)\Exact Audio Copy\bin\flac.exe
Additional command line options : -6 -V -T "artist=%a" -T "title=%t" -T "album=%g" -T "date=%y" -T "tracknumber=%n" -T "genre=%m" -T comment="%e" -T "comment=EAC (Secure Mode)" %s


TOC of the extracted CD

Track | Start | Length | Start sector | End sector
––––––––––––––––––––––––––––-
1 | 0:00.00 | 3:09.13 | 0 | 14187
2 | 3:09.13 | 5:47.67 | 14188 | 40279
3 | 8:57.05 | 4:04.05 | 40280 | 58584
4 | 13:01.10 | 6:31.50 | 58585 | 87959
5 | 19:32.60 | 5:14.25 | 87960 | 111534
6 | 24:47.10 | 5:41.30 | 111535 | 137139
7 | 30:28.40 | 4:42.65 | 137140 | 158354
8 | 35:11.30 | 4:54.05 | 158355 | 180409
9 | 40:05.35 | 6:04.45 | 180410 | 207754
10 | 46:10.05 | 6:00.60 | 207755 | 234814


Range status and errors

Selected range

Filename T:\Bill Perkins Big Band - Our Man Woody.wav

Peak level 100.0 %
Range quality 100.0 %
Copy CRC 16D3AEBB
Copy OK

No errors occurred


AccurateRip summary

Track 1 not present in database
Track 2 not present in database
Track 3 not present in database
Track 4 not present in database
Track 5 not present in database
Track 6 not present in database
Track 7 not present in database
Track 8 not present in database
Track 9 not present in database
Track 10 not present in database

None of the tracks are present in the AccurateRip database

End of status report

foobar2000 1.2.6 / Dynamic Range Meter 1.1.1
log date: 2016-09-21 02:28:04

––––––––––––––––––––––––––––––––––––––––
Analyzed: Bill Perkins Big Band / Our Man Woody
––––––––––––––––––––––––––––––––––––––––

DR Peak RMS Duration Track
––––––––––––––––––––––––––––––––––––––––
DR14 -0.91 dB -19.05 dB 3:09 01-I Can't Believe That You're In Love With Me
DR16 -0.61 dB -20.53 dB 5:48 02-I've Got The World On A String
DR15 -0.35 dB -18.58 dB 4:04 03-Tenderly
DR15 0.00 dB -20.11 dB 6:32 04-I Got It Bad And That Ain't Good
DR16 0.00 dB -18.03 dB 5:14 05-9:20 Special
DR15 -0.59 dB -20.08 dB 5:41 06-My Funny Valentine
DR15 0.00 dB -17.57 dB 4:43 07-Blue Lou
DR14 0.00 dB -16.73 dB 4:54 08-I've Got A Lot Of Living To Do
DR15 0.00 dB -18.33 dB 6:05 09-Sweet Lorraine
DR15 0.00 dB -17.92 dB 6:01 10-Blues For Woody
––––––––––––––––––––––––––––––––––––––––

Number of tracks: 10
Official DR value: DR15

Samplerate: 44100 Hz
Channels: 2
Bits per sample: 16
Bitrate: 844 kbps
Codec: FLAC
================================================================================

[CUETools log; Date: 21.09.2016 2:27:52; Version: 2.1.5]
[CTDB TOCID: HjzeSvHyE2IAuXpdvPRIgnDNqcU-] found.
Track | CTDB Status
1 | (1/1) Accurately ripped
2 | (1/1) Accurately ripped
3 | (1/1) Accurately ripped
4 | (1/1) Accurately ripped
5 | (1/1) Accurately ripped
6 | (1/1) Accurately ripped
7 | (1/1) Accurately ripped
8 | (1/1) Accurately ripped
9 | (1/1) Accurately ripped
10 | (1/1) Accurately ripped
[AccurateRip ID: 0012c8af-0098a488-850c3a0a] found.
Track [ CRC | V2 ] Status
01 [ba218896|2ad2909f] (1+1/2) Accurately ripped
02 [19179260|cbecf5d3] (1+1/2) Accurately ripped
03 [8f1d57b5|a230cb0d] (1+1/2) Accurately ripped
04 [9545acef|e8ed54e4] (1+1/2) Accurately ripped
05 [47a7101d|b676c8a4] (1+1/2) Accurately ripped
06 [c8eeb096|ce294829] (1+1/2) Accurately ripped
07 [cdebfafc|90dc8e52] (1+1/2) Accurately ripped
08 [187c06df|93551d5e] (1+1/2) Accurately ripped
09 [a7cfe896|03ff1766] (1+1/2) Accurately ripped
10 [1415f4d6|c3e9fc36] (1+1/2) Accurately ripped

Track Peak [ CRC32 ] [W/O NULL] [ LOG ]
– 100,0 [16D3AEBB] [5038E5C4] CRC32
01 90,0 [07DEFCF1] [712E85F0]
02 93,1 [5AAD1CA3] [40E28207]
03 96,0 [6BADB448] [793A5E49]
04 99,9 [D59D405D] [8FEFFF66]
05 100,0 [552C5D79] [199D701E]
06 93,3 [929FFF8D] [AD7C5E0C]
07 100,0 [A597B903] [13F82146]
08 100,0 [490B4468] [F5A779E5]
09 100,0 [F4FB2F04] [95B08F39]
10 100,0 [CEABEC0B] [19C741A4]

The Bill Perkins Big Band - Our Man Woody (1991) Repost

The Bill Perkins Big Band - Our Man Woody (1991) Repost

All thanks go to the original ripper(s) …

> Visit my blog <

Download: