Bill Evans - The Riverside Collection (2015)

Posted By: Pisulik
Bill Evans - The Riverside Collection (2015)

Bill Evans - The Riverside Collection (2015)
EAC Rip | FLAC (Tracks) +cue, log - 1 GB | 03:20:32
Jazz | Label: Not Now Music | Release Year: 2015

Evans, born in New Jersey in 1929, was by far the most individual and influential pianist to emerge during the 'hard bop' era of late-Fifties jazz. He created his own niche and, rather than try to fit into any particular style himself, allowed his own to fit in with others should they be interested. Evans was one of very few white musicians who most (though not all) black musicians were willing to accommodate. Enjoy 5 of his original jazz albums from the Riverside years from this superb 5 disc collection: "Waltz For Debby", "Moon Beams", "How My Heart Sings!", "Interplay" and "Know What I Mean?".

TRACKLIST

CD 1 Waltz For Debby

01. My Foolish Heart
02. Waltz For Debby
03. Detour Ahead
04. My Romance
05. Some Other Time
06. Milestones

Exact Audio Copy V1.3 from 2. September 2016

EAC extraction logfile from 13. March 2017, 22:50

Bill Evans / The Riverside Collection

Used drive : PLDS DVD+-RW DU-8A5LH Adapter: 1 ID: 0

Read mode : Secure
Utilize accurate stream : Yes
Defeat audio cache : Yes
Make use of C2 pointers : No

Read offset correction : 6
Overread into Lead-In and Lead-Out : No
Fill up missing offset samples with silence : Yes
Delete leading and trailing silent blocks : No
Null samples used in CRC calculations : Yes
Used interface : Native Win32 interface for Win NT & 2000
Gap handling : Appended to previous track

Used output format : User Defined Encoder
Selected bitrate : 128 kBit/s
Quality : High
Add ID3 tag : No
Command line compressor : C:\Program Files (x86)\Exact Audio Copy\Flac\flac.exe
Additional command line options : -8 -V -T "ARTIST=%artist%" -T "TITLE=%title%" -T "ALBUM=%albumtitle%" -T "DATE=%year%" -T "TRACKNUMBER=%tracknr%" -T "GENRE=%genre%" -T "PERFORMER=%albuminterpret%" -T "COMPOSER=%composer%" %haslyrics%–tag-from-file=LYRICS="%lyricsfile%"%haslyrics% -T "ALBUMARTIST=%albumartist%" -T "DISCNUMBER=%cdnumber%" -T "TOTALDISCS=%totalcds%" -T "TOTALTRACKS=%numtracks%" -T "COMMENT=%comment%" %source% -o %dest%


TOC of the extracted CD

Track | Start | Length | Start sector | End sector
––––––––––––––––––––––––––––-
1 | 0:00.00 | 4:59.19 | 0 | 22443
2 | 4:59.19 | 6:59.60 | 22444 | 53928
3 | 11:59.04 | 7:38.55 | 53929 | 88333
4 | 19:37.59 | 7:15.36 | 88334 | 120994
5 | 26:53.20 | 5:03.17 | 120995 | 143736
6 | 31:56.37 | 6:33.49 | 143737 | 173260


Track 1

Filename D:\Rips\Bill Evans Trio - The Riverside Collection\Disc 1 - Waltz For Debby\01 - My Foolish Heart.wav

Pre-gap length 0:00:02.00

Peak level 98.3 %
Extraction speed 2.9 X
Track quality 100.0 %
Test CRC D6209361
Copy CRC D6209361
Cannot be verified as accurate (confidence 2) [0E96B708], AccurateRip returned [88B960FC] (AR v2)
Copy OK

Track 2

Filename D:\Rips\Bill Evans Trio - The Riverside Collection\Disc 1 - Waltz For Debby\02 - Waltz For Debby.wav

Peak level 98.4 %
Extraction speed 3.4 X
Track quality 100.0 %
Test CRC 85C65F4F
Copy CRC 85C65F4F
Cannot be verified as accurate (confidence 2) [9665B2BF], AccurateRip returned [5243F620] (AR v2)
Copy OK

Track 3

Filename D:\Rips\Bill Evans Trio - The Riverside Collection\Disc 1 - Waltz For Debby\03 - Detour Ahead.wav

Peak level 98.3 %
Extraction speed 4.0 X
Track quality 100.0 %
Test CRC EF2F5197
Copy CRC EF2F5197
Cannot be verified as accurate (confidence 2) [FCCEA96A], AccurateRip returned [7EC764A8] (AR v2)
Copy OK

Track 4

Filename D:\Rips\Bill Evans Trio - The Riverside Collection\Disc 1 - Waltz For Debby\04 - My Romance.wav

Peak level 98.3 %
Extraction speed 4.4 X
Track quality 100.0 %
Test CRC F1D11F27
Copy CRC F1D11F27
Cannot be verified as accurate (confidence 2) [BFA26DBD], AccurateRip returned [19835395] (AR v2)
Copy OK

Track 5

Filename D:\Rips\Bill Evans Trio - The Riverside Collection\Disc 1 - Waltz For Debby\05 - Some Other Time.wav

Peak level 98.3 %
Extraction speed 4.5 X
Track quality 100.0 %
Test CRC 6A3FCD6B
Copy CRC 6A3FCD6B
Cannot be verified as accurate (confidence 2) [CFFE2EB8], AccurateRip returned [D7E62BDA] (AR v2)
Copy OK

Track 6

Filename D:\Rips\Bill Evans Trio - The Riverside Collection\Disc 1 - Waltz For Debby\06 - Milestones.wav

Peak level 98.4 %
Extraction speed 4.9 X
Track quality 100.0 %
Test CRC 947D7BD8
Copy CRC 947D7BD8
Cannot be verified as accurate (confidence 2) [49B18611], AccurateRip returned [B13F6F60] (AR v2)
Copy OK


No tracks could be verified as accurate
You may have a different pressing from the one(s) in the database

No errors occurred

End of status report

–– CUETools DB Plugin V2.1.6

[CTDB TOCID: FvPPo0xYNV11L__8yg_kOMFehjI-] found
Submit result: FvPPo0xYNV11L__8yg_kOMFehjI- has been confirmed
Track | CTDB Status
1 | (15/15) Accurately ripped
2 | (15/15) Accurately ripped
3 | (15/15) Accurately ripped
4 | (15/15) Accurately ripped
5 | (15/15) Accurately ripped
6 | (15/15) Accurately ripped


==== Log checksum 8CCE3A26C95A457AB0D45A8050BF20B6526C57B42EFF0910B4E035819421D53F ====


CD 2 Moon Beams

01. Re: Person I Knew
02. Polka Dots And Moonbeams
03. I Fall In Love Too Easily
04. Stairway To The Stars
05. If You Could See Me Now
06. It Might As Well Be Spring
07. In Love In Vain
08. Very Early

Exact Audio Copy V1.3 from 2. September 2016

EAC extraction logfile from 14. March 2017, 9:00

Bill Evans / The Riverside Collection

Used drive : PLDS DVD+-RW DU-8A5LH Adapter: 1 ID: 0

Read mode : Secure
Utilize accurate stream : Yes
Defeat audio cache : Yes
Make use of C2 pointers : No

Read offset correction : 6
Overread into Lead-In and Lead-Out : No
Fill up missing offset samples with silence : Yes
Delete leading and trailing silent blocks : No
Null samples used in CRC calculations : Yes
Used interface : Native Win32 interface for Win NT & 2000
Gap handling : Appended to previous track

Used output format : User Defined Encoder
Selected bitrate : 128 kBit/s
Quality : High
Add ID3 tag : No
Command line compressor : C:\Program Files (x86)\Exact Audio Copy\Flac\flac.exe
Additional command line options : -8 -V -T "ARTIST=%artist%" -T "TITLE=%title%" -T "ALBUM=%albumtitle%" -T "DATE=%year%" -T "TRACKNUMBER=%tracknr%" -T "GENRE=%genre%" -T "PERFORMER=%albuminterpret%" -T "COMPOSER=%composer%" %haslyrics%–tag-from-file=LYRICS="%lyricsfile%"%haslyrics% -T "ALBUMARTIST=%albumartist%" -T "DISCNUMBER=%cdnumber%" -T "TOTALDISCS=%totalcds%" -T "TOTALTRACKS=%numtracks%" -T "COMMENT=%comment%" %source% -o %dest%


TOC of the extracted CD

Track | Start | Length | Start sector | End sector
––––––––––––––––––––––––––––-
1 | 0:00.00 | 5:46.60 | 0 | 26009
2 | 5:46.60 | 5:04.01 | 26010 | 48810
3 | 10:50.61 | 2:43.37 | 48811 | 61072
4 | 13:34.23 | 4:53.73 | 61073 | 83120
5 | 18:28.21 | 4:31.22 | 83121 | 103467
6 | 22:59.43 | 6:07.67 | 103468 | 131059
7 | 29:07.35 | 5:02.56 | 131060 | 153765
8 | 34:10.16 | 5:07.73 | 153766 | 176863


Track 1

Filename D:\Rips\Bill Evans Trio - The Riverside Collection\CD 2 - Moon Beams\01 - Re- Person I Knew.wav

Pre-gap length 0:00:02.00

Peak level 73.9 %
Extraction speed 1.2 X
Track quality 100.0 %
Test CRC 10F95782
Copy CRC 10F95782
Accurately ripped (confidence 1) [621E8A74] (AR v2)
Copy OK

Track 2

Filename D:\Rips\Bill Evans Trio - The Riverside Collection\CD 2 - Moon Beams\02 - Polka Dots and Moonbeams.wav

Peak level 68.8 %
Extraction speed 1.4 X
Track quality 100.0 %
Test CRC 10D5542A
Copy CRC 10D5542A
Accurately ripped (confidence 1) [B0A440A2] (AR v2)
Copy OK

Track 3

Filename D:\Rips\Bill Evans Trio - The Riverside Collection\CD 2 - Moon Beams\03 - I Fall in Love Too Easily.wav

Peak level 70.9 %
Extraction speed 1.4 X
Track quality 100.0 %
Test CRC A4DF6695
Copy CRC A4DF6695
Accurately ripped (confidence 1) [757769DB] (AR v2)
Copy OK

Track 4

Filename D:\Rips\Bill Evans Trio - The Riverside Collection\CD 2 - Moon Beams\04 - Stairway to the Stars.wav

Peak level 70.5 %
Extraction speed 1.6 X
Track quality 100.0 %
Test CRC 5D4537CC
Copy CRC 5D4537CC
Accurately ripped (confidence 1) [79946A33] (AR v2)
Copy OK

Track 5

Filename D:\Rips\Bill Evans Trio - The Riverside Collection\CD 2 - Moon Beams\05 - If You Could See Me Now.wav

Peak level 78.0 %
Extraction speed 1.7 X
Track quality 100.0 %
Test CRC 800C11CC
Copy CRC 800C11CC
Accurately ripped (confidence 1) [2E6AC8B5] (AR v2)
Copy OK

Track 6

Filename D:\Rips\Bill Evans Trio - The Riverside Collection\CD 2 - Moon Beams\06 - It Might as Well Be Spring.wav

Peak level 73.6 %
Extraction speed 1.9 X
Track quality 100.0 %
Test CRC 3E0FD13B
Copy CRC 3E0FD13B
Accurately ripped (confidence 1) [496B469F] (AR v2)
Copy OK

Track 7

Filename D:\Rips\Bill Evans Trio - The Riverside Collection\CD 2 - Moon Beams\07 - In Love in Vain.wav

Peak level 65.3 %
Extraction speed 1.8 X
Track quality 99.9 %
Test CRC 91DD54A7
Copy CRC 91DD54A7
Accurately ripped (confidence 1) [42173B32] (AR v2)
Copy OK

Track 8

Filename D:\Rips\Bill Evans Trio - The Riverside Collection\CD 2 - Moon Beams\08 - Very Early.wav

Peak level 73.7 %
Extraction speed 2.1 X
Track quality 100.0 %
Test CRC CBADE449
Copy CRC CBADE449
Accurately ripped (confidence 1) [EEC82339] (AR v2)
Copy OK


All tracks accurately ripped

No errors occurred

End of status report

–– CUETools DB Plugin V2.1.6

[CTDB TOCID: aswSMoUMAGr1sPo8O_6_IC.RnL8-] found
Submit result: aswSMoUMAGr1sPo8O_6_IC.RnL8- has been confirmed
Track | CTDB Status
1 | (1/1) Accurately ripped
2 | (1/1) Accurately ripped
3 | (1/1) Accurately ripped
4 | (1/1) Accurately ripped
5 | (1/1) Accurately ripped
6 | (1/1) Accurately ripped
7 | (1/1) Accurately ripped
8 | (1/1) Accurately ripped


==== Log checksum F8CD7047BB7503B791CFD683C605B10570BCD193F1C03B9E0FEDDE9BC8FC19BF ====


CD 3 How My Heart Sings!

01. How My Heart Sings
02. I Should Care
03. In Your Own Sweet Way
04. Walkin' Up
05. Summertime
06. 34 Skidoo
07. Ev'rything I Love
08. Show-Type Tune

Exact Audio Copy V1.3 from 2. September 2016

EAC extraction logfile from 14. March 2017, 9:58

Bill Evans / The Riverside Collection

Used drive : PLDS DVD+-RW DU-8A5LH Adapter: 1 ID: 0

Read mode : Secure
Utilize accurate stream : Yes
Defeat audio cache : Yes
Make use of C2 pointers : No

Read offset correction : 6
Overread into Lead-In and Lead-Out : No
Fill up missing offset samples with silence : Yes
Delete leading and trailing silent blocks : No
Null samples used in CRC calculations : Yes
Used interface : Native Win32 interface for Win NT & 2000
Gap handling : Appended to previous track

Used output format : User Defined Encoder
Selected bitrate : 128 kBit/s
Quality : High
Add ID3 tag : No
Command line compressor : C:\Program Files (x86)\Exact Audio Copy\Flac\flac.exe
Additional command line options : -8 -V -T "ARTIST=%artist%" -T "TITLE=%title%" -T "ALBUM=%albumtitle%" -T "DATE=%year%" -T "TRACKNUMBER=%tracknr%" -T "GENRE=%genre%" -T "PERFORMER=%albuminterpret%" -T "COMPOSER=%composer%" %haslyrics%–tag-from-file=LYRICS="%lyricsfile%"%haslyrics% -T "ALBUMARTIST=%albumartist%" -T "DISCNUMBER=%cdnumber%" -T "TOTALDISCS=%totalcds%" -T "TOTALTRACKS=%numtracks%" -T "COMMENT=%comment%" %source% -o %dest%


TOC of the extracted CD

Track | Start | Length | Start sector | End sector
––––––––––––––––––––––––––––-
1 | 0:00.00 | 4:58.63 | 0 | 22412
2 | 4:58.63 | 4:55.62 | 22413 | 44599
3 | 9:54.50 | 6:58.45 | 44600 | 75994
4 | 16:53.20 | 4:56.27 | 75995 | 98221
5 | 21:49.47 | 6:00.38 | 98222 | 125259
6 | 27:50.10 | 6:20.49 | 125260 | 153808
7 | 34:10.59 | 4:14.30 | 153809 | 172888
8 | 38:25.14 | 4:27.19 | 172889 | 192932


Track 1

Filename D:\Rips\Bill Evans Trio - The Riverside Collection\CD3 - How My Heart Sings!\01 - How My Heart Sings.wav

Pre-gap length 0:00:02.00

Peak level 86.7 %
Extraction speed 1.2 X
Track quality 100.0 %
Test CRC 0B41E9A0
Copy CRC 0B41E9A0
Accurately ripped (confidence 1) [E51FB52C] (AR v2)
Copy OK

Track 2

Filename D:\Rips\Bill Evans Trio - The Riverside Collection\CD3 - How My Heart Sings!\02 - I Should Care.wav

Peak level 86.0 %
Extraction speed 1.2 X
Track quality 99.9 %
Test CRC B7753383
Copy CRC B7753383
Accurately ripped (confidence 1) [81F13298] (AR v2)
Copy OK

Track 3

Filename D:\Rips\Bill Evans Trio - The Riverside Collection\CD3 - How My Heart Sings!\03 - In Your Own Sweet Way.wav

Peak level 92.7 %
Extraction speed 1.6 X
Track quality 100.0 %
Test CRC 6C027F26
Copy CRC 6C027F26
Accurately ripped (confidence 1) [6A5A3A66] (AR v2)
Copy OK

Track 4

Filename D:\Rips\Bill Evans Trio - The Riverside Collection\CD3 - How My Heart Sings!\04 - Walkin' Up.wav

Peak level 81.2 %
Extraction speed 1.7 X
Track quality 100.0 %
Test CRC 2089F0A7
Copy CRC 2089F0A7
Accurately ripped (confidence 1) [8B17C804] (AR v2)
Copy OK

Track 5

Filename D:\Rips\Bill Evans Trio - The Riverside Collection\CD3 - How My Heart Sings!\05 - Summertime.wav

Peak level 73.2 %
Extraction speed 1.7 X
Track quality 99.9 %
Test CRC B12C72E1
Copy CRC B12C72E1
Accurately ripped (confidence 1) [1782515C] (AR v2)
Copy OK

Track 6

Filename D:\Rips\Bill Evans Trio - The Riverside Collection\CD3 - How My Heart Sings!\06 - 34 Skidoo.wav

Peak level 84.0 %
Extraction speed 2.0 X
Track quality 100.0 %
Test CRC 60BF67C8
Copy CRC 60BF67C8
Accurately ripped (confidence 1) [B56570E6] (AR v2)
Copy OK

Track 7

Filename D:\Rips\Bill Evans Trio - The Riverside Collection\CD3 - How My Heart Sings!\07 - Ev'rything I Love.wav

Peak level 97.4 %
Extraction speed 2.0 X
Track quality 100.0 %
Test CRC F49C596B
Copy CRC F49C596B
Accurately ripped (confidence 1) [27BB7BA0] (AR v2)
Copy OK

Track 8

Filename D:\Rips\Bill Evans Trio - The Riverside Collection\CD3 - How My Heart Sings!\08 - Show-Type Tune.wav

Peak level 74.2 %
Extraction speed 1.9 X
Track quality 99.9 %
Test CRC 34274EDC
Copy CRC 34274EDC
Accurately ripped (confidence 1) [E92FCE1F] (AR v2)
Copy OK


All tracks accurately ripped

No errors occurred

End of status report

–– CUETools DB Plugin V2.1.6

[CTDB TOCID: E_xln9LLy3fLH_qdeUj8TYeQA5A-] found
Submit result: E_xln9LLy3fLH_qdeUj8TYeQA5A- has been confirmed
Track | CTDB Status
1 | (1/1) Accurately ripped
2 | (1/1) Accurately ripped
3 | (1/1) Accurately ripped
4 | (1/1) Accurately ripped
5 | (1/1) Accurately ripped
6 | (1/1) Accurately ripped
7 | (1/1) Accurately ripped
8 | (1/1) Accurately ripped


==== Log checksum 280F622E7BF8A736C9066E08BCA4BB511ACB44D55C2C0BBF19DC203B1DC66668 ====


CD 4 Interplay

01. You And The Night And The Music
02. When You Wish Upon A Star
03. I'll Never Smile Again
04. Interplay
05. You Go To My Head
06. Wrap Your Troubles In Dreams (And Dream Your Troubles Away)

Exact Audio Copy V1.3 from 2. September 2016

EAC extraction logfile from 14. March 2017, 14:01

Bill Evans / The Riverside Collection

Used drive : PLDS DVD+-RW DU-8A5LH Adapter: 1 ID: 0

Read mode : Secure
Utilize accurate stream : Yes
Defeat audio cache : Yes
Make use of C2 pointers : No

Read offset correction : 6
Overread into Lead-In and Lead-Out : No
Fill up missing offset samples with silence : Yes
Delete leading and trailing silent blocks : No
Null samples used in CRC calculations : Yes
Used interface : Native Win32 interface for Win NT & 2000
Gap handling : Appended to previous track

Used output format : User Defined Encoder
Selected bitrate : 128 kBit/s
Quality : High
Add ID3 tag : No
Command line compressor : C:\Program Files (x86)\Exact Audio Copy\Flac\flac.exe
Additional command line options : -8 -V -T "ARTIST=%artist%" -T "TITLE=%title%" -T "ALBUM=%albumtitle%" -T "DATE=%year%" -T "TRACKNUMBER=%tracknr%" -T "GENRE=%genre%" -T "PERFORMER=%albuminterpret%" -T "COMPOSER=%composer%" %haslyrics%–tag-from-file=LYRICS="%lyricsfile%"%haslyrics% -T "ALBUMARTIST=%albumartist%" -T "DISCNUMBER=%cdnumber%" -T "TOTALDISCS=%totalcds%" -T "TOTALTRACKS=%numtracks%" -T "COMMENT=%comment%" %source% -o %dest%


TOC of the extracted CD

Track | Start | Length | Start sector | End sector
––––––––––––––––––––––––––––-
1 | 0:00.00 | 7:06.25 | 0 | 31974
2 | 7:06.25 | 5:46.24 | 31975 | 57948
3 | 12:52.49 | 6:33.71 | 57949 | 87494
4 | 19:26.45 | 8:15.32 | 87495 | 124651
5 | 27:42.02 | 5:05.12 | 124652 | 147538
6 | 32:47.14 | 6:26.20 | 147539 | 176508


Track 1

Filename D:\Rips\Bill Evans Trio - The Riverside Collection\CD4 - Interplay\01 - You And The Night And The Music.wav

Pre-gap length 0:00:02.00

Peak level 92.8 %
Extraction speed 1.3 X
Track quality 100.0 %
Test CRC 563DFF67
Copy CRC 563DFF67
Accurately ripped (confidence 1) [D650108D] (AR v2)
Copy OK

Track 2

Filename D:\Rips\Bill Evans Trio - The Riverside Collection\CD4 - Interplay\02 - When You Wish Upon A Star.wav

Peak level 70.0 %
Extraction speed 1.5 X
Track quality 100.0 %
Test CRC F3388203
Copy CRC F3388203
Accurately ripped (confidence 1) [08EF2A1B] (AR v2)
Copy OK

Track 3

Filename D:\Rips\Bill Evans Trio - The Riverside Collection\CD4 - Interplay\03 - I'll Never Smile Again.wav

Peak level 88.4 %
Extraction speed 1.6 X
Track quality 100.0 %
Test CRC D18A6944
Copy CRC D18A6944
Accurately ripped (confidence 1) [4C7A0BD4] (AR v2)
Copy OK

Track 4

Filename D:\Rips\Bill Evans Trio - The Riverside Collection\CD4 - Interplay\04 - Interplay.wav

Peak level 70.8 %
Extraction speed 1.9 X
Track quality 100.0 %
Test CRC 5613A5E6
Copy CRC 5613A5E6
Accurately ripped (confidence 1) [8AEF1235] (AR v2)
Copy OK

Track 5

Filename D:\Rips\Bill Evans Trio - The Riverside Collection\CD4 - Interplay\05 - You Go To My Head.wav

Peak level 100.0 %
Extraction speed 1.9 X
Track quality 100.0 %
Test CRC A9B2E9D7
Copy CRC A9B2E9D7
Accurately ripped (confidence 1) [7956EC5D] (AR v2)
Copy OK

Track 6

Filename D:\Rips\Bill Evans Trio - The Riverside Collection\CD4 - Interplay\06 - Wrap Your Troubles In Dreams.wav

Peak level 95.0 %
Extraction speed 2.1 X
Track quality 100.0 %
Test CRC 420DAC28
Copy CRC 420DAC28
Accurately ripped (confidence 1) [963B7C57] (AR v2)
Copy OK


All tracks accurately ripped

No errors occurred

End of status report

–– CUETools DB Plugin V2.1.6

[CTDB TOCID: G7qeC817dbYGRF8TJtdivFDw9hk-] disk not present in database
Submit result: G7qeC817dbYGRF8TJtdivFDw9hk- has been uploaded


==== Log checksum A8E146B05847E49549B8C980EFB39984E2AC61E5485B0C127124E016688AF6AC ====


CD 5 Know What I Mean?

01. Waltz For Debby
02. Goodbye
03. Who Cares?
04. Venice
05. Toy
06. Elsa
07. Nancy (With The Laughing Face)
08. Know What I Mean?

Exact Audio Copy V1.3 from 2. September 2016

EAC extraction logfile from 14. March 2017, 12:25

Bill Evans / The Riverside Collection

Used drive : PLDS DVD+-RW DU-8A5LH Adapter: 1 ID: 0

Read mode : Secure
Utilize accurate stream : Yes
Defeat audio cache : Yes
Make use of C2 pointers : No

Read offset correction : 6
Overread into Lead-In and Lead-Out : No
Fill up missing offset samples with silence : Yes
Delete leading and trailing silent blocks : No
Null samples used in CRC calculations : Yes
Used interface : Native Win32 interface for Win NT & 2000
Gap handling : Appended to previous track

Used output format : User Defined Encoder
Selected bitrate : 128 kBit/s
Quality : High
Add ID3 tag : No
Command line compressor : C:\Program Files (x86)\Exact Audio Copy\Flac\flac.exe
Additional command line options : -8 -V -T "ARTIST=%artist%" -T "TITLE=%title%" -T "ALBUM=%albumtitle%" -T "DATE=%year%" -T "TRACKNUMBER=%tracknr%" -T "GENRE=%genre%" -T "PERFORMER=%albuminterpret%" -T "COMPOSER=%composer%" %haslyrics%–tag-from-file=LYRICS="%lyricsfile%"%haslyrics% -T "ALBUMARTIST=%albumartist%" -T "DISCNUMBER=%cdnumber%" -T "TOTALDISCS=%totalcds%" -T "TOTALTRACKS=%numtracks%" -T "COMMENT=%comment%" %source% -o %dest%


TOC of the extracted CD

Track | Start | Length | Start sector | End sector
––––––––––––––––––––––––––––-
1 | 0:00.00 | 5:17.74 | 0 | 23848
2 | 5:17.74 | 6:17.41 | 23849 | 52164
3 | 11:35.40 | 5:58.57 | 52165 | 79071
4 | 17:34.22 | 2:56.11 | 79072 | 92282
5 | 20:30.33 | 5:10.17 | 92283 | 115549
6 | 25:40.50 | 5:52.07 | 115550 | 141956
7 | 31:32.57 | 4:08.34 | 141957 | 160590
8 | 35:41.16 | 4:56.44 | 160591 | 182834


Track 1

Filename D:\Rips\Bill Evans Trio - The Riverside Collection\CD5 - Know What I Mean\01 - Waltz For Debby.wav

Pre-gap length 0:00:02.00

Peak level 100.0 %
Extraction speed 1.2 X
Track quality 100.0 %
Test CRC 913BF1F5
Copy CRC 913BF1F5
Accurately ripped (confidence 1) [A4B5ACF7] (AR v2)
Copy OK

Track 2

Filename D:\Rips\Bill Evans Trio - The Riverside Collection\CD5 - Know What I Mean\02 - Goodbye.wav

Peak level 82.6 %
Extraction speed 1.4 X
Track quality 100.0 %
Test CRC 9C4173B9
Copy CRC 9C4173B9
Accurately ripped (confidence 1) [F975F9A1] (AR v2)
Copy OK

Track 3

Filename D:\Rips\Bill Evans Trio - The Riverside Collection\CD5 - Know What I Mean\03 - Who Cares.wav

Peak level 99.9 %
Extraction speed 1.6 X
Track quality 100.0 %
Test CRC 989071DD
Copy CRC 989071DD
Accurately ripped (confidence 1) [6E11DA90] (AR v2)
Copy OK

Track 4

Filename D:\Rips\Bill Evans Trio - The Riverside Collection\CD5 - Know What I Mean\04 - Venice.wav

Peak level 74.1 %
Extraction speed 1.6 X
Track quality 100.0 %
Test CRC ECD22992
Copy CRC ECD22992
Accurately ripped (confidence 1) [020805AD] (AR v2)
Copy OK

Track 5

Filename D:\Rips\Bill Evans Trio - The Riverside Collection\CD5 - Know What I Mean\05 - Toy.wav

Peak level 100.0 %
Extraction speed 1.8 X
Track quality 100.0 %
Test CRC 96373A7A
Copy CRC 96373A7A
Accurately ripped (confidence 1) [8F0936BE] (AR v2)
Copy OK

Track 6

Filename D:\Rips\Bill Evans Trio - The Riverside Collection\CD5 - Know What I Mean\06 - Elsa.wav

Peak level 68.0 %
Extraction speed 1.9 X
Track quality 100.0 %
Test CRC E97DCC7F
Copy CRC E97DCC7F
Accurately ripped (confidence 1) [ED21D12C] (AR v2)
Copy OK

Track 7

Filename D:\Rips\Bill Evans Trio - The Riverside Collection\CD5 - Know What I Mean\07 - Nancy (With The Laughing Face).wav

Peak level 81.8 %
Extraction speed 2.0 X
Track quality 100.0 %
Test CRC F7CC5D09
Copy CRC F7CC5D09
Accurately ripped (confidence 1) [4EA7CAA6] (AR v2)
Copy OK

Track 8

Filename D:\Rips\Bill Evans Trio - The Riverside Collection\CD5 - Know What I Mean\08 - Know What I Mean.wav

Peak level 99.8 %
Extraction speed 2.1 X
Track quality 100.0 %
Test CRC DB38A783
Copy CRC DB38A783
Accurately ripped (confidence 1) [4122DC5A] (AR v2)
Copy OK


All tracks accurately ripped

No errors occurred

End of status report

–– CUETools DB Plugin V2.1.6

[CTDB TOCID: EFU2.CWfxcwbgldR3I8BfzB_ffI-] disk not present in database
Submit result: EFU2.CWfxcwbgldR3I8BfzB_ffI- has been uploaded


==== Log checksum 17165020B81C69D605141C72D5C2F919FB22F3E8CC51C85814610BA02CC9A72D ====


All thanks go to the original releaser