Subcategories
Tags
Language
Tags

Bill In The Tea - Big Tree (2013)

Posted By: gribovar
Bill In The Tea - Big Tree (2013)

Bill In The Tea - Big Tree (2013)
EAC Rip | FLAC (image+.cue+log) - 313 MB | MP3 CBR 320 kbps (LAME 3.93) - 119 MB | Covers - 333 MB
Genre: Progressive Rock | RAR 3% Rec. | Label: AMS (AMS 234 CD)

Bill In The Tea is a collective of six musicians born in Catania, Sicily. The band grounds his roots in heavily mathematical prog rock from late seventies but eventually evolves into a smoother and plainer musical architecture, strongly influenced by post-rock and neo-psychedelia, with a clear reference to bossa nova, blues and jazz music.

Tracklist:
01. Now I Know What The M Means
02. The Day Before
03. Feynman
04. I Wanna Be Frank Zappa
05. Interloop
06. Big Tree In A Losing Atmosphere
07. June
08. Mad!
09. Change Colours

Total time: 50:52

Exact Audio Copy V1.3 from 2. September 2016

Отчёт EAC об извлечении, выполненном 14. января 2021, 16:25

Bill In The Tea / Big Tree

Дисковод: HL-DT-STDVDRAM GT70N Adapter: 1 ID: 0

Режим чтения : Достоверность
Использование точного потока : Да
Отключение кэша аудио : Да
Использование указателей C2 : Нет

Коррекция смещения при чтении : 103
Способность читать области Lead-in и Lead-out : Нет
Заполнение пропущенных сэмплов тишиной : Да
Удаление блоков с тишиной в начале и конце : Нет
При вычислениях CRC использовались нулевые сэмплы : Да
Интерфейс : Встроенный Win32-интерфейс для Win NT/2000

Выходной формат : Пользовательский кодировщик
Выбранный битрейт : 1024 kBit/s
Качество : Высокий
Добавление ID3-тега : Нет
Утилита сжатия : C:\Program Files (x86)\Exact Audio Copy\Flac\flac.exe
Дополнительные параметры : -V -8 -T "Date=%year%" -T "Genre=%genre%" %source%


TOC извлечённого CD

Трек | Старт | Длительность | Начальный сектор | Конечный сектор
––––––––––––––––––––––––––––––––––-
1 | 0:00.00 | 7:30.43 | 0 | 33792
2 | 7:30.43 | 6:27.42 | 33793 | 62859
3 | 13:58.10 | 3:46.66 | 62860 | 79875
4 | 17:45.01 | 5:24.70 | 79876 | 104245
5 | 23:09.71 | 1:32.04 | 104246 | 111149
6 | 24:42.00 | 7:34.68 | 111150 | 145267
7 | 32:16.68 | 5:28.42 | 145268 | 169909
8 | 37:45.35 | 7:47.35 | 169910 | 204969
9 | 45:32.70 | 5:19.25 | 204970 | 228919


Характеристики диапазона извлечения и сообщения об ошибках

Выбранный диапазон

Имя файла D:\Bill In The Tea - Big Tree (2014) CD\Bill In The Tea - Big Tree.wav

Пиковый уровень 100.0 %
Скорость извлечения 4.8 X
Качество диапазона 100.0 %
CRC теста F6309033
CRC копии F6309033
Копирование… OK

Ошибок не произошло


AccurateRip: сводка

Трек 1 : извлечено точно (доверие 1) [8CB005B9] (AR v2)
Трек 2 : извлечено точно (доверие 1) [D46B7E56] (AR v2)
Трек 3 : извлечено точно (доверие 1) [D21B28A7] (AR v2)
Трек 4 : извлечено точно (доверие 1) [44384474] (AR v2)
Трек 5 : извлечено точно (доверие 1) [D593FAD7] (AR v2)
Трек 6 : извлечено точно (доверие 1) [1DE37191] (AR v2)
Трек 7 : извлечено точно (доверие 1) [41B8BFF9] (AR v2)
Трек 8 : извлечено точно (доверие 1) [9A10CEC7] (AR v2)
Трек 9 : извлечено точно (доверие 1) [57F8A6A6] (AR v2)

Все треки извлечены точно

Конец отчёта

–– CUETools DB Plugin V2.1.6

[CTDB TOCID: Mj0igtTj._aiXlnMKwjTYOcNTf8-] found
Submit result: Mj0igtTj._aiXlnMKwjTYOcNTf8- has been confirmed
Track | CTDB Status
1 | (1/1) Accurately ripped
2 | (1/1) Accurately ripped
3 | (1/1) Accurately ripped
4 | (1/1) Accurately ripped
5 | (1/1) Accurately ripped
6 | (1/1) Accurately ripped
7 | (1/1) Accurately ripped
8 | (1/1) Accurately ripped
9 | (1/1) Accurately ripped


==== Контрольная сумма отчёта 0CBB87EA620965ADFF3C424A7F8D9236E76B3FA2263A7CA563339CCCB9430A57 ====

[CUETools log; Date: 14.01.2021 17:58:31; Version: 2.1.4]
[CTDB TOCID: Mj0igtTj._aiXlnMKwjTYOcNTf8-] found.
Track | CTDB Status
1 | (2/2) Accurately ripped
2 | (2/2) Accurately ripped
3 | (2/2) Accurately ripped
4 | (2/2) Accurately ripped
5 | (2/2) Accurately ripped
6 | (2/2) Accurately ripped
7 | (2/2) Accurately ripped
8 | (2/2) Accurately ripped
9 | (2/2) Accurately ripped
[AccurateRip ID: 00116901-007e3fdf-7c0bec09] found.
Track [ CRC | V2 ] Status
01 [92260d25|8cb005b9] (0+1/1) Accurately ripped
02 [8347bfa9|d46b7e56] (0+1/1) Accurately ripped
03 [b9e11eea|d21b28a7] (0+1/1) Accurately ripped
04 [d1941e49|44384474] (0+1/1) Accurately ripped
05 [b596f7b4|d593fad7] (0+1/1) Accurately ripped
06 [06a4a104|1de37191] (0+1/1) Accurately ripped
07 [a6459408|41b8bff9] (0+1/1) Accurately ripped
08 [f818472f|9a10cec7] (0+1/1) Accurately ripped
09 [7cefc045|57f8a6a6] (0+1/1) Accurately ripped

Track Peak [ CRC32 ] [W/O NULL] [ LOG ]
– 100,0 [F6309033] [F2B675DA] CRC32
01 100,0 [45042531] [E1645872]
02 100,0 [37F3DDAD] [54246198]
03 100,0 [AD61EE8E] [5CB81F64]
04 100,0 [7BE321B5] [21963881]
05 99,1 [E6E43D9E] [A558A391]
06 100,0 [010124E3] [85D856B0]
07 100,0 [987AE625] [D8405637]
08 100,0 [0643F8FA] [A20F17EA]
09 100,0 [95168504] [DA6F158E]

Thanks to verbiya