Subcategories

Billy Branch & The Sons Of Blues - Live & Kicking! At Rosa's Lounge (2009)

Posted By: Designol
Billy Branch & The Sons Of Blues - Live & Kicking! At Rosa's Lounge (2009)

Billy Branch & The Sons Of Blues - Live & Kicking! At Rosa's Lounge (2009)
EAC | FLAC | Image (Cue&Log) ~ 438 Mb | Mp3 (CBR320) ~ 167 Mb | Scans included
Chicago Blues, Electric Harmonica Blues | Label: P-Vine | # PCD-25097 | 01:10:51

In the '70s, harmonica man Billy Branch was one of the young upstarts helping to keep the Chicago blues sound alive; in the 21st century, he's matured into one of the Windy City's most venerable blues talents, and as a musician and educator, Branch has spread the word about the blues across the country and around the world. Branch has led the Sons of Blues, his backing band, since the mid-'70s, and despite numerous personnel changes, the SOBs have never wavered in their dedication to pure, unadulterated Chicago blues. Born in Chicago in 1951, Billy Branch moved with his family to California when he was five, but in 1969 he returned to attend the University of Illinois, where he studied political science. Branch had taken up the blues harp, and he was spotted by legendary songwriter and producer Willie Dixon, who recruited Branch to replace the great Carey Bell in his band the Chicago Blues All-Stars. After graduating from college, Branch abandoned his plans to become a lawyer and went into music full-time, touring with Dixon and forming his own band, Billy Branch & the Sons of Blues; the initial lineup featured Lurrie Bell (Carey Bell's son) on guitar and Freddie Dixon (Willie's son) on bass. In 1984, Branch & the Sons of Blues released their debut album, Where's My Money; by this time, the lineup had changed to Carlos Johnson (guitar), J.W. Williams (bass), and Mose Rutues (drums), and the membership of Branch's group would remain fluid in the years to come, though Rutues would spend more than a quarter century with the band. Branch also co-starred on Alligator's 1990 summit meeting Harp Attack! with fellow harp masters Junior Wells, Carey Bell, and James Cotton; he busied himself as a sideman (cutting sessions with Koko Taylor, Eddy Clearwater, Syl Johnson, and Johnny Winter, among dozens of others), and taught with an innovative "Blues in the Schools" program that brought blues history to young people in schools in America, Mexico, Europe, and South America. Branch has received three Grammy nominations during his long recording career, and two W.C. Handy Awards. In 2014, after a ten-year layoff from recording, Branch and his latest lineup of the Sons of Blues returned with a new album, Blues Shock.

Bill Dahl, Allmusic.com

Billy Branch & The Sons Of Blues - Live & Kicking! At Rosa's Lounge (2009)



Billy Branch - harmonica & vocals
Minoru Maruyama - guitar & vocals
Ariyo - piano & vocals
Nick Charles - bass & vocals
Mose Rutues - drums & vocals

Recorded Live At Rosa's Lounge On May 2007

Tracklist:

01. Going Down (6:25)
02. Crazy Mixed Up World (7:07)
03. Good Morning Little School Girl (7:01)
04. Chicken Heads (6:16)
05. Northern Man Blues (6:37)
06. Who's Making Love (2:54)
07. New Kid On The Block (10:46)
08. Windy City (5:27)
09. What's The Matter With The Mill (4:19)
10. Where's My Money (6:39)
11. So Much In Love (7:19)


Exact Audio Copy V1.3 from 2. September 2016

Отчёт EAC об извлечении, выполненном 10. января 2018, 23:56

Billy Branch & the Sons of Blues / Live & Kicking ! at Rosa's Lounge

Дисковод: PIONEER DVD-RW DVR-220L Adapter: 1 ID: 0

Режим чтения : Достоверность
Использование точного потока : Да
Отключение кэша аудио : Да
Использование указателей C2 : Нет

Коррекция смещения при чтении : 6
Способность читать области Lead-in и Lead-out : Нет
Заполнение пропущенных сэмплов тишиной : Да
Удаление блоков с тишиной в начале и конце : Нет
При вычислениях CRC использовались нулевые сэмплы : Да
Интерфейс : Встроенный Win32-интерфейс для Win NT/2000

Выходной формат : Пользовательский кодировщик
Выбранный битрейт : 768 kBit/s
Качество : Высокий
Добавление ID3-тега : Нет
Утилита сжатия : F:\Program Files\Exact Audio Copy\FLAC\FLAC.EXE
Дополнительные параметры : -6 -V -T "ARTIST=%artist%" -T "TITLE=%title%" -T "ALBUM=%albumtitle%" -T "DATE=%year%" -T "TRACKNUMBER=%tracknr%" -T "GENRE=%genre%" -T "COMMENT=%comment%" -T "BAND=%albuminterpret%" -T "ALBUMARTIST=%albuminterpret%" -T "COMPOSER=%composer%" %haslyrics%–tag-from-file=LYRICS="%lyricsfile%"%haslyrics% -T "DISCNUMBER=%cdnumber%" -T "TOTALDISCS=%totalcds%" -T "TOTALTRACKS=%numtracks%" %hascover%–picture="%coverfile%"%hascover% %source% -o %dest%


TOC извлечённого CD

Трек | Старт | Длительность | Начальный сектор | Конечный сектор
––––––––––––––––––––––––––––––––––-
1 | 0:00.00 | 6:24.38 | 0 | 28837
2 | 6:24.38 | 7:06.49 | 28838 | 60836
3 | 13:31.12 | 7:01.24 | 60837 | 92435
4 | 20:32.36 | 6:16.15 | 92436 | 120650
5 | 26:48.51 | 6:37.17 | 120651 | 150442
6 | 33:25.68 | 2:54.29 | 150443 | 163521
7 | 36:20.22 | 10:45.57 | 163522 | 211953
8 | 47:06.04 | 5:26.39 | 211954 | 236442
9 | 52:32.43 | 4:19.28 | 236443 | 255895
10 | 56:51.71 | 6:39.28 | 255896 | 285848
11 | 63:31.24 | 7:19.24 | 285849 | 318797


Характеристики диапазона извлечения и сообщения об ошибках

Выбранный диапазон

Имя файла F:\TORRENTS\Billy Branch & the Sons of Blues - Live & Kicking ! at Rosa's Lounge\Billy Branch & the Sons of Blues - Live & Kicking ! at Rosa's Lounge.wav

Пиковый уровень 99.9 %
Скорость извлечения 2.1 X
Качество диапазона 100.0 %
CRC копии C0B87EFB
Копирование… OK

Ошибок не произошло


AccurateRip: сводка

Трек 1 : извлечено точно (доверие 1) [7823189C] (AR v1)
Трек 2 : извлечено точно (доверие 1) [D577E504] (AR v1)
Трек 3 : извлечено точно (доверие 1) [243A9CA4] (AR v1)
Трек 4 : извлечено точно (доверие 1) [372296D8] (AR v1)
Трек 5 : извлечено точно (доверие 1) [369C4DE0] (AR v1)
Трек 6 : извлечено точно (доверие 1) [5D18FE4D] (AR v1)
Трек 7 : извлечено точно (доверие 1) [49DB6A0D] (AR v1)
Трек 8 : извлечено точно (доверие 1) [54337091] (AR v1)
Трек 9 : извлечено точно (доверие 1) [562D077A] (AR v1)
Трек 10 : извлечено точно (доверие 1) [4D97281D] (AR v1)
Трек 11 : извлечено точно (доверие 1) [B699DC73] (AR v1)

Все треки извлечены точно

Конец отчёта

–– CUETools DB Plugin V2.1.6

[CTDB TOCID: 52PEVnXWuOm1g2B5pIGildeQivE-] disk not present in database
Submit result: 52PEVnXWuOm1g2B5pIGildeQivE- has been uploaded

[CUETools log; Date: 31.01.2018 23:52:00; Version: 2.1.4]
[CTDB TOCID: 52PEVnXWuOm1g2B5pIGildeQivE-] found.
Track | CTDB Status
1 | (1/1) Accurately ripped
2 | (1/1) Accurately ripped
3 | (1/1) Accurately ripped
4 | (1/1) Accurately ripped
5 | (1/1) Accurately ripped
6 | (1/1) Accurately ripped
7 | (1/1) Accurately ripped
8 | (1/1) Accurately ripped
9 | (1/1) Accurately ripped
10 | (1/1) Accurately ripped
11 | (1/1) Accurately ripped
[AccurateRip ID: 001d6223-00fd7e81-82109a0b] found.
Track [ CRC | V2 ] Status
01 [7823189c|3f3916ee] (1+0/1) Accurately ripped
02 [d577e504|ee9e375d] (1+0/1) Accurately ripped
03 [243a9ca4|3ffd86a7] (1+0/1) Accurately ripped
04 [372296d8|5b544f2c] (1+0/1) Accurately ripped
05 [369c4de0|a03d28f3] (1+0/1) Accurately ripped
06 [5d18fe4d|672368bd] (1+0/1) Accurately ripped
07 [49db6a0d|6321a48a] (1+0/1) Accurately ripped
08 [54337091|3cf54b80] (1+0/1) Accurately ripped
09 [562d077a|a2e17429] (1+0/1) Accurately ripped
10 [4d97281d|da4edea1] (1+0/1) Accurately ripped
11 [b699dc73|e7a0792c] (1+0/1) Accurately ripped

Track Peak [ CRC32 ] [W/O NULL] [ LOG ]
– 99,9 [C0B87EFB] [FB0EB07B] CRC32
01 99,9 [CEF4A98A] [BC30B699]
02 99,9 [9BA24929] [F618AB33]
03 99,9 [E9E7DF94] [31A2BA67]
04 99,9 [4800756E] [620B556C]
05 99,9 [ECEC3F13] [948011F1]
06 99,9 [435405C1] [64C79E08]
07 99,9 [AEA071CB] [A1B7EC8F]
08 99,9 [681E30B6] [9A36517A]
09 99,9 [8E957448] [3204391C]
10 99,9 [BB51FB0F] [1D1BA477]
11 99,9 [83EB553E] [285D031F]

foobar2000 1.2 / Dynamic Range Meter 1.1.1
log date: 2018-01-31 23:33:18

––––––––––––––––––––––––––––––––––––––––
Analyzed: Billy Branch & the Sons of Blues / Live & Kicking ! at Rosa's Lounge
––––––––––––––––––––––––––––––––––––––––

DR Peak RMS Duration Track
––––––––––––––––––––––––––––––––––––––––
DR8 0.00 dB -9.32 dB 6:25 01-Going Down
DR10 0.00 dB -10.65 dB 7:07 02-Crazy Mixed Up World
DR9 0.00 dB -10.61 dB 7:01 03-Good Morning Little School Girl
DR9 0.00 dB -10.60 dB 6:16 04-Chicken Heads
DR10 0.00 dB -12.02 dB 6:37 05-Northern Man Blues
DR9 0.00 dB -10.59 dB 2:54 06-Who's Making Love
DR8 0.00 dB -9.70 dB 10:46 07-New Kid On The Block
DR11 0.00 dB -12.58 dB 5:27 08-Windy City
DR9 0.00 dB -10.83 dB 4:19 09-What's The Matter With The Mill
DR10 0.00 dB -10.96 dB 6:39 10-Where's My Money
DR10 0.00 dB -12.21 dB 7:19 11-So Much In Love
––––––––––––––––––––––––––––––––––––––––

Number of tracks: 11
Official DR value: DR9

Samplerate: 44100 Hz
Channels: 2
Bits per sample: 16
Bitrate: 854 kbps
Codec: FLAC
================================================================================

Billy Branch & The Sons Of Blues - Live & Kicking! At Rosa's Lounge (2009)

Billy Branch & The Sons Of Blues - Live & Kicking! At Rosa's Lounge (2009)

All thanks to original releaser - Djam Karet

More interesting music in My Blog