Subcategories
Tags
Language
Tags

Billy Cobham - Total Eclipse (1974) [Reissue 2005]

Posted By: Designol
Billy Cobham - Total Eclipse (1974) [Reissue 2005]

Billy Cobham - Total Eclipse (1974) [Reissue 2005]
EAC | FLAC | Image (Cue&Log) ~ 306 Mb | Mp3 (CBR320) ~ 149 Mb | Scans included
Label: Atlantic/Warner Jazz | # 8122765852 | Time: 00:44:05
Fusion, Post-Bop, Jazz-Funk, Jazz-Rock

This is Billy Cobham's third solo recording under his own name and is a fine follow-up to Crosswinds. The mini-suite "Solarization" not only showcases the band's technical abilities, but also Cobham's strong compositional skills. It also features a schizophrenic piano solo ("Second Phase") from the underrated pianist Milcho Leviev, who sounds like a mutation of Cecil Taylor and Bill Evans. The funky "Moon Germs," on which John Abercrombie is pushed to inspiring new heights, became a Cobham classic. "The Moon Ain't Made of Green Cheese" is a beautiful flugelhorn solo by Randy Brecker backed by Cobham's debut on piano. The band stretches out on the lengthy "Sea of Tranquility," while "Last Frontier" is a gratuitous drum solo. This recording is highly recommended as Cobham still sounds inspired.

Review by Robert Taylor, Allmusic.com

Billy Cobham - Total Eclipse (1974) [Reissue 2005]



- Billy Cobham – traps, tympany, acoustic piano on "The Moon Ain't Made Of Green Cheese & "The Last Frontier"
- John Abercrombie – electric & ovation guitars
- Michael Brecker – flute, soprano & tenor saxes
- Randy Brecker – trumpet, flugelhorn
- Glenn Ferris – tenor & bass trombones
- Milcho Leviev – keyboards
- Alex Blake – electric bass

Additional musicians:

- David Earle Johnson – congas on "Solarization" & "Moon Germs"
- Sue Evan – marimba on "Solarization"
- Cornell Dupree – first guitar solo on "Moon Germs"

Originally released in 1974 as Atlantic K50098.
Recorded at Atlantic Recording Studios & at Electric Lady Studios, New York, N.Y.

Tracklist:

01. Solarisation: (11:10)
a) Solarisation
b) Second Phase
c) Crescent Sun
d) Voyage
e) Solarization-Recapitulation
02. Lunarputians (2:32)
03. Total Eclipse (5:57)
04. Bandits (2:31)
05. Moon Germs (4:54)
06. The Moon Ain't Made Of Green Cheese (0:58)
07. Sea Of Tranquillity (10:48)
08. Last Frontier (5:15)


Exact Audio Copy V1.0 beta 3 from 29. August 2011

EAC extraction logfile from 6. October 2013, 16:15

Billy Cobham / Total Eclipse

Used drive : HL-DT-STBDDVDRW GBC-H20N Adapter: 1 ID: 0

Read mode : Secure
Utilize accurate stream : Yes
Defeat audio cache : Yes
Make use of C2 pointers : No

Read offset correction : 667
Overread into Lead-In and Lead-Out : No
Fill up missing offset samples with silence : Yes
Delete leading and trailing silent blocks : No
Null samples used in CRC calculations : Yes
Used interface : Native Win32 interface for Win NT & 2000

Used output format : User Defined Encoder
Selected bitrate : 1024 kBit/s
Quality : High
Add ID3 tag : No
Command line compressor : C:\Program Files\Exact Audio Copy\wavpack.exe
Additional command line options : -hm %source% %dest%


TOC of the extracted CD

Track | Start | Length | Start sector | End sector
––––––––––––––––––––––––––––-
1 | 0:00.00 | 11:09.47 | 0 | 50221
2 | 11:09.47 | 2:32.03 | 50222 | 61624
3 | 13:41.50 | 5:57.35 | 61625 | 88434
4 | 19:39.10 | 2:31.02 | 88435 | 99761
5 | 22:10.12 | 4:54.15 | 99762 | 121826
6 | 27:04.27 | 0:57.70 | 121827 | 126171
7 | 28:02.22 | 10:47.70 | 126172 | 174766
8 | 38:50.17 | 5:15.10 | 174767 | 198401


Range status and errors

Selected range

Filename C:\Users\ProgDog\Music\ZALIVKI\Billy Cobham\1974 - Total Eclipse\Billy Cobham - Total Eclipse.wav

Peak level 97.7 %
Extraction speed 5.7 X
Range quality 99.9 %
Test CRC 2FBED54A
Copy CRC 2FBED54A
Copy OK

No errors occurred


AccurateRip summary

Track 1 accurately ripped (confidence 6) [8A707C70] (AR v2)
Track 2 accurately ripped (confidence 6) [C4C39A2B] (AR v2)
Track 3 accurately ripped (confidence 6) [48712E5D] (AR v2)
Track 4 accurately ripped (confidence 6) [FF38BB60] (AR v2)
Track 5 accurately ripped (confidence 6) [4C609B22] (AR v2)
Track 6 accurately ripped (confidence 6) [8303F1EE] (AR v2)
Track 7 accurately ripped (confidence 6) [A0EED183] (AR v2)
Track 8 accurately ripped (confidence 6) [50C924E6] (AR v2)

All tracks accurately ripped

End of status report

–– CUETools DB Plugin V2.1.3

[CTDB TOCID: G2JTAKCGCdUEZwpxv6J6sKScx_A-] found, Submit result: G2JTAKCGCdUEZwpxv6J6sKScx_A- has been confirmed
[1031307d] (9/9) Accurately ripped


==== Log checksum 2E2708D01F4D57BA4956AE8A293982777A9BDBC76670B3AFE610EEF260AB52DE ====

[CUETools log; Date: 13.07.2018 2:02:57; Version: 2.1.4]
[CTDB TOCID: G2JTAKCGCdUEZwpxv6J6sKScx_A-] found.
Track | CTDB Status
1 | (31/31) Accurately ripped
2 | (31/31) Accurately ripped
3 | (31/31) Accurately ripped
4 | (31/31) Accurately ripped
5 | (31/31) Accurately ripped
6 | (31/31) Accurately ripped
7 | (31/31) Accurately ripped
8 | (31/31) Accurately ripped
[AccurateRip ID: 000e0e7c-005a92ae-5d0a5508] found.
Track [ CRC | V2 ] Status
01 [cb49a3dc|8a707c70] (00+17/30) Accurately ripped
02 [c1766adb|c4c39a2b] (00+17/29) Accurately ripped
03 [60daacde|48712e5d] (00+17/30) Accurately ripped
04 [934cc27b|ff38bb60] (00+17/29) Accurately ripped
05 [6f15df14|4c609b22] (00+17/29) Accurately ripped
06 [4cdf99b5|8303f1ee] (00+17/29) Accurately ripped
07 [443d5191|a0eed183] (00+17/30) Accurately ripped
08 [ce65ba28|50c924e6] (00+17/29) Accurately ripped
Offsetted by 664:
01 [5d984c51] (05/30) Accurately ripped
02 [242f5dfe] (04/29) Accurately ripped
03 [835dbbee] (05/30) Accurately ripped
04 [a39bcb9b] (04/29) Accurately ripped
05 [71bdbee4] (04/29) Accurately ripped
06 [a517eb8c] (04/29) Accurately ripped
07 [56be821a] (05/30) Accurately ripped
08 [a6e882d8] (04/29) Accurately ripped

Track Peak [ CRC32 ] [W/O NULL] [ LOG ]
– 97,7 [2FBED54A] [092C6173] CRC32
01 97,7 [A5E2ED92] [99279D14]
02 97,7 [31297711] [11622AC8]
03 97,7 [62EB3ED3] [E12A4F5B]
04 97,7 [FFBCAE4B] [AD04850C]
05 97,7 [3C8E3085] [B402F855]
06 47,0 [740C7672] [E829F074]
07 97,7 [A8CAE80E] [2C6609D6]
08 97,7 [FF225988] [D450879F]

foobar2000 1.2 / Dynamic Range Meter 1.1.1
log date: 2018-07-13 01:43:38

––––––––––––––––––––––––––––––––––––––––
Analyzed: Billy Cobham / Total Eclipse
––––––––––––––––––––––––––––––––––––––––

DR Peak RMS Duration Track
––––––––––––––––––––––––––––––––––––––––
DR12 -0.20 dB -16.14 dB 11:10 01-Solarisation: a) Solarisation b) Second Phase c) Crescent Sun d) Voyage e) Solarization-Recapitulation
DR13 -0.20 dB -15.96 dB 2:32 02-Lunarputians
DR12 -0.20 dB -14.64 dB 5:57 03-Total Eclipse
DR14 -0.20 dB -16.64 dB 2:31 04-Bandits
DR11 -0.20 dB -12.48 dB 4:54 05-Moon Germs
DR13 -6.55 dB -23.57 dB 0:58 06-The Moon Ain't Made Of Green Cheese
DR10 -0.20 dB -13.73 dB 10:48 07-Sea Of Tranquillity
DR15 -0.20 dB -20.32 dB 5:15 08-Last Frontier
––––––––––––––––––––––––––––––––––––––––

Number of tracks: 8
Official DR value: DR12

Samplerate: 44100 Hz
Channels: 2
Bits per sample: 16
Bitrate: 821 kbps
Codec: FLAC
================================================================================

Billy Cobham - Total Eclipse (1974) [Reissue 2005]

Billy Cobham - Total Eclipse (1974) [Reissue 2005]