Subcategories

Billy Eckstine - Prisoner of Love: The Romantic Billy Eckstine (2006)

Posted By: Designol
Billy Eckstine - Prisoner of Love: The Romantic Billy Eckstine (2006)

Billy Eckstine - Prisoner of Love: The Romantic Billy Eckstine (2006)
EAC | FLAC | Image (Cue&Log) ~ 153 Mb | Mp3 (CBR320) ~ 116 Mb | Scans included | 00:44:11
Vocal Jazz, Big Band, Vocal Pop, Standarts | Label: Savoy Jazz | # SVY 17607

This 15-track set puts together some amazing performances by Billy Eckstine's band from the early '40s when he was leading one of the more intense, smoking bands on the scene. Some of his players during these years included Fats Navarro, Charlie Parker, Dizzy Gillespie, Miles Davis, Dexter Gordon, and Kenny Dorham, just to name a few. The Eckstine band was sophisticated, jumping, and they swung like mad no matter the tune. Here, of course, the emphasis is on Eckstine's vocals, his smooth as silk baritone that could sing a ballad like Duke Ellington's "Sophisticated Lady," or a deep swinging blues by Doc Pomus ("She Got the Blues for Sale"). There's scat, solid jazz balladry, and jumping, tough-hitting blues here. Highly recommended.

Review by Thom Jurek, Allmusic.com

Billy Eckstine - Prisoner of Love: The Romantic Billy Eckstine (2006)



Tracklist:

01. I Love The Rhythm In A Riff (2:52)
02. Sophisticated Lady (2:55)
03. She's Got The Blues For Sale (3:01)
04. Jelly, Jelly (3:19)
05. Lonesome Lover Blues (2:48)
06. Tell Me Pretty Baby (2:57)
07. Without A Song (2:53)
08. Cool Breeze (2:55)
09. Serenade In Blue (2:53)
10. Oop-Bop-Sh'bam (3:04)
11. In The Still Of The Night (2:55)
12. In My Solitude (2:53)
13. It Ain't Like That (2:54)
14. Prisoner Of Love (2:56)
15. Second Balcony Jump (2:56)


Exact Audio Copy V1.3 from 2. September 2016

Отчёт EAC об извлечении, выполненном 12. марта 2018, 15:14

Billy Eckstine / Prisoner of Love

Дисковод: hp DVDRAM GT80N Adapter: 1 ID: 0

Режим чтения : Достоверность
Использование точного потока : Да
Отключение кэша аудио : Да
Использование указателей C2 : Нет

Коррекция смещения при чтении : 102
Способность читать области Lead-in и Lead-out : Нет
Заполнение пропущенных сэмплов тишиной : Да
Удаление блоков с тишиной в начале и конце : Нет
При вычислениях CRC использовались нулевые сэмплы : Да
Интерфейс : Встроенный Win32-интерфейс для Win NT/2000

Выходной формат : Пользовательский кодировщик
Выбранный битрейт : 128 kBit/s
Качество : Высокий
Добавление ID3-тега : Нет
Утилита сжатия : C:\Program Files (x86)\Exact Audio Copy\Flac\flac.exe
Дополнительные параметры : -V -8 -T "Date=%year%" -T "Genre=%genre%" %source%


TOC извлечённого CD

Трек | Старт | Длительность | Начальный сектор | Конечный сектор
––––––––––––––––––––––––––––––––––-
1 | 0:00.00 | 2:51.60 | 0 | 12884
2 | 2:51.60 | 2:54.42 | 12885 | 25976
3 | 5:46.27 | 3:01.35 | 25977 | 39586
4 | 8:47.62 | 3:19.18 | 39587 | 54529
5 | 12:07.05 | 2:48.07 | 54530 | 67136
6 | 14:55.12 | 2:57.08 | 67137 | 80419
7 | 17:52.20 | 2:53.32 | 80420 | 93426
8 | 20:45.52 | 2:54.53 | 93427 | 106529
9 | 23:40.30 | 2:52.72 | 106530 | 119501
10 | 26:33.27 | 3:04.28 | 119502 | 133329
11 | 29:37.55 | 2:54.50 | 133330 | 146429
12 | 32:32.30 | 2:53.25 | 146430 | 159429
13 | 35:25.55 | 2:53.47 | 159430 | 172451
14 | 38:19.27 | 2:55.60 | 172452 | 185636
15 | 41:15.12 | 2:56.15 | 185637 | 198851


Характеристики диапазона извлечения и сообщения об ошибках

Выбранный диапазон

Имя файла D:\Music\Billy Eckstine - Prisoner of Love.wav

Пиковый уровень 100.0 %
Скорость извлечения 3.9 X
Качество диапазона 99.9 %
CRC теста 6685C469
CRC копии 6685C469
Копирование… OK

Ошибок не произошло


AccurateRip: сводка

Трек 1 точность не определена (достоверность 1) [0CF57761], AccurateRip вернул [E9FCA77B] (AR v2)
Трек 2 точность не определена (достоверность 1) [802D6701], AccurateRip вернул [7FF53210] (AR v2)
Трек 3 точность не определена (достоверность 1) [21359DC4], AccurateRip вернул [6DFB6CDC] (AR v2)
Трек 4 точность не определена (достоверность 1) [32DCBEB9], AccurateRip вернул [4AB71ABC] (AR v2)
Трек 5 точность не определена (достоверность 1) [312AADAC], AccurateRip вернул [B75E1B26] (AR v2)
Трек 6 точность не определена (достоверность 1) [3AAB4258], AccurateRip вернул [F84F2275] (AR v2)
Трек 7 точность не определена (достоверность 1) [7A401095], AccurateRip вернул [B2DDA49E] (AR v2)
Трек 8 точность не определена (достоверность 1) [4E700F74], AccurateRip вернул [E081997B] (AR v2)
Трек 9 точность не определена (достоверность 1) [95237CB0], AccurateRip вернул [2F9F771C] (AR v2)
Трек 10 точность не определена (достоверность 1) [10E3E16F], AccurateRip вернул [17F579D6] (AR v2)
Трек 11 точность не определена (достоверность 1) [E8D43D14], AccurateRip вернул [48713E5C] (AR v2)
Трек 12 точность не определена (достоверность 1) [6876AA05], AccurateRip вернул [B7DE52EB] (AR v2)
Трек 13 точность не определена (достоверность 1) [1DCE403A], AccurateRip вернул [5D58B776] (AR v2)
Трек 14 точность не определена (достоверность 1) [6FB9A846], AccurateRip вернул [A98FDD42] (AR v2)
Трек 15 точность не определена (достоверность 1) [0017227E], AccurateRip вернул [98D119E2] (AR v2)

Ни один трек не прошёл проверки на точность
В вашей базе может быть иной вариант штамповки диска

Конец отчёта

==== Контрольная сумма отчёта 04B24B1C75626A78AFE0D67D2B620EC567886ECF07429F4F4193D68ABF2C357B ====

[CUETools log; Date: 15.04.2018 2:00:55; Version: 2.1.4]
[CTDB TOCID: gjropF08.V5SZPOFBtyVbTkt8nQ-] found.
Track | CTDB Status
1 | (3/3) Accurately ripped
2 | (3/3) Accurately ripped
3 | (3/3) Accurately ripped
4 | (3/3) Accurately ripped
5 | (3/3) Accurately ripped
6 | (3/3) Accurately ripped
7 | (3/3) Accurately ripped
8 | (3/3) Accurately ripped
9 | (3/3) Accurately ripped
10 | (3/3) Accurately ripped
11 | (3/3) Accurately ripped
12 | (3/3) Accurately ripped
13 | (3/3) Accurately ripped
14 | (3/3) Accurately ripped
15 | (3/3) Accurately ripped
[AccurateRip ID: 00185ade-0113db63-de0a5b0f] found.
Track [ CRC | V2 ] Status
01 [b4a8306b|0cf57761] (0+0/2) No match
02 [5898ace8|802d6701] (0+0/2) No match
03 [f283b1f6|21359dc4] (0+0/2) No match
04 [9daab7de|32dcbeb9] (0+0/2) No match
05 [2de4b87a|312aadac] (0+0/2) No match
06 [d501c16b|3aab4258] (0+0/2) No match
07 [b74b1d18|7a401095] (0+0/2) No match
08 [42676f21|4e700f74] (0+0/2) No match
09 [73aa56bc|95237cb0] (0+0/2) No match
10 [8553867e|10e3e16f] (0+0/2) No match
11 [4e537aa4|e8d43d14] (0+0/2) No match
12 [76cdd47b|6876aa05] (0+0/2) No match
13 [d7f791b0|1dce403a] (0+0/2) No match
14 [ccce8806|6fb9a846] (0+0/2) No match
15 [3919c86a|0017227e] (0+0/2) No match
Offsetted by 674:
01 [e9fca77b] (1/2) Accurately ripped
02 [7ff53210] (1/2) Accurately ripped
03 [6dfb6cdc] (1/2) Accurately ripped
04 [4ab71abc] (1/2) Accurately ripped
05 [b75e1b26] (1/2) Accurately ripped
06 [f84f2275] (1/2) Accurately ripped
07 [b2dda49e] (1/2) Accurately ripped
08 [e081997b] (1/2) Accurately ripped
09 [2f9f771c] (1/2) Accurately ripped
10 [17f579d6] (1/2) Accurately ripped
11 [48713e5c] (1/2) Accurately ripped
12 [b7de52eb] (1/2) Accurately ripped
13 [5d58b776] (1/2) Accurately ripped
14 [a98fdd42] (1/2) Accurately ripped
15 [98d119e2] (1/2) Accurately ripped

Track Peak [ CRC32 ] [W/O NULL] [ LOG ]
– 100,0 [6685C469] [A28F862E] CRC32
01 80,1 [393E31B1] [78D5CC2C]
02 88,6 [BF33F046] [81AE922B]
03 81,6 [B686004B] [7FEF068F]
04 100,0 [A334D632] [8D87F8A6]
05 75,3 [5AA16BFA] [C569B14D]
06 91,7 [8FE53CA0] [0F0C827A]
07 82,3 [CDA28542] [C7FD2F38]
08 94,0 [2CAB6A09] [3D3345E0]
09 85,0 [81BA9713] [6338858C]
10 86,2 [419BC1FD] [6A4E1014]
11 91,8 [027F4FBD] [39467E49]
12 81,4 [ACC0808E] [C8E78530]
13 88,8 [7788E010] [492BD2FC]
14 88,0 [5742B8DD] [28575629]
15 68,0 [806F2447] [C83EA981]

foobar2000 1.2 / Dynamic Range Meter 1.1.1
log date: 2018-04-15 02:55:17

––––––––––––––––––––––––––––––––––––––––
Analyzed: Billy Eckstine / Prisoner of Love
––––––––––––––––––––––––––––––––––––––––

DR Peak RMS Duration Track
––––––––––––––––––––––––––––––––––––––––
DR11 -1.92 dB -14.39 dB 2:52 01-I Love The Rhythm In A Riff
DR11 -1.05 dB -14.11 dB 2:55 02-Sophisticated Lady
DR13 -1.76 dB -15.93 dB 3:01 03-She's Got The Blues For Sale
DR13 0.00 dB -14.62 dB 3:19 04-Jelly, Jelly
DR11 -2.46 dB -14.88 dB 2:48 05-Lonesome Lover Blues
DR13 -0.75 dB -17.48 dB 2:57 06-Tell Me Pretty Baby
DR9 -1.68 dB -13.67 dB 2:53 07-Without A Song
DR12 -0.53 dB -14.77 dB 2:55 08-Cool Breeze
DR11 -1.41 dB -14.16 dB 2:53 09-Serenade In Blue
DR12 -1.29 dB -14.36 dB 3:04 10-Oop-Bop-Sh'bam
DR10 -0.73 dB -12.75 dB 2:55 11-In The Still Of The Night
DR11 -1.78 dB -14.79 dB 2:53 12-In My Solitude
DR11 -1.03 dB -14.82 dB 2:54 13-It Ain't Like That
DR12 -1.11 dB -14.85 dB 2:56 14-Prisoner Of Love
DR11 -3.34 dB -16.78 dB 2:56 15-Second Balcony Jump
––––––––––––––––––––––––––––––––––––––––

Number of tracks: 15
Official DR value: DR11

Samplerate: 44100 Hz
Channels: 2
Bits per sample: 16
Bitrate: 448 kbps
Codec: FLAC
================================================================================

Billy Eckstine - Prisoner of Love: The Romantic Billy Eckstine (2006)

Billy Eckstine - Prisoner of Love: The Romantic Billy Eckstine (2006)

All thanks to original releaser - nkomissar

More interesting music in My Blog