Tags
Language
Tags

Billy Joel - Greatest Hits, Volume III (1997) [Re-Up]

Posted By: Designol
Billy Joel - Greatest Hits, Volume III (1997) [Re-Up]

Billy Joel - Greatest Hits, Volume III (1997)
EAC | FLAC | Image (Cue&Log) ~ 489 Mb | Mp3 (CBR320) ~ 175 Mb
Label: Columbia | # CK 67347 | Time: 01:16:17 | Scans ~ 57 Mb
Soft Rock, Pop Rock, Adult Contemporary

The Greatest Hits Volume III album includes hits from 1983 to 1997. Three previously unreleased studio tracks are included, "To Make You Feel My Love", "Hey Girl", and "Light as the Breeze". All three tracks are covers songs (a rare occurrence in his catalogue), and although "To Make You Feel My Love" and "Hey Girl" were recorded to be singles for this album, Joel originally recorded the song "Light as the Breeze" for a Leonard Cohen tribute album, Tower of Song, released in 1995. Chronologically, Greatest Hits Volume III overlaps slightly with Volume II, as the first two tracks, "Keeping the Faith" and "An Innocent Man", first appeared on his album An Innocent Man.

Perhaps it was inevitable that Billy Joel's Greatest Hits, Vol. 3 would pale next to its double-disc predecessor. Greatest Hits, Vols. 1 & 2 covered nine albums (it ignored Cold Spring Harbor), a period during which Joel had 26 Top 100 hits. If it had picked up where the first collection left off, Vol. 3 would have covered three studio albums, which produced 11 hits. That alone would have made a respectable hits collection, and it would have made sense, since The Bridge marked the beginning of a new phase of Joel's career. Instead, the 17-song Vol. 3 begins with a pair of songs from An Innocent Man ("Keeping the Faith," "An Innocent Man") that sound entirely different from the material that follows, which finds Joel delving into mechanized, slickly produced adult contemporary pop. The remaining songs don't strictly adhere to his charting hits, substituting such album tracks as "Leningrad," "Shameless" and "Lullabye (Goodnight, My Angel)" for hits like "Modern Woman," "That's Not Her Style" and his non-LP cover of Elvis' "All Shook Up." Even with those missing hits, Greatest Hits, Vol. 3 does summarize Joel's latter career quite well, culling most of his best songs from the time. However, the album ends on a down note, as it adds three new songs, all covers, that are limply produced and colorlessly played. Bob Dylan's "To Make You Feel My Love" – which Joel decided to perform as if it was a slow, sanitized Blonde on Blonde outtake – is the best of the trio, but none of them qualify as Joel classics, and they are an inauspicious way to end this chapter of his career.

Review by Stephen Thomas Erlewine, Allmusic.com

Billy Joel at Allmusic
Billy Joel Website
Billy Joel at Wiki

Tracklist:

01. Keeping The Faith (4:39)
02. An Innocent Man (5:19)
03. A Matter Of Trust (4:12)
04. Baby Grand (4:06)
05. This Is The Time (5:01)
06. Leningrad (4:04)
07. We Didn't Start The Fire (4:49)
08. I Go To Extremes (4:24)
09. And So It Goes (3:38)
10. The Downeaster 'Alexa' (3:44)
11. Shameless (4:28)
12. All About Soul (6:01)
13. Lullabye (Goodnight, My Angel) (3:35)
14. The River Of Dreams (4:11)
15. To Make You Feel My Love (3:54)
16. Hey Girl (3:57)
17. Light As The Breeze (6:13)


Exact Audio Copy V1.3 from 2. September 2016

EAC extraction logfile from 17. December 2016, 23:28

Billy Joel / Greatest Hits Volume III (CK 67347)

Used drive : PLEXTOR DVDR PX-891SA Adapter: 1 ID: 0

Read mode : Secure
Utilize accurate stream : Yes
Defeat audio cache : Yes
Make use of C2 pointers : No

Read offset correction : 6
Overread into Lead-In and Lead-Out : No
Fill up missing offset samples with silence : Yes
Delete leading and trailing silent blocks : No
Null samples used in CRC calculations : Yes
Used interface : Native Win32 interface for Win NT & 2000

Used output format : User Defined Encoder
Selected bitrate : 128 kBit/s
Quality : High
Add ID3 tag : No
Command line compressor : C:\Program Files (x86)\Exact Audio Copy\Flac\flac.exe
Additional command line options : -V -8 -T "Genre=%genre%" -T "Artist=%artist%" -T "Title=%title%" -T "Album=%albumtitle%" -T "Date=%year%" -T "Tracknumber=%tracknr%" -T "Comment=%comment%" %source%


TOC of the extracted CD

Track | Start | Length | Start sector | End sector
––––––––––––––––––––––––––––-
1 | 0:00.00 | 4:38.70 | 0 | 20919
2 | 4:38.70 | 5:19.32 | 20920 | 44876
3 | 9:58.27 | 4:12.10 | 44877 | 63786
4 | 14:10.37 | 4:05.65 | 63787 | 82226
5 | 18:16.27 | 5:00.73 | 82227 | 104799
6 | 23:17.25 | 4:04.37 | 104800 | 123136
7 | 27:21.62 | 4:49.00 | 123137 | 144811
8 | 32:10.62 | 4:24.30 | 144812 | 164641
9 | 36:35.17 | 3:38.00 | 164642 | 180991
10 | 40:13.17 | 3:44.03 | 180992 | 197794
11 | 43:57.20 | 4:27.65 | 197795 | 217884
12 | 48:25.10 | 6:01.35 | 217885 | 244994
13 | 54:26.45 | 3:34.70 | 244995 | 261114
14 | 58:01.40 | 4:11.37 | 261115 | 279976
15 | 62:13.02 | 3:53.50 | 279977 | 297501
16 | 66:06.52 | 3:57.28 | 297502 | 315304
17 | 70:04.05 | 6:12.57 | 315305 | 343261


Range status and errors

Selected range

Filename H:\dafnaplus\Billy Joel - Greatest Hits Volume III\Billy Joel - Greatest Hits Volume III (CK 67347).wav

Peak level 99.8 %
Extraction speed 3.6 X
Range quality 100.0 %
Test CRC 6D422080
Copy CRC 6D422080
Copy OK

No errors occurred


AccurateRip summary

Track 1 accurately ripped (confidence 6) [111AFDE9] (AR v2)
Track 2 accurately ripped (confidence 6) [B226980F] (AR v2)
Track 3 accurately ripped (confidence 6) [F8274CE0] (AR v2)
Track 4 accurately ripped (confidence 6) [3173F5F6] (AR v2)
Track 5 accurately ripped (confidence 6) [771EC835] (AR v2)
Track 6 accurately ripped (confidence 6) [D39443AD] (AR v2)
Track 7 accurately ripped (confidence 6) [73049C0C] (AR v2)
Track 8 accurately ripped (confidence 6) [BB18B561] (AR v2)
Track 9 accurately ripped (confidence 6) [64102D39] (AR v2)
Track 10 accurately ripped (confidence 6) [FB9423FF] (AR v2)
Track 11 accurately ripped (confidence 6) [DA410758] (AR v2)
Track 12 accurately ripped (confidence 6) [DEABD163] (AR v2)
Track 13 accurately ripped (confidence 6) [D3C80C07] (AR v2)
Track 14 accurately ripped (confidence 6) [54D03949] (AR v2)
Track 15 accurately ripped (confidence 6) [649DC9BD] (AR v2)
Track 16 accurately ripped (confidence 6) [1FC5FAA0] (AR v2)
Track 17 accurately ripped (confidence 6) [D1D6688D] (AR v2)

All tracks accurately ripped

End of status report

–– CUETools DB Plugin V2.1.6

[CTDB TOCID: p1GrvUonnxL._iHIqRX7Cw6b8zA-] found
Submit result: p1GrvUonnxL._iHIqRX7Cw6b8zA- has been confirmed
Track | CTDB Status
1 | ( 80/191) Accurately ripped
2 | ( 80/191) Accurately ripped
3 | ( 80/191) Accurately ripped
4 | ( 80/191) Accurately ripped
5 | ( 79/191) Accurately ripped
6 | ( 80/191) Accurately ripped
7 | ( 79/191) Accurately ripped
8 | ( 79/191) Accurately ripped
9 | ( 79/191) Accurately ripped
10 | ( 79/191) Accurately ripped
11 | ( 77/191) Accurately ripped
12 | ( 79/191) Accurately ripped
13 | ( 80/191) Accurately ripped
14 | ( 77/191) Accurately ripped
15 | ( 78/191) Accurately ripped
16 | ( 77/191) Accurately ripped
17 | ( 76/191) Accurately ripped


==== Log checksum AE2F189D3C7234A5A04ADA960DEB0A09E9BC4DE2A9FFFDC9DB14292E49736F71 ====

[CUETools log; Date: 04.02.2020 19:42:40; Version: 2.1.4]
[CTDB TOCID: p1GrvUonnxL._iHIqRX7Cw6b8zA-] found.
Track | CTDB Status
1 | (202/448) Accurately ripped
2 | (203/448) Accurately ripped
3 | (203/448) Accurately ripped
4 | (203/448) Accurately ripped
5 | (202/448) Accurately ripped
6 | (202/448) Accurately ripped
7 | (202/448) Accurately ripped
8 | (202/448) Accurately ripped
9 | (202/448) Accurately ripped
10 | (202/448) Accurately ripped
11 | (196/448) Accurately ripped
12 | (198/448) Accurately ripped
13 | (201/448) Accurately ripped
14 | (199/448) Accurately ripped
15 | (200/448) Accurately ripped
16 | (198/448) Accurately ripped
17 | (195/448) Accurately ripped
[AccurateRip ID: 002f1e9e-0251c4b6-0911e011] found.
Track [ CRC | V2 ] Status
01 [2936ee12|111afde9] (004+009/363) Accurately ripped
02 [743070fb|b226980f] (003+009/361) Accurately ripped
03 [e0d9cc38|f8274ce0] (004+009/362) Accurately ripped
04 [58ef54e0|3173f5f6] (004+009/359) Accurately ripped
05 [c8a3943a|771ec835] (004+008/357) Accurately ripped
06 [8b8a6613|d39443ad] (004+009/358) Accurately ripped
07 [e11c48e0|73049c0c] (004+009/357) Accurately ripped
08 [40a0abc7|bb18b561] (004+009/356) Accurately ripped
09 [6ec75cab|64102d39] (004+009/355) Accurately ripped
10 [4a06d1a3|fb9423ff] (004+009/347) Accurately ripped
11 [58656915|da410758] (004+009/351) Accurately ripped
12 [8bd161c7|deabd163] (003+009/357) Accurately ripped
13 [4a288066|d3c80c07] (004+009/357) Accurately ripped
14 [167c1bcf|54d03949] (003+009/355) Accurately ripped
15 [4a7d40e1|649dc9bd] (002+009/355) Accurately ripped
16 [23c43526|1fc5faa0] (002+009/352) Accurately ripped
17 [716f3999|d1d6688d] (003+009/333) Accurately ripped
Offsetted by -755:
01 [bf68f9b0] (003/363) Accurately ripped
02 [76db9455] (003/361) Accurately ripped
03 [b61adc95] (002/362) Accurately ripped
04 [58ff805a] (002/359) Accurately ripped
05 [73083c71] (002/357) Accurately ripped
06 [d9c9aadd] (003/358) Accurately ripped
07 [43906fad] (003/357) Accurately ripped
08 [90542629] (002/356) Accurately ripped
09 [561678f2] (002/355) Accurately ripped
10 [1670b893] (002/347) Accurately ripped
11 [a104feec] (002/351) Accurately ripped
12 [11a8880c] (002/357) Accurately ripped
13 [ee530575] (002/357) Accurately ripped
14 [c6788047] (003/355) Accurately ripped
15 [f85f8e97] (002/355) Accurately ripped
16 [bf577d61] (002/352) Accurately ripped
17 [75918ecc] (002/333) Accurately ripped
Offsetted by -614:
01 [0482f8f4] (004/363) Accurately ripped
02 [ccfb67ce] (004/361) Accurately ripped
03 [02e128d2] (004/362) Accurately ripped
04 [d8fa836a] (004/359) Accurately ripped
05 [67baa233] (004/357) Accurately ripped
06 [cff55b99] (004/358) Accurately ripped
07 [2fe00eaf] (003/357) Accurately ripped
08 [1294ddde] (004/356) Accurately ripped
09 [e0e9d86d] (004/355) Accurately ripped
10 [c38dcbf5] (004/347) Accurately ripped
11 [aa1cab90] (004/351) Accurately ripped
12 [a19ab705] (004/357) Accurately ripped
13 [7e87e3db] (004/357) Accurately ripped
14 [4863fe65] (003/355) Accurately ripped
15 [aa6464bb] (004/355) Accurately ripped
16 [5f671ee6] (004/352) Accurately ripped
17 [1dd7cb5b] (003/333) Accurately ripped
Offsetted by -548:
01 [22f58e6b] (003/363) Accurately ripped
02 [65448419] (003/361) Accurately ripped
03 [d8c9a247] (003/362) Accurately ripped
04 [ed8bc460] (003/359) Accurately ripped
05 [41457449] (003/357) Accurately ripped
06 [c00d913b] (003/358) Accurately ripped
07 [de219c0b] (003/357) Accurately ripped
08 [e788bbfa] (003/356) Accurately ripped
09 [e7865b2f] (003/355) Accurately ripped
10 [2eb4bf68] (003/347) Accurately ripped
11 [b054b705] (003/351) Accurately ripped
12 [65352720] (003/357) Accurately ripped
13 [09f42c0a] (003/357) Accurately ripped
14 [034b6484] (003/355) Accurately ripped
15 [4bf2fc15] (003/355) Accurately ripped
16 [c4ca5ce0] (003/352) Accurately ripped
17 [4d3efee7] (003/333) Accurately ripped
Offsetted by -289:
01 [46854739] (022/363) Accurately ripped
02 [11ab589f] (021/361) Accurately ripped
03 [b7370c62] (022/362) Accurately ripped
04 [e9e842b7] (022/359) Accurately ripped
05 [7909ae6c] (020/357) Accurately ripped
06 [5617b5b1] (022/358) Accurately ripped
07 [a20dc7d5] (021/357) Accurately ripped
08 [7f3e2e33] (020/356) Accurately ripped
09 [87bdb0c3] (022/355) Accurately ripped
10 [2991b214] (021/347) Accurately ripped
11 [6b4bcef5] (022/351) Accurately ripped
12 [383c0699] (021/357) Accurately ripped
13 [4b418be2] (022/357) Accurately ripped
14 [ccc56821] (021/355) Accurately ripped
15 [47668ba3] (021/355) Accurately ripped
16 [398ac734] (022/352) Accurately ripped
17 [1f8d10e6] (021/333) Accurately ripped
Offsetted by -139:
01 [6aca34c0] (007/363) Accurately ripped
02 [6ea2e968] (007/361) Accurately ripped
03 [03b5bc80] (007/362) Accurately ripped
04 [245cfdf0] (007/359) Accurately ripped
05 [1b7a3d58] (007/357) Accurately ripped
06 [a9ecd272] (007/358) Accurately ripped
07 [c28c838a] (007/357) Accurately ripped
08 [7f0f1d0f] (006/356) Accurately ripped
09 [76ce9fad] (007/355) Accurately ripped
10 [e8c6b2a3] (007/347) Accurately ripped
11 [fe8591cb] (007/351) Accurately ripped
12 [bed29226] (007/357) Accurately ripped
13 [9d19839c] (007/357) Accurately ripped
14 [24768621] (007/355) Accurately ripped
15 [70bf62d8] (007/355) Accurately ripped
16 [856858df] (007/352) Accurately ripped
17 [2e94bf98] (005/333) Accurately ripped
Offsetted by -123:
01 [b0addece] (015/363) Accurately ripped
02 [cbb44d4f] (016/361) Accurately ripped
03 [875888e6] (016/362) Accurately ripped
04 [f63d1cdd] (015/359) Accurately ripped
05 [471bb165] (015/357) Accurately ripped
06 [684cf0d4] (015/358) Accurately ripped
07 [ce236552] (016/357) Accurately ripped
08 [85a16bb3] (016/356) Accurately ripped
09 [a686fe9e] (015/355) Accurately ripped
10 [26e13d8d] (014/347) Accurately ripped
11 [2be3040f] (015/351) Accurately ripped
12 [04afcae4] (015/357) Accurately ripped
13 [3661cb75] (015/357) Accurately ripped
14 [b89d9c62] (016/355) Accurately ripped
15 [2fd5d340] (015/355) Accurately ripped
16 [48c2378b] (015/352) Accurately ripped
17 [e080a7c7] (014/333) Accurately ripped
Offsetted by -1419:
01 [403a59b8] (000/363) No match (V2 was not tested)
02 [a5a84f2d] (000/361) No match (V2 was not tested)
03 [49414704] (000/362) No match (V2 was not tested)
04 [9de0eb6d] (000/359) No match (V2 was not tested)
05 [0bbfda63] (000/357) No match (V2 was not tested)
06 [b0401293] (000/358) No match (V2 was not tested)
07 [5b175f6e] (000/357) No match (V2 was not tested)
08 [0262412c] (000/356) No match (V2 was not tested)
09 [6225a496] (000/355) No match (V2 was not tested)
10 [b864d3a4] (000/347) No match (V2 was not tested)
11 [8e2ef058] (000/351) No match (V2 was not tested)
12 [3e235a61] (000/357) No match (V2 was not tested)
13 [d6748d63] (000/357) No match (V2 was not tested)
14 [8b06638a] (000/355) No match (V2 was not tested)
15 [5eed955c] (000/355) No match (V2 was not tested)
16 [82d38a5a] (000/352) No match (V2 was not tested)
17 [0a3d4197] (000/333) No match (V2 was not tested)
Offsetted by -1050:
01 [1ade06a3] (002/363) Accurately ripped
02 [4b79dfce] (002/361) Accurately ripped
03 [ef4757c4] (002/362) Accurately ripped
04 [1d910221] (002/359) Accurately ripped
05 [9a2c60dd] (002/357) Accurately ripped
06 [4329f7a2] (002/358) Accurately ripped
07 [8c1f3540] (002/357) Accurately ripped
08 [6fc10483] (002/356) Accurately ripped
09 [585fae62] (002/355) Accurately ripped
10 [fa99d915] (002/347) Accurately ripped
11 [fd304e4c] (000/351) No match (V2 was not tested)
12 [fe57d7ce] (002/357) Accurately ripped
13 [fc70b7c8] (002/357) Accurately ripped
14 [8eda93af] (002/355) Accurately ripped
15 [80054323] (002/355) Accurately ripped
16 [04632692] (002/352) Accurately ripped
17 [f08869fc] (002/333) Accurately ripped
Offsetted by -503:
01 [7c61b610] (000/363) No match (V2 was not tested)
02 [b402ba39] (000/361) No match (V2 was not tested)
03 [0c827981] (000/362) No match (V2 was not tested)
04 [f7a2d726] (000/359) No match (V2 was not tested)
05 [50b3037a] (000/357) No match (V2 was not tested)
06 [1ae9f150] (000/358) No match (V2 was not tested)
07 [b2c36a19] (000/357) No match (V2 was not tested)
08 [6c54309d] (000/356) No match (V2 was not tested)
09 [c78d8cf3] (000/355) No match (V2 was not tested)
10 [911c6379] (000/347) No match (V2 was not tested)
11 [fbac6158] (000/351) No match (V2 was not tested)
12 [b0dab6ba] (000/357) No match (V2 was not tested)
13 [27a9770c] (000/357) No match (V2 was not tested)
14 [a3d09a3a] (000/355) No match (V2 was not tested)
15 [53e3cd1b] (000/355) No match (V2 was not tested)
16 [38a7d65e] (000/352) No match (V2 was not tested)
17 [2d9ef93a] (000/333) No match (V2 was not tested)
Offsetted by -367:
01 [e19562a7] (002/363) Accurately ripped
02 [df2ca401] (002/361) Accurately ripped
03 [e9aaf93a] (002/362) Accurately ripped
04 [aa96578f] (002/359) Accurately ripped
05 [a92ba8c3] (002/357) Accurately ripped
06 [1ceb104a] (002/358) Accurately ripped
07 [666639de] (002/357) Accurately ripped
08 [dcb24a8e] (002/356) Accurately ripped
09 [acc0c013] (002/355) Accurately ripped
10 [841ba02e] (002/347) Accurately ripped
11 [eb1a3318] (002/351) Accurately ripped
12 [7685c483] (002/357) Accurately ripped
13 [814b59f5] (002/357) Accurately ripped
14 [09e815f4] (002/355) Accurately ripped
15 [8c0fe15c] (002/355) Accurately ripped
16 [0281a4d1] (002/352) Accurately ripped
17 [a5b9b269] (000/333) No match (V2 was not tested)
Offsetted by -117:
01 [6897dea4] (000/363) No match (V2 was not tested)
02 [d8eaabc4] (000/361) No match (V2 was not tested)
03 [2d77ab0f] (000/362) No match (V2 was not tested)
04 [e0adabd9] (000/359) No match (V2 was not tested)
05 [b9bf009e] (000/357) No match (V2 was not tested)
06 [7f435f21] (000/358) No match (V2 was not tested)
07 [574a304f] (000/357) No match (V2 was not tested)
08 [b8b7ee6c] (000/356) No match (V2 was not tested)
09 [22abdde9] (000/355) No match (V2 was not tested)
10 [be3a5195] (000/347) No match (V2 was not tested)
11 [ce714762] (000/351) No match (V2 was not tested)
12 [81b294eb] (000/357) No match (V2 was not tested)
13 [706d6ac1] (000/357) No match (V2 was not tested)
14 [42f614ac] (000/355) No match (V2 was not tested)
15 [78c03770] (000/355) No match (V2 was not tested)
16 [ee3bc27a] (000/352) No match (V2 was not tested)
17 [1ddfc3a4] (000/333) No match (V2 was not tested)

Track Peak [ CRC32 ] [W/O NULL] [ LOG ]
– 99,8 [6D422080] [F50D3F84] CRC32
01 99,8 [4B7A1CE0] [A3DA9065]
02 99,8 [9EEE9F4B] [A73FDA2D]
03 99,8 [1F8BDFEE] [202D68C4]
04 99,8 [1E92643A] [C8D82A72]
05 99,8 [A31100D4] [176202BC]
06 99,8 [44ABFE77] [56A3FD89]
07 99,8 [110B9437] [FA509ACC]
08 99,8 [8FD1DB6B] [B67F3FB2]
09 99,8 [162A7B17] [DA1000D7]
10 99,8 [9A979D12] [033B57EA]
11 99,8 [4B932CD4] [9CDB1040]
12 99,8 [3A3D0186] [3EC1BD39]
13 99,8 [C17B1B3C] [7828989A]
14 99,8 [F9860D14] [F14EF826]
15 99,8 [FE007113] [D384650A]
16 99,8 [E6CFDA14] [053AE114]
17 99,8 [5F39E462] [0D0D910A]

foobar2000 1.3.16 / Dynamic Range Meter 1.1.1
log date: 2019-06-03 11:49:24

––––––––––––––––––––––––––––––––––––––––
Analyzed: Billy Joel / Greatest Hits Volume III (CK 67347)
––––––––––––––––––––––––––––––––––––––––

DR Peak RMS Duration Track
––––––––––––––––––––––––––––––––––––––––
DR9 -0.01 dB -11.33 dB 4:39 01-Keeping The Faith
DR9 -0.01 dB -12.39 dB 5:19 02-An Innocent Man
DR9 -0.01 dB -9.87 dB 4:12 03-A Matter Of Trust
DR11 -0.01 dB -13.21 dB 4:06 04-Baby Grand
DR9 -0.01 dB -11.36 dB 5:01 05-This Is The Time
DR9 -0.01 dB -11.47 dB 4:04 06-Leningrad
DR7 -0.01 dB -9.70 dB 4:49 07-We Didn't Start The Fire
DR8 -0.01 dB -9.51 dB 4:24 08-I Go To Extremes
DR14 -0.01 dB -16.49 dB 3:38 09-And So It Goes
DR8 -0.01 dB -9.90 dB 3:44 10-The Downeaster 'Alexa'
DR8 -0.01 dB -10.37 dB 4:28 11-Shameless
DR7 -0.01 dB -8.86 dB 6:01 12-All About Soul
DR12 -0.01 dB -15.81 dB 3:35 13-Lullabye (Goodnight, My Angel)
DR8 -0.01 dB -10.62 dB 4:11 14-The River Of Dreams
DR9 -0.01 dB -12.25 dB 3:54 15-To Make You Feel My Love
DR8 -0.01 dB -10.15 dB 3:57 16-Hey Girl
DR8 -0.01 dB -11.49 dB 6:13 17-Light As The Breeze
––––––––––––––––––––––––––––––––––––––––

Number of tracks: 17
Official DR value: DR9

Samplerate: 44100 Hz
Channels: 2
Bits per sample: 16
Bitrate: 895 kbps
Codec: FLAC
================================================================================

Billy Joel - Greatest Hits, Volume III (1997) [Re-Up]

Billy Joel - Greatest Hits, Volume III (1997) [Re-Up]