Tags
Language
Tags
March 2024
Su Mo Tu We Th Fr Sa
25 26 27 28 29 1 2
3 4 5 6 7 8 9
10 11 12 13 14 15 16
17 18 19 20 21 22 23
24 25 26 27 28 29 30
31 1 2 3 4 5 6
Attention❗ To save your time, in order to download anything on this site, you must be registered 👉 HERE. If you do not have a registration yet, it is better to do it right away. ✌

( • )( • ) ( ͡⚆ ͜ʖ ͡⚆ ) (‿ˠ‿)
SpicyMags.xyz

Billy Joel: Japanese Mini LP Collection (1973-1983) [9CD, Remastered]

Posted By: v3122
Billy Joel: Japanese Mini LP Collection (1973-1983) [9CD, Remastered]

Billy Joel: Japanese Mini LP Collection (1973-1983)
EAC | Flac(Image) + Cue + Log & MP3 CBR 320Kbps
9CD | Sony Music Japan | ~ 2448 or 979 Mb | Artwork(jpg) -> 41 Mb
Pop-Rock & Soft Rock

Billy Joel was born on May 9, 1949 in the Bronx and shortly after moved to the Levittown section of Hicksville, Long Island, New York where he started playing piano at the age of 4. In 1964, inspired by the Beatles, he formed his first band "The Echoes", which became "The Lost Souls" in 1965 and then "The Emerald Lords" in 1966. In 1967 he joined "The Hassles" and recorded two albums, which were not successful. Billy Joel and Jon Small, the drummer of The Hassles then formed the psychedelic duo "Attila" and released one album without success. In 1971 Billy Joel started his solo career with the album "Cold Spring Harbour" and finally achieved fame in 1973 with his song "Piano Man".

Inducted into Songwriters Hall of Fame in 1992.
Inducted into Rock And Roll Hall of Fame in 1999 (Performer)

~ discogs
Billy Joel: Japanese Mini LP Collection (1973-1983) [9CD, Remastered]

Billy Joel: Japanese Mini LP Collection (1973-1983):

Billy Joel: Japanese Mini LP Collection (1973-1983) [9CD, Remastered]

Tracklist CD01. 1973 - Piano Man (MHCP-460):

1. Travellin' Prayer (4:16)
2. Piano Man (5:39)
3. Ain't No Crime (3:19)
4. You're My Home (3:13)
5. The Ballad Of Billy The Kid (5:43)
6. Worse Comes To Worst (3:15)
7. Stop In Nevada (3:55)
8. If I Only Had The Words (To Tell You) (3:34)
9. Somewhere Along The Line (3:20)
10. Captain Jack (7:20)

Exact Audio Copy V0.99 prebeta 3 from 28. July 2007

EAC extraction logfile from 5. May 2008, 13:03

Billy Joel / Piano Man (Japan MiniLP CD MHCP-460)

Used drive : PIONEER DVD-RW DVR-108 Adapter: 0 ID: 0

Read mode : Secure
Utilize accurate stream : Yes
Defeat audio cache : Yes
Make use of C2 pointers : No

Read offset correction : 48
Overread into Lead-In and Lead-Out : No
Fill up missing offset samples with silence : Yes
Delete leading and trailing silent blocks : No
Null samples used in CRC calculations : Yes
Used interface : Native Win32 interface for Win NT & 2000
Gap handling : Appended to previous track

Used output format : Internal WAV Routines
Sample format : 44.100 Hz; 16 Bit; Stereo


TOC of the extracted CD

Track | Start | Length | Start sector | End sector
––––––––––––––––––––––––––––-
1 | 0:00.00 | 4:16.20 | 0 | 19219
2 | 4:16.20 | 5:38.57 | 19220 | 44626
3 | 9:55.02 | 3:19.00 | 44627 | 59551
4 | 13:14.02 | 3:13.30 | 59552 | 74056
5 | 16:27.32 | 5:42.40 | 74057 | 99746
6 | 22:09.72 | 3:15.35 | 99747 | 114406
7 | 25:25.32 | 3:55.23 | 114407 | 132054
8 | 29:20.55 | 3:34.17 | 132055 | 148121
9 | 32:54.72 | 3:20.03 | 148122 | 163124
10 | 36:15.00 | 7:20.10 | 163125 | 196134


Track 1

Filename C:\Lossless\Billy Joel - Piano Man (Japan MiniLP CD MHCP-460)\01 - Travelin' Prayer.wav

Pre-gap length 0:00:02.00

Peak level 95.5 %
Track quality 100.0 %
Test CRC 2C6FC164
Copy CRC 2C6FC164
Track not present in AccurateRip database
Copy OK

Track 2

Filename C:\Lossless\Billy Joel - Piano Man (Japan MiniLP CD MHCP-460)\02 - Piano Man.wav

Pre-gap length 0:00:01.57

Peak level 95.2 %
Track quality 100.0 %
Test CRC 72FC312D
Copy CRC 72FC312D
Track not present in AccurateRip database
Copy OK

Track 3

Filename C:\Lossless\Billy Joel - Piano Man (Japan MiniLP CD MHCP-460)\03 - Ain't No Crime.wav

Peak level 95.3 %
Track quality 100.0 %
Test CRC F9C1BA4B
Copy CRC F9C1BA4B
Track not present in AccurateRip database
Copy OK

Track 4

Filename C:\Lossless\Billy Joel - Piano Man (Japan MiniLP CD MHCP-460)\04 - You're My Home.wav

Pre-gap length 0:00:01.33

Peak level 96.0 %
Track quality 100.0 %
Test CRC 7AE8C916
Copy CRC 7AE8C916
Track not present in AccurateRip database
Copy OK

Track 5

Filename C:\Lossless\Billy Joel - Piano Man (Japan MiniLP CD MHCP-460)\05 - The Ballad Of Billy The Kid.wav

Peak level 96.3 %
Track quality 100.0 %
Test CRC 876DA60B
Copy CRC 876DA60B
Track not present in AccurateRip database
Copy OK

Track 6

Filename C:\Lossless\Billy Joel - Piano Man (Japan MiniLP CD MHCP-460)\06 - Worse Comes To Worst.wav

Peak level 96.3 %
Track quality 100.0 %
Test CRC 01F3826E
Copy CRC 01F3826E
Track not present in AccurateRip database
Copy OK

Track 7

Filename C:\Lossless\Billy Joel - Piano Man (Japan MiniLP CD MHCP-460)\07 - Stop In Nevada.wav

Pre-gap length 0:00:01.13

Peak level 96.3 %
Track quality 100.0 %
Test CRC 8FA081E9
Copy CRC 8FA081E9
Track not present in AccurateRip database
Copy OK

Track 8

Filename C:\Lossless\Billy Joel - Piano Man (Japan MiniLP CD MHCP-460)\08 - If I Only Had The Words (To Tell You).wav

Pre-gap length 0:00:01.24

Peak level 96.2 %
Track quality 100.0 %
Test CRC D3A1EDF8
Copy CRC D3A1EDF8
Track not present in AccurateRip database
Copy OK

Track 9

Filename C:\Lossless\Billy Joel - Piano Man (Japan MiniLP CD MHCP-460)\09 - Somewhere Along The Line.wav

Pre-gap length 0:00:01.13

Peak level 96.0 %
Track quality 100.0 %
Test CRC 1FE32BC3
Copy CRC 1FE32BC3
Track not present in AccurateRip database
Copy OK

Track 10

Filename C:\Lossless\Billy Joel - Piano Man (Japan MiniLP CD MHCP-460)\10 - Captain Jack.wav

Peak level 96.1 %
Track quality 100.0 %
Test CRC BEEBF340
Copy CRC BEEBF340
Track not present in AccurateRip database
Copy OK


None of the tracks are present in the AccurateRip database

No errors occurred

End of status report


[CUETools log; Date: 03.11.2020 11:50:56; Version: 2.1.4]
[AccurateRip ID: 001009a7-007f8a13-a50a370a] found.
Track [ CRC | V2 ] Status
01 [b482e59a|779d0f69] (03+03/22) Accurately ripped
02 [7b7b33b4|b5bdaa25] (03+03/22) Accurately ripped
03 [96422059|8d77d561] (03+03/22) Accurately ripped
04 [12a59ac4|c8c745d4] (03+03/22) Accurately ripped
05 [d682234b|7f5cb475] (03+03/22) Accurately ripped
06 [09b5dcb3|4092c041] (03+03/22) Accurately ripped
07 [7790f57f|d57eb931] (03+03/22) Accurately ripped
08 [da0094b3|789d4bbe] (03+03/22) Accurately ripped
09 [9588c6f6|6c60ba0d] (03+03/22) Accurately ripped
10 [4e843387|8566209d] (03+03/22) Accurately ripped

Track Peak [ CRC32 ] [W/O NULL] [ LOG ]
– 96,3 [93D06B56] [8C38C494]
01 95,5 [2C6FC164] [D515750B] CRC32
02 95,2 [72FC312D] [C9A95731] CRC32
03 95,3 [F9C1BA4B] [18E12812] CRC32
04 96,0 [7AE8C916] [4167E0EF] CRC32
05 96,3 [876DA60B] [656C82EF] CRC32
06 96,3 [01F3826E] [58C191E8] CRC32
07 96,3 [8FA081E9] [12ACD360] CRC32
08 96,2 [D3A1EDF8] [602964C5] CRC32
09 96,0 [1FE32BC3] [150B3694] CRC32
10 96,1 [BEEBF340] [B233EC80] CRC32


Billy Joel: Japanese Mini LP Collection (1973-1983) [9CD, Remastered]

Tracklist CD02. 1974 - Streetlife Seranade (MHCP-461):

1. Streetlife Serenader (5:19)
2. Los Angelenos (3:42)
3. The Great Suburban Showdown (3:46)
4. Root Beer Rag (3:03)
5. Roberta (4:35)
6. The Entertainer (3:41)
7. Last Of The Big Time Spenders (4:36)
8. Weekend Song (3:32)
9. Souvenir (2:01)
10. The Mexican Connection (3:38)

Exact Audio Copy V0.99 prebeta 4 from 23. January 2008

EAC extraction logfile from 28. June 2008, 9:28

Billy Joel / Streetlife Seranade (Japan MiniLP CD MHCP-461)

Used drive : PIONEER DVD-RW DVR-108 Adapter: 0 ID: 0

Read mode : Secure
Utilize accurate stream : Yes
Defeat audio cache : Yes
Make use of C2 pointers : No

Read offset correction : 48
Overread into Lead-In and Lead-Out : No
Fill up missing offset samples with silence : Yes
Delete leading and trailing silent blocks : No
Null samples used in CRC calculations : Yes
Used interface : Native Win32 interface for Win NT & 2000
Gap handling : Appended to previous track

Used output format : Internal WAV Routines
Sample format : 44.100 Hz; 16 Bit; Stereo


TOC of the extracted CD

Track | Start | Length | Start sector | End sector
––––––––––––––––––––––––––––-
1 | 0:00.00 | 5:19.07 | 0 | 23931
2 | 5:19.07 | 3:41.53 | 23932 | 40559
3 | 9:00.60 | 3:46.12 | 40560 | 57521
4 | 12:46.72 | 3:03.30 | 57522 | 71276
5 | 15:50.27 | 4:34.73 | 71277 | 91899
6 | 20:25.25 | 3:41.05 | 91900 | 108479
7 | 24:06.30 | 4:35.45 | 108480 | 129149
8 | 28:42.00 | 3:31.42 | 129150 | 145016
9 | 32:13.42 | 2:00.38 | 145017 | 154054
10 | 34:14.05 | 3:37.67 | 154055 | 170396


Track 1

Filename C:\Lossless\Billy Joel - Streetlife Seranade (Japan MiniLP CD MHCP-461)\01 - Streetlife Serenader.wav

Pre-gap length 0:00:02.00

Peak level 96.6 %
Track quality 99.9 %
Test CRC 3FDA0B93
Copy CRC 3FDA0B93
Track not present in AccurateRip database
Copy OK

Track 2

Filename C:\Lossless\Billy Joel - Streetlife Seranade (Japan MiniLP CD MHCP-461)\02 - Los Angelenos.wav

Peak level 97.2 %
Track quality 100.0 %
Test CRC DF49C064
Copy CRC DF49C064
Track not present in AccurateRip database
Copy OK

Track 3

Filename C:\Lossless\Billy Joel - Streetlife Seranade (Japan MiniLP CD MHCP-461)\03 - The Great Suburban Showdown.wav

Peak level 96.4 %
Track quality 100.0 %
Test CRC F93131B8
Copy CRC F93131B8
Track not present in AccurateRip database
Copy OK

Track 4

Filename C:\Lossless\Billy Joel - Streetlife Seranade (Japan MiniLP CD MHCP-461)\04 - Root Beer Rag.wav

Peak level 96.1 %
Track quality 100.0 %
Test CRC 6FC2A62E
Copy CRC 6FC2A62E
Track not present in AccurateRip database
Copy OK

Track 5

Filename C:\Lossless\Billy Joel - Streetlife Seranade (Japan MiniLP CD MHCP-461)\05 - Roberta.wav

Pre-gap length 0:00:02.15

Peak level 96.6 %
Track quality 100.0 %
Test CRC F5AB1C16
Copy CRC F5AB1C16
Track not present in AccurateRip database
Copy OK

Track 6

Filename C:\Lossless\Billy Joel - Streetlife Seranade (Japan MiniLP CD MHCP-461)\06 - The Entertainer.wav

Peak level 96.4 %
Track quality 100.0 %
Test CRC 9E01CB2D
Copy CRC 9E01CB2D
Track not present in AccurateRip database
Copy OK

Track 7

Filename C:\Lossless\Billy Joel - Streetlife Seranade (Japan MiniLP CD MHCP-461)\07 - Last of the Big Time Spenders.wav

Peak level 96.1 %
Track quality 99.9 %
Test CRC 33C6BF2D
Copy CRC 33C6BF2D
Track not present in AccurateRip database
Copy OK

Track 8

Filename C:\Lossless\Billy Joel - Streetlife Seranade (Japan MiniLP CD MHCP-461)\08 - Weekend Song.wav

Peak level 97.1 %
Track quality 100.0 %
Test CRC 107343BA
Copy CRC 107343BA
Track not present in AccurateRip database
Copy OK

Track 9

Filename C:\Lossless\Billy Joel - Streetlife Seranade (Japan MiniLP CD MHCP-461)\09 - Souvenir.wav

Peak level 90.7 %
Track quality 99.9 %
Test CRC B3E96D5B
Copy CRC B3E96D5B
Track not present in AccurateRip database
Copy OK

Track 10

Filename C:\Lossless\Billy Joel - Streetlife Seranade (Japan MiniLP CD MHCP-461)\10 - The Mexican Connection.wav

Peak level 96.7 %
Track quality 100.0 %
Test CRC 2F4D9BEC
Copy CRC 2F4D9BEC
Track not present in AccurateRip database
Copy OK


None of the tracks are present in the AccurateRip database

No errors occurred

End of status report


[CUETools log; Date: 03.11.2020 11:53:18; Version: 2.1.4]
[AccurateRip ID: 000f2422-00775310-8208df0a] found.
Track [ CRC | V2 ] Status
01 [98228f34|ec129185] (08+10/18) Accurately ripped
02 [d46e4ce0|03190971] (08+10/18) Accurately ripped
03 [2343804c|6f675554] (08+10/18) Accurately ripped
04 [d4953fd6|58d3f867] (08+11/19) Accurately ripped
05 [17298477|e8169f5e] (08+10/18) Accurately ripped
06 [487f369d|0b73e248] (08+10/18) Accurately ripped
07 [d327f729|68856489] (08+10/18) Accurately ripped
08 [7106f09f|0a3ac37a] (08+10/18) Accurately ripped
09 [d2eb6694|4efbc2f6] (08+10/18) Accurately ripped
10 [54e17f31|b324c817] (08+11/19) Accurately ripped

Track Peak [ CRC32 ] [W/O NULL] [ LOG ]
– 97,2 [B3D85122] [BC4E5A7F]
01 96,6 [3FDA0B93] [26341C08] CRC32
02 97,2 [DF49C064] [7253CE37] CRC32
03 96,4 [F93131B8] [1525F54A] CRC32
04 96,1 [6FC2A62E] [89CE1CF6] CRC32
05 96,6 [F5AB1C16] [CE845137] CRC32
06 96,4 [9E01CB2D] [55EE0672] CRC32
07 96,1 [33C6BF2D] [CC9F5A1C] CRC32
08 97,1 [107343BA] [054B4049] CRC32
09 90,7 [B3E96D5B] [C0E6CF83] CRC32
10 96,7 [2F4D9BEC] [F57EB373] CRC32


Billy Joel: Japanese Mini LP Collection (1973-1983) [9CD, Remastered]

Tracklist CD03. 1976 - Turnstiles (MHCP-462):

1. Say Goodbye To Hollywood (4:37)
2. Summer, Highland Falls (3:20)
3. All You Wanna Do Is Dance (3:46)
4. New York State Of Mind (6:05)
5. James (3:56)
6. Prelude / Angry Young Man (5:17)
7. I've Loved These Days (4:36)
8. Miami 2017 (Seen The Lights Go Out On Broadway) (5:15)

Exact Audio Copy V0.99 prebeta 4 from 23. January 2008

EAC extraction logfile from 28. June 2008, 10:30

Billy Joel / Turnstiles (Japan MiniLP CD MHCP-462)

Used drive : PIONEER DVD-RW DVR-108 Adapter: 0 ID: 0

Read mode : Secure
Utilize accurate stream : Yes
Defeat audio cache : Yes
Make use of C2 pointers : No

Read offset correction : 48
Overread into Lead-In and Lead-Out : No
Fill up missing offset samples with silence : Yes
Delete leading and trailing silent blocks : No
Null samples used in CRC calculations : Yes
Used interface : Native Win32 interface for Win NT & 2000
Gap handling : Appended to previous track

Used output format : Internal WAV Routines
Sample format : 44.100 Hz; 16 Bit; Stereo


TOC of the extracted CD

Track | Start | Length | Start sector | End sector
––––––––––––––––––––––––––––-
1 | 0:00.00 | 4:36.62 | 0 | 20761
2 | 4:36.62 | 3:20.00 | 20762 | 35761
3 | 7:56.62 | 3:45.65 | 35762 | 52701
4 | 11:42.52 | 6:05.25 | 52702 | 80101
5 | 17:48.02 | 3:56.25 | 80102 | 97826
6 | 21:44.27 | 5:16.48 | 97827 | 121574
7 | 27:01.00 | 4:35.70 | 121575 | 142269
8 | 31:36.70 | 5:15.25 | 142270 | 165919


Track 1

Filename C:\Lossless\Billy Joel - Turnstiles (Japan MiniLP CD MHCP-462)\01 - Say Goodbye to Hollywood.wav

Pre-gap length 0:00:02.00

Peak level 97.4 %
Track quality 100.0 %
Test CRC CB4E2B64
Copy CRC CB4E2B64
Track not present in AccurateRip database
Copy OK

Track 2

Filename C:\Lossless\Billy Joel - Turnstiles (Japan MiniLP CD MHCP-462)\02 - Summer, Highland Falls.wav

Peak level 96.4 %
Track quality 100.0 %
Test CRC B2445A3F
Copy CRC B2445A3F
Track not present in AccurateRip database
Copy OK

Track 3

Filename C:\Lossless\Billy Joel - Turnstiles (Japan MiniLP CD MHCP-462)\03 - All You Wanna Do is Dance.wav

Pre-gap length 0:00:02.05

Peak level 100.0 %
Track quality 100.0 %
Test CRC 504B827A
Copy CRC 504B827A
Track not present in AccurateRip database
Copy OK

Track 4

Filename C:\Lossless\Billy Joel - Turnstiles (Japan MiniLP CD MHCP-462)\04 - New York State of Mind.wav

Pre-gap length 0:00:01.25

Peak level 99.9 %
Track quality 100.0 %
Test CRC 559E813F
Copy CRC 559E813F
Track not present in AccurateRip database
Copy OK

Track 5

Filename C:\Lossless\Billy Joel - Turnstiles (Japan MiniLP CD MHCP-462)\05 - James.wav

Pre-gap length 0:00:01.70

Peak level 83.5 %
Track quality 100.0 %
Test CRC BFE7E60D
Copy CRC BFE7E60D
Track not present in AccurateRip database
Copy OK

Track 6

Filename C:\Lossless\Billy Joel - Turnstiles (Japan MiniLP CD MHCP-462)\06 - Prelude , Angry Young Man.wav

Pre-gap length 0:00:01.27

Peak level 82.2 %
Track quality 100.0 %
Test CRC 21927108
Copy CRC 21927108
Track not present in AccurateRip database
Copy OK

Track 7

Filename C:\Lossless\Billy Joel - Turnstiles (Japan MiniLP CD MHCP-462)\07 - I've Loved These Days.wav

Pre-gap length 0:00:01.60

Peak level 91.4 %
Track quality 99.9 %
Test CRC EC53C1AB
Copy CRC EC53C1AB
Track not present in AccurateRip database
Copy OK

Track 8

Filename C:\Lossless\Billy Joel - Turnstiles (Japan MiniLP CD MHCP-462)\08 - Miami 2017 (Seen the Lights go out on Broadway).wav

Pre-gap length 0:00:01.25

Peak level 90.9 %
Track quality 100.0 %
Test CRC BBD980A6
Copy CRC BBD980A6
Track not present in AccurateRip database
Copy OK


None of the tracks are present in the AccurateRip database

No errors occurred

End of status report


[CUETools log; Date: 03.11.2020 11:57:26; Version: 2.1.4]
[AccurateRip ID: 000af078-0049b174-6908a408] found.
Track [ CRC | V2 ] Status
01 [c35dc782|727c5a8d] (04+05/17) Accurately ripped
02 [dcc9cff3|90a00fe6] (04+05/17) Accurately ripped
03 [c58aa46c|6aa2ce20] (04+05/17) Accurately ripped
04 [6e723bdc|f20574e5] (04+05/17) Accurately ripped
05 [4584afb1|0f5068fb] (04+05/17) Accurately ripped
06 [9271b086|f9ec52d5] (04+05/17) Accurately ripped
07 [dab53298|c2967634] (04+05/17) Accurately ripped
08 [d92d7ddd|dffb2386] (04+05/18) Accurately ripped
Offsetted by 1467:
01 [df1333bf] (02/17) Accurately ripped
02 [c307723e] (02/17) Accurately ripped
03 [88e760e7] (02/17) Accurately ripped
04 [3f55ca2a] (02/17) Accurately ripped
05 [23e52efb] (02/17) Accurately ripped
06 [838f68ef] (02/17) Accurately ripped
07 [5c254365] (02/17) Accurately ripped
08 [48785e05] (02/18) Accurately ripped

Track Peak [ CRC32 ] [W/O NULL] [ LOG ]
– 100,0 [89DFD4D5] [C7ACA267]
01 97,4 [CB4E2B64] [965E0C12] CRC32
02 96,4 [B2445A3F] [A913A6ED] CRC32
03 100,0 [504B827A] [46B5291C] CRC32
04 99,9 [559E813F] [2090FFCB] CRC32
05 83,5 [BFE7E60D] [F630C8C1] CRC32
06 82,2 [21927108] [CC4E48D3] CRC32
07 91,4 [EC53C1AB] [A28E46A9] CRC32
08 90,9 [BBD980A6] [8BD56832] CRC32


Billy Joel: Japanese Mini LP Collection (1973-1983) [9CD, Remastered]

Tracklist CD04. 1977 - The Stranger (MHCP-463):

1. Movin' Out (Anthony's Song) (3:31)
2. The Stranger (5:11)
3. Just The Way You Are (4:51)
4. Scenes From An Italian Restaurant (7:37)
5. Vienna (3:34)
6. Only The Good Die Young (3:56)
7. She's Always A Woman (3:22)
8. Get It Right The First Time (3:57)
9. Everybody Has A Dream (6:37) (5:15)

Exact Audio Copy V0.99 prebeta 3 from 28. July 2007

EAC extraction logfile from 4. May 2008, 18:12

Billy Joel / The Stranger (Japan MiniLP CD MHCP-463)

Used drive : PIONEER DVD-RW DVR-108 Adapter: 0 ID: 0

Read mode : Secure
Utilize accurate stream : Yes
Defeat audio cache : Yes
Make use of C2 pointers : No

Read offset correction : 48
Overread into Lead-In and Lead-Out : No
Fill up missing offset samples with silence : Yes
Delete leading and trailing silent blocks : No
Null samples used in CRC calculations : Yes
Used interface : Native Win32 interface for Win NT & 2000
Gap handling : Appended to previous track

Used output format : Internal WAV Routines
Sample format : 44.100 Hz; 16 Bit; Stereo


TOC of the extracted CD

Track | Start | Length | Start sector | End sector
––––––––––––––––––––––––––––-
1 | 0:00.00 | 3:30.45 | 0 | 15794
2 | 3:30.45 | 5:10.42 | 15795 | 39086
3 | 8:41.12 | 4:50.65 | 39087 | 60901
4 | 13:32.02 | 7:37.15 | 60902 | 95191
5 | 21:09.17 | 3:34.28 | 95192 | 111269
6 | 24:43.45 | 3:55.47 | 111270 | 128941
7 | 28:39.17 | 3:21.38 | 128942 | 144054
8 | 32:00.55 | 3:57.10 | 144055 | 161839
9 | 35:57.65 | 6:36.60 | 161840 | 191599


Track 1

Filename C:\Lossless\Billy Joel - The Stranger (Japan MiniLP CD MHCP-463)\01 - Movin' Out (Anthony's Song).wav

Pre-gap length 0:00:02.00

Peak level 99.3 %
Track quality 100.0 %
Test CRC 7B07735F
Copy CRC 7B07735F
Track not present in AccurateRip database
Copy OK

Track 2

Filename C:\Lossless\Billy Joel - The Stranger (Japan MiniLP CD MHCP-463)\02 - The Stranger.wav

Pre-gap length 0:00:01.00

Peak level 100.0 %
Track quality 100.0 %
Test CRC F3EEDBC6
Copy CRC F3EEDBC6
Track not present in AccurateRip database
Copy OK

Track 3

Filename C:\Lossless\Billy Joel - The Stranger (Japan MiniLP CD MHCP-463)\03 - Just The Way You Are.wav

Pre-gap length 0:00:01.02

Peak level 99.6 %
Track quality 99.9 %
Test CRC 003ED50F
Copy CRC 003ED50F
Track not present in AccurateRip database
Copy OK

Track 4

Filename C:\Lossless\Billy Joel - The Stranger (Japan MiniLP CD MHCP-463)\04 - Scenes From An Italian Restaurant.wav

Peak level 99.8 %
Track quality 100.0 %
Test CRC CCEC0B75
Copy CRC CCEC0B75
Track not present in AccurateRip database
Copy OK

Track 5

Filename C:\Lossless\Billy Joel - The Stranger (Japan MiniLP CD MHCP-463)\05 - Vienna.wav

Pre-gap length 0:00:01.22

Peak level 99.7 %
Track quality 100.0 %
Test CRC 2DA195D6
Copy CRC 2DA195D6
Track not present in AccurateRip database
Copy OK

Track 6

Filename C:\Lossless\Billy Joel - The Stranger (Japan MiniLP CD MHCP-463)\06 - Only The Good Die Young.wav

Peak level 99.7 %
Track quality 100.0 %
Test CRC 621385FF
Copy CRC 621385FF
Track not present in AccurateRip database
Copy OK

Track 7

Filename C:\Lossless\Billy Joel - The Stranger (Japan MiniLP CD MHCP-463)\07 - She's Always A Woman.wav

Peak level 98.7 %
Track quality 100.0 %
Test CRC 0A5D9732
Copy CRC 0A5D9732
Track not present in AccurateRip database
Copy OK

Track 8

Filename C:\Lossless\Billy Joel - The Stranger (Japan MiniLP CD MHCP-463)\08 - Get It Right The First Time.wav

Peak level 99.7 %
Track quality 100.0 %
Test CRC 47572AFD
Copy CRC 47572AFD
Track not present in AccurateRip database
Copy OK

Track 9

Filename C:\Lossless\Billy Joel - The Stranger (Japan MiniLP CD MHCP-463)\09 - Everybody Has A Dream.wav

Pre-gap length 0:00:01.13

Peak level 99.4 %
Track quality 100.0 %
Test CRC CDB78592
Copy CRC CDB78592
Track not present in AccurateRip database
Copy OK


None of the tracks are present in the AccurateRip database

No errors occurred

End of status report


[CUETools log; Date: 03.11.2020 11:59:46; Version: 2.1.4]
[AccurateRip ID: 000e79cb-006a41b2-6509fa09] found.
Track [ CRC | V2 ] Status
01 [1c6cabd1|b09b5d67] (04+04/32) Accurately ripped
02 [9743c8c9|feff9490] (04+04/33) Accurately ripped
03 [7c63a0f2|02f89c3a] (04+04/35) Accurately ripped
04 [b759cc60|2364e85c] (04+04/33) Accurately ripped
05 [5cf49a11|e384122c] (04+04/32) Accurately ripped
06 [2ec376e3|b1848dff] (04+04/32) Accurately ripped
07 [41c541e9|782d9258] (04+04/32) Accurately ripped
08 [b89bdf58|852302ce] (04+04/32) Accurately ripped
09 [cc15f672|3d537779] (04+04/32) Accurately ripped
Offsetted by 167:
01 [368a0769] (03/32) Accurately ripped
02 [81aa1bfe] (03/33) Accurately ripped
03 [a7ecc10c] (03/35) Accurately ripped
04 [13e93f8f] (03/33) Accurately ripped
05 [1267da48] (03/32) Accurately ripped
06 [dedbb7c2] (03/32) Accurately ripped
07 [dde82ab7] (03/32) Accurately ripped
08 [97f6ab72] (03/32) Accurately ripped
09 [4674a711] (03/32) Accurately ripped

Track Peak [ CRC32 ] [W/O NULL] [ LOG ]
– 100,0 [0BFBA8D0] [F9447998]
01 99,3 [7B07735F] [CED9BEF5] CRC32
02 100,0 [F3EEDBC6] [E97A016F] CRC32
03 99,6 [003ED50F] [82DBB622] CRC32
04 99,8 [CCEC0B75] [F7663B38] CRC32
05 99,7 [2DA195D6] [58BA9F4D] CRC32
06 99,7 [621385FF] [50A752A1] CRC32
07 98,7 [0A5D9732] [BD4594B8] CRC32
08 99,7 [47572AFD] [AD60F1A5] CRC32
09 99,4 [CDB78592] [7E756B2B] CRC32


Billy Joel: Japanese Mini LP Collection (1973-1983) [9CD, Remastered]

Tracklist CD05. 1978 - 52nd Street (MHCP-464):

1. Big Shot (4:04)
2. Honesty (3:54)
3. My Life (4:44)
4. Zanzibar (5:13)
5. Stiletto (4:42)
6. Rosalinda's Eyes (4:42)
7. Half A Mile Away (4:09)
8. Until The Night (6:36)
9. 52nd Street (2:31)

Exact Audio Copy V0.99 prebeta 3 from 28. July 2007

EAC extraction logfile from 5. May 2008, 11:53

Billy Joel / 52nd Street (Japan MiniLP CD MHCP-464)

Used drive : PIONEER DVD-RW DVR-108 Adapter: 0 ID: 0

Read mode : Secure
Utilize accurate stream : Yes
Defeat audio cache : Yes
Make use of C2 pointers : No

Read offset correction : 48
Overread into Lead-In and Lead-Out : No
Fill up missing offset samples with silence : Yes
Delete leading and trailing silent blocks : No
Null samples used in CRC calculations : Yes
Used interface : Native Win32 interface for Win NT & 2000
Gap handling : Appended to previous track

Used output format : Internal WAV Routines
Sample format : 44.100 Hz; 16 Bit; Stereo


TOC of the extracted CD

Track | Start | Length | Start sector | End sector
––––––––––––––––––––––––––––-
1 | 0:00.00 | 4:03.60 | 0 | 18284
2 | 4:03.60 | 3:53.42 | 18285 | 35801
3 | 7:57.27 | 4:44.03 | 35802 | 57104
4 | 12:41.30 | 5:13.07 | 57105 | 80586
5 | 17:54.37 | 4:42.13 | 80587 | 101749
6 | 22:36.50 | 4:42.00 | 101750 | 122899
7 | 27:18.50 | 4:08.57 | 122900 | 141556
8 | 31:27.32 | 6:35.43 | 141557 | 171224
9 | 38:03.00 | 2:31.12 | 171225 | 182561


Track 1

Filename C:\Lossless\Billy Joel - 52nd Street (Japan MiniLP CD MHCP-464)\01 - Big Shot.wav

Pre-gap length 0:00:02.00

Peak level 95.7 %
Track quality 100.0 %
Test CRC 1C6CF465
Copy CRC 1C6CF465
Track not present in AccurateRip database
Copy OK

Track 2

Filename C:\Lossless\Billy Joel - 52nd Street (Japan MiniLP CD MHCP-464)\02 - Honesty.wav

Peak level 96.7 %
Track quality 100.0 %
Test CRC AC2BE185
Copy CRC AC2BE185
Track not present in AccurateRip database
Copy OK

Track 3

Filename C:\Lossless\Billy Joel - 52nd Street (Japan MiniLP CD MHCP-464)\03 - My Life.wav

Peak level 97.4 %
Track quality 100.0 %
Test CRC 68FD83BA
Copy CRC 68FD83BA
Track not present in AccurateRip database
Copy OK

Track 4

Filename C:\Lossless\Billy Joel - 52nd Street (Japan MiniLP CD MHCP-464)\04 - Zanzibar.wav

Peak level 98.3 %
Track quality 100.0 %
Test CRC 2F1ED654
Copy CRC 2F1ED654
Track not present in AccurateRip database
Copy OK

Track 5

Filename C:\Lossless\Billy Joel - 52nd Street (Japan MiniLP CD MHCP-464)\05 - Stiletto.wav

Pre-gap length 0:00:01.82

Peak level 93.3 %
Track quality 100.0 %
Test CRC B700BC52
Copy CRC B700BC52
Track not present in AccurateRip database
Copy OK

Track 6

Filename C:\Lossless\Billy Joel - 52nd Street (Japan MiniLP CD MHCP-464)\06 - Rosalinda's Eyes.wav

Peak level 93.1 %
Track quality 100.0 %
Test CRC C25686B7
Copy CRC C25686B7
Track not present in AccurateRip database
Copy OK

Track 7

Filename C:\Lossless\Billy Joel - 52nd Street (Japan MiniLP CD MHCP-464)\07 - Half A Mile Away.wav

Peak level 94.4 %
Track quality 100.0 %
Test CRC 9B237939
Copy CRC 9B237939
Track not present in AccurateRip database
Copy OK

Track 8

Filename C:\Lossless\Billy Joel - 52nd Street (Japan MiniLP CD MHCP-464)\08 - Until The Night.wav

Peak level 94.0 %
Track quality 100.0 %
Test CRC 068ECB98
Copy CRC 068ECB98
Track not present in AccurateRip database
Copy OK

Track 9

Filename C:\Lossless\Billy Joel - 52nd Street (Japan MiniLP CD MHCP-464)\09 - 52nd Street.wav

Peak level 95.8 %
Track quality 100.0 %
Test CRC DD2C0F72
Copy CRC DD2C0F72
Track not present in AccurateRip database
Copy OK


None of the tracks are present in the AccurateRip database

No errors occurred

End of status report


[CUETools log; Date: 03.11.2020 12:05:55; Version: 2.1.4]
[AccurateRip ID: 000de99d-0066ec91-86098209] found.
Track [ CRC | V2 ] Status
01 [7bf4e4c2|ea2a8601] (04+03/42) Accurately ripped
02 [ad98183e|6529fd10] (04+03/42) Accurately ripped
03 [4da9f51c|69daf32d] (04+03/42) Accurately ripped
04 [14746920|76afe656] (04+03/42) Accurately ripped
05 [62dd0ba8|60c31e36] (04+03/42) Accurately ripped
06 [ea15addb|308ef422] (04+03/42) Accurately ripped
07 [64658008|24ccf9a6] (04+03/41) Accurately ripped
08 [3cdd1785|14d274ce] (04+03/42) Accurately ripped
09 [1a2e2b70|6b283725] (04+03/42) Accurately ripped

Track Peak [ CRC32 ] [W/O NULL] [ LOG ]
– 98,3 [EE9F5BBE] [722AB862]
01 95,7 [1C6CF465] [860171A9] CRC32
02 96,7 [AC2BE185] [6096E30F] CRC32
03 97,4 [68FD83BA] [51B05C17] CRC32
04 98,3 [2F1ED654] [1024F916] CRC32
05 93,3 [B700BC52] [5D2CE1F9] CRC32
06 93,1 [C25686B7] [2775CA73] CRC32
07 94,4 [9B237939] [A2458752] CRC32
08 94,0 [068ECB98] [C04CAE18] CRC32
09 95,8 [DD2C0F72] [E3582DC8] CRC32


Billy Joel: Japanese Mini LP Collection (1973-1983) [9CD, Remastered]

Tracklist CD06. 1980 - Glass Houses (MHCP-465):

1. You May Be Right (4:16)
2. Sometimes A Fantasy (3:40)
3. Don't Ask Me Why (2:59)
4. It's Still Rock And Roll To Me (2:57)
5. All For Leyna (4:15)
6. I Don't Want To Be Alone (3:57)
7. Sleeping With The Television On (3:03)
8. C'Etait Toi (You Were The One) (3:25)
9. Close To The Borderline (3:48)
10. Through The Long Night (2:44)

Exact Audio Copy V0.99 prebeta 4 from 23. January 2008

EAC extraction logfile from 4. July 2008, 9:24

Billy Joel / Glass Houses (Japan MiniLP CD MHCP-465)

Used drive : PIONEER DVD-RW DVR-108 Adapter: 0 ID: 0

Read mode : Secure
Utilize accurate stream : Yes
Defeat audio cache : Yes
Make use of C2 pointers : No

Read offset correction : 48
Overread into Lead-In and Lead-Out : No
Fill up missing offset samples with silence : Yes
Delete leading and trailing silent blocks : No
Null samples used in CRC calculations : Yes
Used interface : Native Win32 interface for Win NT & 2000
Gap handling : Appended to previous track

Used output format : Internal WAV Routines
Sample format : 44.100 Hz; 16 Bit; Stereo


TOC of the extracted CD

Track | Start | Length | Start sector | End sector
––––––––––––––––––––––––––––-
1 | 0:00.00 | 4:15.72 | 0 | 19196
2 | 4:15.72 | 3:39.73 | 19197 | 35694
3 | 7:55.70 | 2:59.12 | 35695 | 49131
4 | 10:55.07 | 2:57.20 | 49132 | 62426
5 | 13:52.27 | 4:15.10 | 62427 | 81561
6 | 18:07.37 | 3:57.25 | 81562 | 99361
7 | 22:04.62 | 3:02.65 | 99362 | 113076
8 | 25:07.52 | 3:25.33 | 113077 | 128484
9 | 28:33.10 | 3:47.40 | 128485 | 145549
10 | 32:20.50 | 2:44.20 | 145550 | 157869


Track 1

Filename C:\Lossless\Billy Joel - Glass Houses (Japan MiniLP CD MHCP-465)\01 - You May Be Right.wav

Pre-gap length 0:00:02.00

Peak level 97.3 %
Track quality 100.0 %
Test CRC BDF7B068
Copy CRC BDF7B068
Track not present in AccurateRip database
Copy OK

Track 2

Filename C:\Lossless\Billy Joel - Glass Houses (Japan MiniLP CD MHCP-465)\02 - Sometimes A Fantasy.wav

Peak level 97.3 %
Track quality 100.0 %
Test CRC F9F80E47
Copy CRC F9F80E47
Track not present in AccurateRip database
Copy OK

Track 3

Filename C:\Lossless\Billy Joel - Glass Houses (Japan MiniLP CD MHCP-465)\03 - Don't Ask Me Why.wav

Peak level 96.0 %
Track quality 100.0 %
Test CRC 7F3CE13A
Copy CRC 7F3CE13A
Track not present in AccurateRip database
Copy OK

Track 4

Filename C:\Lossless\Billy Joel - Glass Houses (Japan MiniLP CD MHCP-465)\04 - It's Still Rock And Roll To Me.wav

Peak level 96.9 %
Track quality 100.0 %
Test CRC 66978067
Copy CRC 66978067
Track not present in AccurateRip database
Copy OK

Track 5

Filename C:\Lossless\Billy Joel - Glass Houses (Japan MiniLP CD MHCP-465)\05 - All For Leyna.wav

Peak level 96.3 %
Track quality 100.0 %
Test CRC 6E68CF24
Copy CRC 6E68CF24
Track not present in AccurateRip database
Copy OK

Track 6

Filename C:\Lossless\Billy Joel - Glass Houses (Japan MiniLP CD MHCP-465)\06 - I Don't Want To Be Alone.wav

Pre-gap length 0:00:01.05

Peak level 96.7 %
Track quality 100.0 %
Test CRC D32CD123
Copy CRC D32CD123
Track not present in AccurateRip database
Copy OK

Track 7

Filename C:\Lossless\Billy Joel - Glass Houses (Japan MiniLP CD MHCP-465)\07 - Sleeping With The Television On.wav

Peak level 96.6 %
Track quality 100.0 %
Test CRC 32925D3A
Copy CRC 32925D3A
Track not present in AccurateRip database
Copy OK

Track 8

Filename C:\Lossless\Billy Joel - Glass Houses (Japan MiniLP CD MHCP-465)\08 - C'etait Toi (You Were The One).wav

Peak level 96.2 %
Track quality 100.0 %
Test CRC 4C1D8369
Copy CRC 4C1D8369
Track not present in AccurateRip database
Copy OK

Track 9

Filename C:\Lossless\Billy Joel - Glass Houses (Japan MiniLP CD MHCP-465)\09 - Close To The Borderline.wav

Peak level 97.2 %
Track quality 100.0 %
Test CRC 83B645A3
Copy CRC 83B645A3
Track not present in AccurateRip database
Copy OK

Track 10

Filename C:\Lossless\Billy Joel - Glass Houses (Japan MiniLP CD MHCP-465)\10 - Through The Long Night.wav

Peak level 95.7 %
Track quality 100.0 %
Test CRC 3F90C667
Copy CRC 3F90C667
Track not present in AccurateRip database
Copy OK


None of the tracks are present in the AccurateRip database

No errors occurred

End of status report


[CUETools log; Date: 03.11.2020 12:29:06; Version: 2.1.4]
[AccurateRip ID: 000d9dc5-006c3784-8e08380a] found.
Track [ CRC | V2 ] Status
01 [bdd754f9|1e3d54d3] (04+08/12) Accurately ripped
02 [7e6866b3|797d38f3] (04+08/12) Accurately ripped
03 [9f26c027|11fbb5a8] (04+08/12) Accurately ripped
04 [8fa1194f|2b1e93b6] (04+08/12) Accurately ripped
05 [d1230cd0|aeef8a54] (04+08/12) Accurately ripped
06 [5c74622c|63bfc48b] (04+08/12) Accurately ripped
07 [d19683ac|2c15cffd] (04+09/13) Accurately ripped
08 [e9a7c7f3|5ea9fc01] (04+09/13) Accurately ripped
09 [cf811584|1f3bc2f2] (04+08/12) Accurately ripped
10 [f73e4fa6|00e850c6] (04+08/12) Accurately ripped

Track Peak [ CRC32 ] [W/O NULL] [ LOG ]
– 97,3 [5706C5DE] [9867990F]
01 97,3 [BDF7B068] [5557B32D] CRC32
02 97,3 [F9F80E47] [DEDAE682] CRC32
03 96,0 [7F3CE13A] [C883B980] CRC32
04 96,9 [66978067] [244FBFB2] CRC32
05 96,3 [6E68CF24] [5CE03F68] CRC32
06 96,7 [D32CD123] [77CBD3BD] CRC32
07 96,6 [32925D3A] [0C1301A0] CRC32
08 96,2 [4C1D8369] [2B68376E] CRC32
09 97,2 [83B645A3] [E66C8024] CRC32
10 95,7 [3F90C667] [E266179A] CRC32


Billy Joel: Japanese Mini LP Collection (1973-1983) [9CD, Remastered]

Tracklist CD07. 1981 - Songs In The Attic (MHCP-466):

1. Miami 2017 (Seen The Lights Go Out On Broadway) (5:05)
2. Summer, Highland Falls (3:07)
3. Streetlife Serenader (5:18)
4. Los Angelenos (3:49)
5. She's Got A Way (3:01)
6. Everybody Loves You Now (3:07)
7. Say Goodbye To Hollywood (4:17)
8. Captain Jack (7:17)
9. You're My Home (3:07)
10. The Ballad Of Billy The Kid (5:27)
11. I've Loved These Days (4:36)

Exact Audio Copy V0.99 prebeta 4 from 23. January 2008

EAC extraction logfile from 5. July 2008, 13:01

Billy Joel / Songs In The Attic (Japan MiniLP CD MHCP-466)

Used drive : PIONEER DVD-RW DVR-108 Adapter: 0 ID: 0

Read mode : Secure
Utilize accurate stream : Yes
Defeat audio cache : Yes
Make use of C2 pointers : No

Read offset correction : 48
Overread into Lead-In and Lead-Out : No
Fill up missing offset samples with silence : Yes
Delete leading and trailing silent blocks : No
Null samples used in CRC calculations : Yes
Used interface : Native Win32 interface for Win NT & 2000
Gap handling : Appended to previous track

Used output format : Internal WAV Routines
Sample format : 44.100 Hz; 16 Bit; Stereo


TOC of the extracted CD

Track | Start | Length | Start sector | End sector
––––––––––––––––––––––––––––-
1 | 0:00.00 | 5:04.42 | 0 | 22841
2 | 5:04.42 | 3:06.70 | 22842 | 36861
3 | 8:11.37 | 5:17.48 | 36862 | 60684
4 | 13:29.10 | 3:49.15 | 60685 | 77874
5 | 17:18.25 | 3:00.42 | 77875 | 91416
6 | 20:18.67 | 3:07.00 | 91417 | 105441
7 | 23:25.67 | 4:17.00 | 105442 | 124716
8 | 27:42.67 | 7:17.00 | 124717 | 157491
9 | 34:59.67 | 3:06.65 | 157492 | 171506
10 | 38:06.57 | 5:27.08 | 171507 | 196039
11 | 43:33.65 | 4:35.72 | 196040 | 216736


Track 1

Filename C:\Lossless\Billy Joel - Songs In The Attic (1981) [FLAC] (Japan MiniLP CD MHCP-466)\01 - Miami 2017 (Seen The Lights Go Out On Broadway).wav

Pre-gap length 0:00:02.00

Peak level 97.4 %
Track quality 100.0 %
Test CRC 02FDED99
Copy CRC 02FDED99
Track not present in AccurateRip database
Copy OK

Track 2

Filename C:\Lossless\Billy Joel - Songs In The Attic (1981) [FLAC] (Japan MiniLP CD MHCP-466)\02 - Summer, Highland Falls.wav

Peak level 97.2 %
Track quality 99.9 %
Test CRC 4A9C0704
Copy CRC 4A9C0704
Track not present in AccurateRip database
Copy OK

Track 3

Filename C:\Lossless\Billy Joel - Songs In The Attic (1981) [FLAC] (Japan MiniLP CD MHCP-466)\03 - Streetlife Serenader.wav

Peak level 97.0 %
Track quality 100.0 %
Test CRC 6AAD3AAB
Copy CRC 6AAD3AAB
Track not present in AccurateRip database
Copy OK

Track 4

Filename C:\Lossless\Billy Joel - Songs In The Attic (1981) [FLAC] (Japan MiniLP CD MHCP-466)\04 - Los Angelenos.wav

Peak level 97.2 %
Track quality 100.0 %
Test CRC BA9818E3
Copy CRC BA9818E3
Track not present in AccurateRip database
Copy OK

Track 5

Filename C:\Lossless\Billy Joel - Songs In The Attic (1981) [FLAC] (Japan MiniLP CD MHCP-466)\05 - She's Got A Way.wav

Peak level 94.7 %
Track quality 100.0 %
Test CRC A41D290C
Copy CRC A41D290C
Track not present in AccurateRip database
Copy OK

Track 6

Filename C:\Lossless\Billy Joel - Songs In The Attic (1981) [FLAC] (Japan MiniLP CD MHCP-466)\06 - Everybody Loves You Now.wav

Peak level 97.0 %
Track quality 100.0 %
Test CRC A2E2C3D7
Copy CRC A2E2C3D7
Track not present in AccurateRip database
Copy OK

Track 7

Filename C:\Lossless\Billy Joel - Songs In The Attic (1981) [FLAC] (Japan MiniLP CD MHCP-466)\07 - Say Goodbye To Hollywood.wav

Peak level 97.6 %
Track quality 99.9 %
Test CRC 98ED6F7E
Copy CRC 98ED6F7E
Track not present in AccurateRip database
Copy OK

Track 8

Filename C:\Lossless\Billy Joel - Songs In The Attic (1981) [FLAC] (Japan MiniLP CD MHCP-466)\08 - Captain Jack.wav

Peak level 97.3 %
Track quality 99.9 %
Test CRC 15132140
Copy CRC 15132140
Track not present in AccurateRip database
Copy OK

Track 9

Filename C:\Lossless\Billy Joel - Songs In The Attic (1981) [FLAC] (Japan MiniLP CD MHCP-466)\09 - You're My Home.wav

Peak level 98.0 %
Track quality 100.0 %
Test CRC 4C037048
Copy CRC 4C037048
Track not present in AccurateRip database
Copy OK

Track 10

Filename C:\Lossless\Billy Joel - Songs In The Attic (1981) [FLAC] (Japan MiniLP CD MHCP-466)\10 - The Ballad Of Billy The Kid.wav

Peak level 96.8 %
Track quality 99.9 %
Test CRC 5F430FDC
Copy CRC 5F430FDC
Track not present in AccurateRip database
Copy OK

Track 11

Filename C:\Lossless\Billy Joel - Songs In The Attic (1981) [FLAC] (Japan MiniLP CD MHCP-466)\11 - I've Loved These Days.wav

Peak level 96.9 %
Track quality 99.9 %
Test CRC A95F674C
Copy CRC A95F674C
Track not present in AccurateRip database
Copy OK


None of the tracks are present in the AccurateRip database

No errors occurred

End of status report


[CUETools log; Date: 03.11.2020 13:00:51; Version: 2.1.4]
[AccurateRip ID: 00134030-00a74644-720b490b] found.
Track [ CRC | V2 ] Status
01 [d346a712|6a3c0de4] (09+06/15) Accurately ripped
02 [10d6fe8c|b309dd95] (09+06/15) Accurately ripped
03 [058a72d5|680a5383] (09+06/15) Accurately ripped
04 [d4712e99|8878aa35] (09+06/15) Accurately ripped
05 [c6c40f64|844d694b] (09+06/15) Accurately ripped
06 [8dbac3a1|df97f2d3] (09+06/15) Accurately ripped
07 [e25a8427|e6ea6532] (09+06/15) Accurately ripped
08 [32f2a144|e2b1a339] (09+06/15) Accurately ripped
09 [70f72d2b|4f778209] (09+06/15) Accurately ripped
10 [14218046|5b60946b] (09+06/15) Accurately ripped
11 [884b9633|6c23d2da] (09+06/15) Accurately ripped

Track Peak [ CRC32 ] [W/O NULL] [ LOG ]
– 98,0 [ADAEA6F8] [9E0B2B54]
01 97,4 [02FDED99] [39424ED0] CRC32
02 97,2 [4A9C0704] [7D49D015] CRC32
03 97,0 [6AAD3AAB] [7323CDCF] CRC32
04 97,2 [BA9818E3] [C8EE6F36] CRC32
05 94,7 [A41D290C] [0410B5C7] CRC32
06 97,0 [A2E2C3D7] [725BD3A9] CRC32
07 97,6 [98ED6F7E] [7C6F03DB] CRC32
08 97,3 [15132140] [F09F77FA] CRC32
09 98,0 [4C037048] [086B3972] CRC32
10 96,8 [5F430FDC] [EE3C33B1] CRC32
11 96,9 [A95F674C] [F90C68D3] CRC32


Billy Joel: Japanese Mini LP Collection (1973-1983) [9CD, Remastered]

Tracklist CD08. 1982 - The Nylon Curtain (MHCP-544):

1. Allentown (3:52)
2. Laura (5:06)
3. Pressure (4:41)
4. Goodnight Saigon (7:04)
5. She's Right On Time (4:14)
6. A Room of Our Own (4:04)
7. Surprises (3:26)
8. Scandinavian Skies (6:01)
9. Where's The Orchestra (3:17)

Exact Audio Copy V0.99 prebeta 4 from 23. January 2008

EAC extraction logfile from 8. July 2008, 8:55

Billy Joel / The Nylon Curtain (Japan MiniLP CD MHCP-544)

Used drive : PIONEER DVD-RW DVR-108 Adapter: 0 ID: 0

Read mode : Secure
Utilize accurate stream : Yes
Defeat audio cache : Yes
Make use of C2 pointers : No

Read offset correction : 48
Overread into Lead-In and Lead-Out : No
Fill up missing offset samples with silence : Yes
Delete leading and trailing silent blocks : No
Null samples used in CRC calculations : Yes
Used interface : Native Win32 interface for Win NT & 2000
Gap handling : Appended to previous track

Used output format : Internal WAV Routines
Sample format : 44.100 Hz; 16 Bit; Stereo


TOC of the extracted CD

Track | Start | Length | Start sector | End sector
––––––––––––––––––––––––––––-
1 | 0:00.00 | 3:51.72 | 0 | 17396
2 | 3:51.72 | 5:06.08 | 17397 | 40354
3 | 8:58.05 | 4:41.17 | 40355 | 61446
4 | 13:39.22 | 7:03.63 | 61447 | 93234
5 | 20:43.10 | 4:14.35 | 93235 | 112319
6 | 24:57.45 | 4:04.32 | 112320 | 130651
7 | 29:02.02 | 3:26.30 | 130652 | 146131
8 | 32:28.32 | 6:00.45 | 146132 | 173176
9 | 38:29.02 | 3:17.15 | 173177 | 187966


Track 1

Filename C:\Lossless\Billy Joel - The Nylon Curtain (1982) [FLAC] (Japan MiniLP CD MHCP-544)\01 - Allentown.wav

Pre-gap length 0:00:02.00

Peak level 95.7 %
Track quality 100.0 %
Test CRC A02738DA
Copy CRC A02738DA
Track not present in AccurateRip database
Copy OK

Track 2

Filename C:\Lossless\Billy Joel - The Nylon Curtain (1982) [FLAC] (Japan MiniLP CD MHCP-544)\02 - Laura.wav

Peak level 95.4 %
Track quality 100.0 %
Test CRC 62397467
Copy CRC 62397467
Track not present in AccurateRip database
Copy OK

Track 3

Filename C:\Lossless\Billy Joel - The Nylon Curtain (1982) [FLAC] (Japan MiniLP CD MHCP-544)\03 - Pressure.wav

Pre-gap length 0:00:01.15

Peak level 96.5 %
Track quality 99.9 %
Test CRC E27F4388
Copy CRC E27F4388
Track not present in AccurateRip database
Copy OK

Track 4

Filename C:\Lossless\Billy Joel - The Nylon Curtain (1982) [FLAC] (Japan MiniLP CD MHCP-544)\04 - Goodnight Saigon.wav

Peak level 95.2 %
Track quality 100.0 %
Test CRC 9D3F0E19
Copy CRC 9D3F0E19
Track not present in AccurateRip database
Copy OK

Track 5

Filename C:\Lossless\Billy Joel - The Nylon Curtain (1982) [FLAC] (Japan MiniLP CD MHCP-544)\05 - She's Right On Time.wav

Peak level 95.7 %
Track quality 100.0 %
Test CRC 3CBD3000
Copy CRC 3CBD3000
Track not present in AccurateRip database
Copy OK

Track 6

Filename C:\Lossless\Billy Joel - The Nylon Curtain (1982) [FLAC] (Japan MiniLP CD MHCP-544)\06 - A Room of Our Own.wav

Peak level 95.9 %
Track quality 99.9 %
Test CRC 600B5DED
Copy CRC 600B5DED
Track not present in AccurateRip database
Copy OK

Track 7

Filename C:\Lossless\Billy Joel - The Nylon Curtain (1982) [FLAC] (Japan MiniLP CD MHCP-544)\07 - Surprises.wav

Pre-gap length 0:00:02.00

Peak level 96.1 %
Track quality 100.0 %
Test CRC 27E2B43C
Copy CRC 27E2B43C
Track not present in AccurateRip database
Copy OK

Track 8

Filename C:\Lossless\Billy Joel - The Nylon Curtain (1982) [FLAC] (Japan MiniLP CD MHCP-544)\08 - Scandinavian Skies.wav

Peak level 95.1 %
Track quality 99.9 %
Test CRC 54229F25
Copy CRC 54229F25
Track not present in AccurateRip database
Copy OK

Track 9

Filename C:\Lossless\Billy Joel - The Nylon Curtain (1982) [FLAC] (Japan MiniLP CD MHCP-544)\09 - Where's The Orchestra .wav

Pre-gap length 0:00:01.47

Peak level 93.1 %
Track quality 100.0 %
Test CRC 96FFA3EF
Copy CRC 96FFA3EF
Track not present in AccurateRip database
Copy OK


None of the tracks are present in the AccurateRip database

No errors occurred

End of status report


[CUETools log; Date: 03.11.2020 13:03:40; Version: 2.1.4]
[AccurateRip ID: 000eb07a-006bc84a-6709ca09] found.
Track [ CRC | V2 ] Status
01 [6562006a|16dc0694] (04+07/18) Accurately ripped
02 [dca38d6d|8a3ae7be] (04+07/18) Accurately ripped
03 [2dcafa81|b76b16ea] (04+07/18) Accurately ripped
04 [7e465c70|f333d860] (04+07/18) Accurately ripped
05 [15b47bee|302d5875] (04+07/18) Accurately ripped
06 [0430ddcd|9a4ef025] (04+07/18) Accurately ripped
07 [a3564d7d|195917d0] (04+07/18) Accurately ripped
08 [e68df41c|e278283e] (04+07/18) Accurately ripped
09 [ee56587c|9890b049] (04+07/18) Accurately ripped

Track Peak [ CRC32 ] [W/O NULL] [ LOG ]
– 96,5 [A3230A3A] [EAD3264F]
01 95,7 [A02738DA] [6E871313] CRC32
02 95,4 [62397467] [13CAA553] CRC32
03 96,5 [E27F4388] [4962D66F] CRC32
04 95,2 [9D3F0E19] [071CC6FD] CRC32
05 95,7 [3CBD3000] [D243F9BA] CRC32
06 95,9 [600B5DED] [AA704EAF] CRC32
07 96,1 [27E2B43C] [59A7C65C] CRC32
08 95,1 [54229F25] [CA436F79] CRC32
09 93,1 [96FFA3EF] [42CE3FDD] CRC32


Billy Joel: Japanese Mini LP Collection (1973-1983) [9CD, Remastered]

Tracklist CD09. 1983 - An Innocent Man (MHCP-545):

01. Easy Money (4:05)
02. An Innocent Man (5:18)
03. The Longest Time (3:40)
04. This Night (4:18)
05. Tell Her About It (3:53)
06. Uptown Girl (3:17)
07. Careless Talk (3:48)
08. Christie Lee (3:31)
09. Leave a Tender Moment Alone (3:56)
10. Keeping the Faith (4:39)

Exact Audio Copy V0.99 prebeta 4 from 23. January 2008

EAC extraction logfile from 8. July 2008, 16:40

Billy Joel / An Innocent Man (Japan MiniLP CD MHCP-545)

Used drive : PIONEER DVD-RW DVR-108 Adapter: 0 ID: 0

Read mode : Secure
Utilize accurate stream : Yes
Defeat audio cache : Yes
Make use of C2 pointers : No

Read offset correction : 48
Overread into Lead-In and Lead-Out : No
Fill up missing offset samples with silence : Yes
Delete leading and trailing silent blocks : No
Null samples used in CRC calculations : Yes
Used interface : Native Win32 interface for Win NT & 2000
Gap handling : Appended to previous track

Used output format : Internal WAV Routines
Sample format : 44.100 Hz; 16 Bit; Stereo


TOC of the extracted CD

Track | Start | Length | Start sector | End sector
––––––––––––––––––––––––––––-
1 | 0:00.00 | 4:04.57 | 0 | 18356
2 | 4:04.57 | 5:18.03 | 18357 | 42209
3 | 9:22.60 | 3:40.35 | 42210 | 58744
4 | 13:03.20 | 4:18.02 | 58745 | 78096
5 | 17:21.22 | 3:52.55 | 78097 | 95551
6 | 21:14.02 | 3:17.15 | 95552 | 110341
7 | 24:31.17 | 3:48.13 | 110342 | 127454
8 | 28:19.30 | 3:31.00 | 127455 | 143279
9 | 31:50.30 | 3:56.02 | 143280 | 160981
10 | 35:46.32 | 4:39.23 | 160982 | 181929


Track 1

Filename C:\Lossless\Billy Joel - An Innocent Man (1983) [FLAC] (Japan MiniLP CD MHCP-545)\01 - Easy Money.wav

Pre-gap length 0:00:02.00

Peak level 96.3 %
Track quality 100.0 %
Test CRC B3DA0075
Copy CRC B3DA0075
Track not present in AccurateRip database
Copy OK

Track 2

Filename C:\Lossless\Billy Joel - An Innocent Man (1983) [FLAC] (Japan MiniLP CD MHCP-545)\02 - An Innocent Man.wav

Peak level 97.0 %
Track quality 100.0 %
Test CRC DDED6C39
Copy CRC DDED6C39
Track not present in AccurateRip database
Copy OK

Track 3

Filename C:\Lossless\Billy Joel - An Innocent Man (1983) [FLAC] (Japan MiniLP CD MHCP-545)\03 - The Longest Time.wav

Peak level 96.5 %
Track quality 99.9 %
Test CRC 16722EEB
Copy CRC 16722EEB
Track not present in AccurateRip database
Copy OK

Track 4

Filename C:\Lossless\Billy Joel - An Innocent Man (1983) [FLAC] (Japan MiniLP CD MHCP-545)\04 - This Night.wav

Pre-gap length 0:00:01.33

Peak level 97.3 %
Track quality 99.9 %
Test CRC 63F55991
Copy CRC 63F55991
Track not present in AccurateRip database
Copy OK

Track 5

Filename C:\Lossless\Billy Joel - An Innocent Man (1983) [FLAC] (Japan MiniLP CD MHCP-545)\05 - Tell Her About It.wav

Pre-gap length 0:00:01.07

Peak level 96.6 %
Track quality 100.0 %
Test CRC 012376E3
Copy CRC 012376E3
Track not present in AccurateRip database
Copy OK

Track 6

Filename C:\Lossless\Billy Joel - An Innocent Man (1983) [FLAC] (Japan MiniLP CD MHCP-545)\06 - Uptown Girl.wav

Pre-gap length 0:00:01.50

Peak level 96.4 %
Track quality 100.0 %
Test CRC FD8243C8
Copy CRC FD8243C8
Track not present in AccurateRip database
Copy OK

Track 7

Filename C:\Lossless\Billy Joel - An Innocent Man (1983) [FLAC] (Japan MiniLP CD MHCP-545)\07 - Careless Talk.wav

Peak level 96.4 %
Track quality 100.0 %
Test CRC 71E55886
Copy CRC 71E55886
Track not present in AccurateRip database
Copy OK

Track 8

Filename C:\Lossless\Billy Joel - An Innocent Man (1983) [FLAC] (Japan MiniLP CD MHCP-545)\08 - Christie Lee.wav

Peak level 96.1 %
Track quality 100.0 %
Test CRC 09D27ABD
Copy CRC 09D27ABD
Track not present in AccurateRip database
Copy OK

Track 9

Filename C:\Lossless\Billy Joel - An Innocent Man (1983) [FLAC] (Japan MiniLP CD MHCP-545)\09 - Leave a Tender Moment Alone.wav

Peak level 96.2 %
Track quality 100.0 %
Test CRC B4BDBF4A
Copy CRC B4BDBF4A
Track not present in AccurateRip database
Copy OK

Track 10

Filename C:\Lossless\Billy Joel - An Innocent Man (1983) [FLAC] (Japan MiniLP CD MHCP-545)\10 - Keeping the Faith.wav

Pre-gap length 0:00:01.47

Peak level 96.1 %
Track quality 99.9 %
Test CRC 5F8EFCC9
Copy CRC 5F8EFCC9
Track not present in AccurateRip database
Copy OK


None of the tracks are present in the AccurateRip database

No errors occurred

End of status report


[CUETools log; Date: 03.11.2020 13:06:49; Version: 2.1.4]
[AccurateRip ID: 000f8476-007ae7c6-7d09790a] found.
Track [ CRC | V2 ] Status
01 [80e1c602|2d3e2ca7] (2+6/8) Accurately ripped
02 [4c92f305|3e5c235f] (2+6/8) Accurately ripped
03 [abdd7967|2a83f903] (2+6/8) Accurately ripped
04 [44c3ea70|1320d1cb] (2+6/8) Accurately ripped
05 [4e96b4ce|70d03318] (2+6/8) Accurately ripped
06 [e1d4dc1a|6594948f] (2+6/8) Accurately ripped
07 [a83d78f3|2ee35a88] (2+6/8) Accurately ripped
08 [bdd6d23f|98129cf5] (2+6/8) Accurately ripped
09 [1be7695d|f60f3e13] (2+6/8) Accurately ripped
10 [9f61cf51|e296507d] (2+6/8) Accurately ripped

Track Peak [ CRC32 ] [W/O NULL] [ LOG ]
– 97,3 [33399ADD] [9CA58BA2]
01 96,3 [B3DA0075] [D00686FD] CRC32
02 97,0 [DDED6C39] [41FF2561] CRC32
03 96,5 [16722EEB] [257A067D] CRC32
04 97,3 [63F55991] [1BE9885F] CRC32
05 96,5 [012376E3] [2796EE3C] CRC32
06 96,4 [FD8243C8] [4C81D247] CRC32
07 96,4 [71E55886] [7AE0DE8B] CRC32
08 96,1 [09D27ABD] [3AD74E94] CRC32
09 96,2 [B4BDBF4A] [479BFA44] CRC32
10 96,1 [5F8EFCC9] [E1BD8E75] CRC32


All thanks go to the original releaser

Billy Joel in my Blog

Download Billy Joel: Japanese Mini LP Collection (1973-1983):