Subcategories
Tags
Language
Tags

Billy Cobham - The Traveller (1994) {Eagle}

Posted By: tiburon
Billy Cobham - The Traveller (1994) {Eagle}

Billy Cobham - The Traveller (1994) {Eagle}
EAC 1.0b1 | FLAC Image | Cue+Log | Full Scans 600dpi | 480MB + 5% Recovery
MP3 CBR 320 Kbps | 154MB + 5% Recovery
Genre: Fusion

The overall feel of this recording is very similar to Incoming. Peter Wolpl remains on guitar, as does Nippy Noya on percussion. The pianist has been changed to Joe Chindamo; however, his style is similar to Rita Marcotulli's on Incoming. The music is very dense and cannot be listened to casually or infrequently if one wants to absorb the full impact of the recording. The underrated Wolpl provides an excellent acoustic guitar solo on "Alfa Waves." There are three vocal tracks here, which means a meager attempt at pop on a majority of contemporary jazz recordings.
Track List
01. Alfa Waves 8:39
02. All That Your Soul Provides 5:24
03. Balancing Act 6:42
04. What If? 5:03
05. Dippin' The Bisquites In The Soup 9:26
06. Fragolino 8:16
07. Just One Step Away 4:32
08. Mushu Creole Blues 7:58
09. On The Inside Track 5:47
10. Soul Provider 5:28

musicians
Billy Cobham - drums, percussion
Joe Chindamo - keyboards
Gary Husband - keyboards, drums
Peter Wolpl - guitar
Ira Coleman - bass
Mike Mondesir - bass
Nippy Noya - percussion
Carole Rowley - vocals

Produced by Billy Cobham


Exact Audio Copy V1.0 beta 1 from 15. November 2010

EAC extraction logfile from 19. December 2010, 15:45

Billy Cobham / The Traveller

Used drive : HL-DT-STDVD-RAM GSA-H55N Adapter: 0 ID: 2

Read mode : Secure
Utilize accurate stream : Yes
Defeat audio cache : Yes
Make use of C2 pointers : No

Read offset correction : 102
Overread into Lead-In and Lead-Out : Yes
Fill up missing offset samples with silence : Yes
Delete leading and trailing silent blocks : No
Null samples used in CRC calculations : Yes
Used interface : Installed external ASPI interface

Used output format : User Defined Encoder
Selected bitrate : 128 kBit/s
Quality : High
Add ID3 tag : No
Command line compressor : G:\Program Files\Exact Audio Copy\Encoder\wavpack.exe
Additional command line options : -hm -w "CUESHEET=@F:\WAV\%a - %g.cue" -w "Year=%y" -w "Genre=%m" %s %d


TOC of the extracted CD

Track | Start | Length | Start sector | End sector
––––––––––––––––––––––––––––-
1 | 0:00.00 | 8:42.50 | 0 | 39199
2 | 8:42.50 | 5:26.07 | 39200 | 63656
3 | 14:08.57 | 6:44.10 | 63657 | 93966
4 | 20:52.67 | 5:05.23 | 93967 | 116864
5 | 25:58.15 | 9:28.05 | 116865 | 159469
6 | 35:26.20 | 8:18.52 | 159470 | 196871
7 | 43:44.72 | 4:34.05 | 196872 | 217426
8 | 48:19.02 | 8:00.20 | 217427 | 253446
9 | 56:19.22 | 5:49.33 | 253447 | 279654
10 | 62:08.55 | 5:30.52 | 279655 | 304456


Range status and errors

Selected range

Filename F:\WAV\Billy Cobham - The Traveller.wav

Peak level 100.0 %
Extraction speed 0.4 X
Range quality 100.0 %
Test CRC 36F1034A
Copy CRC 36F1034A
Copy OK

No errors occurred


AccurateRip summary

Track 1 not present in database
Track 2 not present in database
Track 3 not present in database
Track 4 not present in database
Track 5 not present in database
Track 6 not present in database
Track 7 not present in database
Track 8 not present in database
Track 9 not present in database
Track 10 not present in database

None of the tracks are present in the AccurateRip database

End of status report

==== Log checksum C531321588E2727FC24C27E61A6A9C8D234CB63BE24F0BB59927F67F1326F1C5 ====


––––––––––––––––––––––––––––––––––––––––
Analyzed: Billy Cobham / The Traveller
––––––––––––––––––––––––––––––––––––––––

DR Peak RMS Duration Track
––––––––––––––––––––––––––––––––––––––––
DR13 0.00 dB -16.09 dB 8:43 01-Alfa Waves
DR13 -0.54 dB -14.49 dB 5:26 02-All That Your Soul Provides
DR13 -7.67 dB -23.68 dB 6:44 03-Balancing Act
DR13 -1.97 dB -17.35 dB 5:05 04-What If?
DR14 -0.60 dB -18.22 dB 9:28 05-Dippin' The Bisquites In The Soup
DR12 -0.55 dB -15.78 dB 8:19 06-Fragolino
DR14 -0.55 dB -15.83 dB 4:34 07-Just One Step Away
DR13 -0.55 dB -16.44 dB 8:00 08-Mushu Creole Blues
DR12 -0.72 dB -14.92 dB 5:49 09-On The Inside Track
DR11 -0.47 dB -13.07 dB 5:31 10-Soul Provider
––––––––––––––––––––––––––––––––––––––––

Number of tracks: 10
Official DR value: DR13

Samplerate: 44100 Hz
Channels: 2
Bits per sample: 16
Bitrate: 791 kbps
Codec: FLAC
================================================================================

Billy Cobham - The Traveller (1994) {Eagle}
Billy Cobham - The Traveller (1994) {Eagle}
Billy Cobham - The Traveller (1994) {Eagle}


Thanks to the original ripper