Subcategories
Please register here if you want to download anything!

If domain in your address bar is different from the list below
PLEASE LEAVE THAT SITE IMMEDIATELY
❗IT'S A DANGEROUS FAKE❗



Spicy Magazines for Men! ;-)

Bing Crosby/Frank Sinatra/Nat King Cole - It's Christmas Time (1989) {1992 LaserLight} **[RE-UP]**

Posted By: TestTickles
Bing Crosby/Frank Sinatra/Nat King Cole - It's Christmas Time (1989) {1992 LaserLight} **[RE-UP]**

Bing Crosby/Frank Sinatra/Nat King Cole - It's Christmas Time (1989) {1992 LaserLight}
EAC Rip | FLAC with CUE and log | scans | 172 mb
MP3 CBR 320kbps | RAR | 88 mb
Genre: pop, jazz, vocal jazz

It's Christmas Time is a compilation album released in 1989 that unites the music of Bing Crosby, Frank Sinatra, and Nat King Cole. This edition was released by LaserLight in 1992.

Bing Crosby/Frank Sinatra/Nat King Cole - It's Christmas Time (1989) {1992 LaserLight} **[RE-UP]**

1. Bing Crosby - Silent Night
2. Bing Crosby - Jingle Bells
3. Bing Crosby - White Christmas
4. Nat King Cole - Hark! The Herald Angels Sing
5. Frank Sinatra - O Come All Ye Faithful
6. Frank Sinatra - It Came Upon A Midnight Clear
7. Frank Sinatra - O Little Town Of Bethlehem
8. Frank Sinatra - Jingle Bells
9. Frank Sinatra - Silent Night
10. Bing Crosby - God Rest Ye Merry Gentlemen
11. Bing Crosby - Adeste Fideles (O Come All Ye Faithful)
12. Bing Crosby - I'll Be Home For Christmas
13. Bing Crosby - Joy To The World
14. Bing Crosby - The First Noël
15. Bing Crosby - Silver Bells
16. Nat King Cole - The Christmas Song

Exact Audio Copy V1.1 from 23. June 2015

EAC extraction logfile from 31. October 2016, 22:07

- / It's Christmas Time

Used drive : TEAC DVD-ROM DV-28SW Adapter: 1 ID: 0

Read mode : Secure
Utilize accurate stream : Yes
Defeat audio cache : Yes
Make use of C2 pointers : No

Read offset correction : 6
Overread into Lead-In and Lead-Out : No
Fill up missing offset samples with silence : Yes
Delete leading and trailing silent blocks : No
Null samples used in CRC calculations : Yes
Used interface : Native Win32 interface for Win NT & 2000
Gap handling : Appended to previous track

Used output format : Internal WAV Routines
Sample format : 44.100 Hz; 16 Bit; Stereo


TOC of the extracted CD

Track | Start | Length | Start sector | End sector
––––––––––––––––––––––––––––-
1 | 0:00.00 | 2:09.65 | 0 | 9739
2 | 2:09.65 | 2:41.08 | 9740 | 21822
3 | 4:50.73 | 1:37.55 | 21823 | 29152
4 | 6:28.53 | 2:28.27 | 29153 | 40279
5 | 8:57.05 | 2:16.05 | 40280 | 50484
6 | 11:13.10 | 1:29.70 | 50485 | 57229
7 | 12:43.05 | 1:40.40 | 57230 | 64769
8 | 14:23.45 | 2:31.48 | 64770 | 76142
9 | 16:55.18 | 3:07.25 | 76143 | 90192
10 | 20:02.43 | 2:16.55 | 90193 | 100447
11 | 22:19.23 | 3:13.45 | 100448 | 114967
12 | 25:32.68 | 2:58.07 | 114968 | 128324
13 | 28:31.00 | 1:46.43 | 128325 | 136317
14 | 30:17.43 | 2:28.37 | 136318 | 147454
15 | 32:46.05 | 3:06.00 | 147455 | 161404
16 | 35:52.05 | 3:14.20 | 161405 | 175974


Track 1

Filename C:\My Documents\My FLAC\Bing Crosby, Frank Sinatra, Nat King Cole - It's Christmas Time (1989) [FLAC] {1992 LaserLight}\01 - Bing Crosby - Silent Night.wav

Pre-gap length 0:00:02.00

Peak level 82.7 %
Extraction speed 2.4 X
Track quality 100.0 %
Test CRC 75A80088
Copy CRC 75A80088
Accurately ripped (confidence 20) [D7114095] (AR v2)
Copy OK

Track 2

Filename C:\My Documents\My FLAC\Bing Crosby, Frank Sinatra, Nat King Cole - It's Christmas Time (1989) [FLAC] {1992 LaserLight}\02 - Bing Crosby - Jingle Bells.wav

Pre-gap length 0:00:03.45

Peak level 81.4 %
Extraction speed 2.7 X
Track quality 100.0 %
Test CRC A075460F
Copy CRC A075460F
Accurately ripped (confidence 21) [369BB0FB] (AR v2)
Copy OK

Track 3

Filename C:\My Documents\My FLAC\Bing Crosby, Frank Sinatra, Nat King Cole - It's Christmas Time (1989) [FLAC] {1992 LaserLight}\03 - Bing Crosby - White Christmas.wav

Pre-gap length 0:00:03.63

Peak level 58.5 %
Extraction speed 2.4 X
Track quality 100.0 %
Test CRC F42F93E1
Copy CRC F42F93E1
Accurately ripped (confidence 21) [55C5E0FE] (AR v2)
Copy OK

Track 4

Filename C:\My Documents\My FLAC\Bing Crosby, Frank Sinatra, Nat King Cole - It's Christmas Time (1989) [FLAC] {1992 LaserLight}\04 - Nat King Cole - Santa Claus Is Coming To Town.wav

Pre-gap length 0:00:03.60

Peak level 71.2 %
Extraction speed 2.2 X
Track quality 99.9 %
Test CRC 6AF24833
Copy CRC 6AF24833
Accurately ripped (confidence 21) [53806D5C] (AR v2)
Copy OK

Track 5

Filename C:\My Documents\My FLAC\Bing Crosby, Frank Sinatra, Nat King Cole - It's Christmas Time (1989) [FLAC] {1992 LaserLight}\05 - Frank Sinatra - O Come All Ye Faithful.wav

Pre-gap length 0:00:03.52

Peak level 89.1 %
Extraction speed 3.0 X
Track quality 100.0 %
Test CRC F5FD67C2
Copy CRC F5FD67C2
Accurately ripped (confidence 21) [4D71DB87] (AR v2)
Copy OK

Track 6

Filename C:\My Documents\My FLAC\Bing Crosby, Frank Sinatra, Nat King Cole - It's Christmas Time (1989) [FLAC] {1992 LaserLight}\06 - Frank Sinatra - It Came Upon A Midnight Clear.wav

Pre-gap length 0:00:03.57

Peak level 71.1 %
Extraction speed 2.0 X
Track quality 99.8 %
Test CRC C10678B8
Copy CRC C10678B8
Accurately ripped (confidence 21) [DFE06444] (AR v2)
Copy OK

Track 7

Filename C:\My Documents\My FLAC\Bing Crosby, Frank Sinatra, Nat King Cole - It's Christmas Time (1989) [FLAC] {1992 LaserLight}\07 - Frank Sinatra - O Little Town Of Bethlehem.wav

Pre-gap length 0:00:04.00

Peak level 71.8 %
Extraction speed 2.6 X
Track quality 100.0 %
Test CRC 1761CF55
Copy CRC 1761CF55
Accurately ripped (confidence 21) [917F8789] (AR v2)
Copy OK

Track 8

Filename C:\My Documents\My FLAC\Bing Crosby, Frank Sinatra, Nat King Cole - It's Christmas Time (1989) [FLAC] {1992 LaserLight}\08 - Frank Sinatra - Jingle Bells.wav

Pre-gap length 0:00:04.17

Peak level 72.1 %
Extraction speed 3.4 X
Track quality 100.0 %
Test CRC 2C786EE8
Copy CRC 2C786EE8
Accurately ripped (confidence 21) [61B998A4] (AR v2)
Copy OK

Track 9

Filename C:\My Documents\My FLAC\Bing Crosby, Frank Sinatra, Nat King Cole - It's Christmas Time (1989) [FLAC] {1992 LaserLight}\09 - Frank Sinatra - Silent Night.wav

Pre-gap length 0:00:04.00

Peak level 73.3 %
Extraction speed 3.3 X
Track quality 100.0 %
Test CRC B64D426C
Copy CRC B64D426C
Accurately ripped (confidence 21) [3E71DB8B] (AR v2)
Copy OK

Track 10

Filename C:\My Documents\My FLAC\Bing Crosby, Frank Sinatra, Nat King Cole - It's Christmas Time (1989) [FLAC] {1992 LaserLight}\10 - Bing Crosby - God Rest Ye Merry Gentlemen.wav

Pre-gap length 0:00:03.63

Peak level 71.2 %
Extraction speed 3.5 X
Track quality 100.0 %
Test CRC B8580BEE
Copy CRC B8580BEE
Accurately ripped (confidence 21) [2F9C3879] (AR v2)
Copy OK

Track 11

Filename C:\My Documents\My FLAC\Bing Crosby, Frank Sinatra, Nat King Cole - It's Christmas Time (1989) [FLAC] {1992 LaserLight}\11 - Bing Crosby - Adeste Fideles (O Come All Ye Faithful).wav

Pre-gap length 0:00:04.05

Peak level 75.6 %
Extraction speed 3.9 X
Track quality 100.0 %
Test CRC 343AF8A1
Copy CRC 343AF8A1
Accurately ripped (confidence 21) [6491D77C] (AR v2)
Copy OK

Track 12

Filename C:\My Documents\My FLAC\Bing Crosby, Frank Sinatra, Nat King Cole - It's Christmas Time (1989) [FLAC] {1992 LaserLight}\12 - Bing Crosby - I'll Be Home For Christmas.wav

Pre-gap length 0:00:04.18

Peak level 82.3 %
Extraction speed 3.5 X
Track quality 100.0 %
Test CRC 943D0F7F
Copy CRC 943D0F7F
Accurately ripped (confidence 21) [176CF0EA] (AR v2)
Copy OK

Track 13

Filename C:\My Documents\My FLAC\Bing Crosby, Frank Sinatra, Nat King Cole - It's Christmas Time (1989) [FLAC] {1992 LaserLight}\13 - Bing Crosby - Joy To The World.wav

Pre-gap length 0:00:04.10

Peak level 95.4 %
Extraction speed 2.6 X
Track quality 99.9 %
Test CRC DBCA03A2
Copy CRC DBCA03A2
Accurately ripped (confidence 21) [6060C355] (AR v2)
Copy OK

Track 14

Filename C:\My Documents\My FLAC\Bing Crosby, Frank Sinatra, Nat King Cole - It's Christmas Time (1989) [FLAC] {1992 LaserLight}\14 - Bing Crosby - The First Noel.wav

Pre-gap length 0:00:04.08

Peak level 94.2 %
Extraction speed 3.8 X
Track quality 100.0 %
Test CRC 163C707E
Copy CRC 163C707E
Accurately ripped (confidence 21) [165B386A] (AR v2)
Copy OK

Track 15

Filename C:\My Documents\My FLAC\Bing Crosby, Frank Sinatra, Nat King Cole - It's Christmas Time (1989) [FLAC] {1992 LaserLight}\15 - Bing Crosby - Silver Bells.wav

Pre-gap length 0:00:03.57

Peak level 71.6 %
Extraction speed 4.3 X
Track quality 100.0 %
Test CRC 2C88673F
Copy CRC 2C88673F
Accurately ripped (confidence 20) [8C36AA3A] (AR v2)
Copy OK

Track 16

Filename C:\My Documents\My FLAC\Bing Crosby, Frank Sinatra, Nat King Cole - It's Christmas Time (1989) [FLAC] {1992 LaserLight}\16 - Nat King Cole - The Christmas Song.wav

Pre-gap length 0:00:04.07

Peak level 74.9 %
Extraction speed 4.4 X
Track quality 100.0 %
Test CRC 673C7746
Copy CRC 673C7746
Accurately ripped (confidence 21) [C71A6CC1] (AR v2)
Copy OK


All tracks accurately ripped

No errors occurred

End of status report

–– CUETools DB Plugin V2.1.6

[CTDB TOCID: P7UyeDOMCVc.NRDWJ2MxZI.Ddoo-] found
Submit result: P7UyeDOMCVc.NRDWJ2MxZI.Ddoo- has been confirmed
Track | CTDB Status
1 | (19/36) Accurately ripped
2 | (19/36) Accurately ripped
3 | (19/36) Accurately ripped
4 | (19/36) Accurately ripped
5 | (19/36) Accurately ripped
6 | (19/36) Accurately ripped
7 | (19/36) Accurately ripped
8 | (19/36) Accurately ripped
9 | (19/36) Accurately ripped
10 | (19/36) Accurately ripped
11 | (19/36) Accurately ripped
12 | (19/36) Accurately ripped
13 | (19/36) Accurately ripped
14 | (19/36) Accurately ripped
15 | (19/36) Accurately ripped
16 | (19/36) Accurately ripped


==== Log checksum 934FAD2419B963178E1C90880CAC4ADFB0958EBCF9B2D4ECC29623C4E97D089C ====


Bing Crosby/Frank Sinatra/Nat King Cole - It's Christmas Time (1989) {1992 LaserLight} **[RE-UP]**