Tags
Language
Tags

Black (Colin Vearncombe) - Blind Faith (2015)

Posted By: Designol
Black (Colin Vearncombe) - Blind Faith (2015)

Black (Colin Vearncombe) - Blind Faith (2015)
EAC | FLAC | Tracks (Cue&Log) ~ 264 Mb | Mp3 (CBR320) ~ 125 Mb | Scans included
Genre: Pop/Rock | Label: Nero Schwarz | # NEROCD19 | Time: 00:38:22

Colin Vearncombe will forever be preserved in pop aspic as the maker of 1987’s melancholy worldwide hit Wonderful Life – No 1 in Austria! – but he hasn’t stopped working, despite his not having breached the top 40 for 27 years. Blind Faith, his seventh album under the Black flag, is a marvellous little thing – a less temperamental, less self-regarding cousin to Scott Walker’s first four solo records. Like them, it’s steeped in European balladry, and filled with delicious arrangements – the swooping strings and jazzy shuffles of Womanly Panther are a delight. Vearncombe’s slightly frayed baritone is a perfect match to the music, steering it clear of pomposity, filling it with humanity, even when the regrets well up – “I am not the man you want me to be,” he sings on Not the Man, “Here comes the talking / Slamming doors you then have to throw open.” Pop stardom is a long way in the past for Vearncombe, but Blind Faith is an album by a man very much in control of his gifts.

Review by Michael Hann, The Guardian

Black (Colin Vearncombe) - Blind Faith (2015)



Tracklist:

01. The Love Show (03:42)
02. Don't Call Me Honey (02:55)
03. Good Liar (03:16)
04. Sleep Together (02:44)
05. Womanly Panther (03:07)
06. Who You Are (02:59)
07. Sunflower (02:14)
08. Not The Man (03:22)
09. Ashes of Angels (02:22)
10. Stone Soup (03:07)
11. When It's Over (02:53)
12. Beautiful (02:32)
13. Parade (03:02)


Exact Audio Copy V1.0 beta 4 from 7. December 2014

EAC extraction logfile from 14. July 2015, 4:43

Black / Blind Faith

Used drive : ASUS DRW-24F1ST a Adapter: 0 ID: 2

Read mode : Secure
Utilize accurate stream : Yes
Defeat audio cache : Yes
Make use of C2 pointers : No

Read offset correction : 6
Overread into Lead-In and Lead-Out : No
Fill up missing offset samples with silence : Yes
Delete leading and trailing silent blocks : No
Null samples used in CRC calculations : Yes
Used interface : Installed external ASPI interface
Gap handling : Appended to previous track

Used output format : User Defined Encoder
Selected bitrate : 896 kBit/s
Quality : High
Add ID3 tag : No
Command line compressor : C:\Program Files\FLAC\flac.exe
Additional command line options : -6 -V -T "ARTIST=%artist%" -T "TITLE=%title%" -T "ALBUM=%albumtitle%" -T "DATE=%year%" -T "TRACKNUMBER=%tracknr%" -T "GENRE=%genre%" -T "COMMENT=%comment%" %hascover%–picture="%coverfile%"%hascover% %source% -o %dest%


TOC of the extracted CD

Track | Start | Length | Start sector | End sector
––––––––––––––––––––––––––––-
1 | 0:00.00 | 3:42.65 | 0 | 16714
2 | 3:42.65 | 2:55.66 | 16715 | 29905
3 | 6:38.56 | 3:16.38 | 29906 | 44643
4 | 9:55.19 | 2:44.46 | 44644 | 56989
5 | 12:39.65 | 3:07.02 | 56990 | 71016
6 | 15:46.67 | 2:59.36 | 71017 | 84477
7 | 18:46.28 | 2:14.05 | 84478 | 94532
8 | 21:00.33 | 3:22.55 | 94533 | 109737
9 | 24:23.13 | 2:22.68 | 109738 | 120455
10 | 26:46.06 | 3:07.22 | 120456 | 134502
11 | 29:53.28 | 2:53.65 | 134503 | 147542
12 | 32:47.18 | 2:32.08 | 147543 | 158950
13 | 35:19.26 | 3:02.30 | 158951 | 172630


Track 1

Filename G:\00-My CD\Black\2015 Blind Faith\01 - Black - The Love Show.wav

Pre-gap length 0:00:02.00

Peak level 98.9 %
Extraction speed 4.2 X
Track quality 100.0 %
Test CRC 0F77A5C8
Copy CRC 0F77A5C8
Accurately ripped (confidence 3) [FC25C8FC] (AR v2)
Copy OK

Track 2

Filename G:\00-My CD\Black\2015 Blind Faith\02 - Black - Don't Call Me Honey.wav

Pre-gap length 0:00:01.09

Peak level 98.9 %
Extraction speed 4.4 X
Track quality 100.0 %
Test CRC 5064C401
Copy CRC 5064C401
Accurately ripped (confidence 3) [F3168B31] (AR v2)
Copy OK

Track 3

Filename G:\00-My CD\Black\2015 Blind Faith\03 - Black - Good Liar.wav

Pre-gap length 0:00:00.65

Peak level 98.9 %
Extraction speed 3.8 X
Track quality 99.9 %
Test CRC 800DC184
Copy CRC 800DC184
Accurately ripped (confidence 3) [08F02CD5] (AR v2)
Copy OK

Track 4

Filename G:\00-My CD\Black\2015 Blind Faith\04 - Black - Sleep Together.wav

Peak level 98.9 %
Extraction speed 5.0 X
Track quality 100.0 %
Test CRC 4854D3E6
Copy CRC 4854D3E6
Accurately ripped (confidence 3) [6A6488B0] (AR v2)
Copy OK

Track 5

Filename G:\00-My CD\Black\2015 Blind Faith\05 - Black - Womanly Panther.wav

Pre-gap length 0:00:00.23

Peak level 98.9 %
Extraction speed 5.3 X
Track quality 100.0 %
Test CRC C120F539
Copy CRC C120F539
Accurately ripped (confidence 3) [01C041EF] (AR v2)
Copy OK

Track 6

Filename G:\00-My CD\Black\2015 Blind Faith\06 - Black - Who You Are.wav

Pre-gap length 0:00:00.10

Peak level 98.9 %
Extraction speed 5.6 X
Track quality 100.0 %
Test CRC A6316509
Copy CRC A6316509
Accurately ripped (confidence 3) [370593C1] (AR v2)
Copy OK

Track 7

Filename G:\00-My CD\Black\2015 Blind Faith\07 - Black - Sunflower.wav

Pre-gap length 0:00:01.14

Peak level 98.8 %
Extraction speed 5.4 X
Track quality 100.0 %
Test CRC 2CB7944F
Copy CRC 2CB7944F
Accurately ripped (confidence 3) [2ABFE040] (AR v2)
Copy OK

Track 8

Filename G:\00-My CD\Black\2015 Blind Faith\08 - Black - Not The Man.wav

Pre-gap length 0:00:00.09

Peak level 98.9 %
Extraction speed 6.2 X
Track quality 100.0 %
Test CRC 7CF4F4F1
Copy CRC 7CF4F4F1
Accurately ripped (confidence 3) [18917560] (AR v2)
Copy OK

Track 9

Filename G:\00-My CD\Black\2015 Blind Faith\09 - Black - Ashes of Angels.wav

Pre-gap length 0:00:01.49

Peak level 98.9 %
Extraction speed 6.0 X
Track quality 100.0 %
Test CRC 38E32DD1
Copy CRC 38E32DD1
Accurately ripped (confidence 3) [1E440635] (AR v2)
Copy OK

Track 10

Filename G:\00-My CD\Black\2015 Blind Faith\10 - Black - Stone Soup.wav

Pre-gap length 0:00:01.25

Peak level 98.9 %
Extraction speed 6.4 X
Track quality 100.0 %
Test CRC 68EA49A5
Copy CRC 68EA49A5
Accurately ripped (confidence 3) [C7DCC016] (AR v2)
Copy OK

Track 11

Filename G:\00-My CD\Black\2015 Blind Faith\11 - Black - When It's Over.wav

Pre-gap length 0:00:01.16

Peak level 98.9 %
Extraction speed 6.4 X
Track quality 100.0 %
Test CRC 37D3C427
Copy CRC 37D3C427
Accurately ripped (confidence 3) [DBC96F56] (AR v2)
Copy OK

Track 12

Filename G:\00-My CD\Black\2015 Blind Faith\12 - Black - Beautiful.wav

Pre-gap length 0:00:01.17

Peak level 98.8 %
Extraction speed 6.6 X
Track quality 100.0 %
Test CRC E5413693
Copy CRC E5413693
Accurately ripped (confidence 3) [61E15B42] (AR v2)
Copy OK

Track 13

Filename G:\00-My CD\Black\2015 Blind Faith\13 - Black - Parade.wav

Pre-gap length 0:00:02.03

Peak level 98.9 %
Extraction speed 6.9 X
Track quality 100.0 %
Test CRC 886D3FA6
Copy CRC 886D3FA6
Accurately ripped (confidence 3) [73D6ECA1] (AR v2)
Copy OK


All tracks accurately ripped

No errors occurred

End of status report

==== Log checksum 5D8B202BF7BECA9E4F52EAC9FDA5FEFFF8589AC22EF331E9B1AAD21405F8D0D1 ====

foobar2000 1.2 / Dynamic Range Meter 1.1.1
log date: 2016-01-27 22:17:32

––––––––––––––––––––––––––––––––––––––––
Analyzed: Black / Blind Faith
––––––––––––––––––––––––––––––––––––––––

DR Peak RMS Duration Track
––––––––––––––––––––––––––––––––––––––––
DR8 -0.10 dB -10.03 dB 3:43 01-The Love Show
DR7 -0.10 dB -9.07 dB 2:56 02-Don't Call Me Honey
DR7 -0.10 dB -9.50 dB 3:17 03-Good Liar
DR8 -0.10 dB -9.17 dB 2:45 04-Sleep Together
DR8 -0.10 dB -9.65 dB 3:07 05-Womanly Panther
DR9 -0.10 dB -10.83 dB 2:59 06-Who You Are
DR9 -0.10 dB -11.37 dB 2:14 07-Sunflower
DR7 -0.10 dB -10.42 dB 3:23 08-Not The Man
DR7 -0.09 dB -8.97 dB 2:23 09-Ashes of Angels
DR7 -0.10 dB -9.41 dB 3:07 10-Stone Soup
DR7 -0.09 dB -9.28 dB 2:54 11-When It's Over
DR12 -0.10 dB -15.25 dB 2:32 12-Beautiful
DR6 -0.10 dB -7.96 dB 3:02 13-Parade
––––––––––––––––––––––––––––––––––––––––

Number of tracks: 13
Official DR value: DR8

Samplerate: 44100 Hz
Channels: 2
Bits per sample: 16
Bitrate: 807 kbps
Codec: FLAC
================================================================================

Black (Colin Vearncombe) - Blind Faith (2015)

Black (Colin Vearncombe) - Blind Faith (2015)

All thanks to original releaser - Electrolight

More interesting music in My Blog