Tags
Language
Tags

Blackmore's Night: Discography (1997 - 2015) Re-up

Posted By: v3122
Blackmore's Night: Discography (1997 - 2015) Re-up

Blackmore's Night: Discography (1997 - 2015)
EAC | Flac(Image) + Cue + Log & MP3 CBR 320Kbps
11CD | Label: Various | ~ 3551 or 1543 Mb | Artwork(jpg) -> 1287 Mb
Folk Rock

Legendary Deep Purple and Rainbow guitarist Ritchie Blackmore (b. April 14, 1945, Weston-super-Mare, England) shifted his musical focus away from hard rock in the late '90s and started concentrating on his love of Renaissance-era music. He formed Blackmore's Night with his fiancée, vocalist/lyricist Candice Night (b. May 8, 1971, Hauppauge, Long Island, New York), and recruited other musicians from around the world to combine elements of world music, Renaissance, new age, folk, and rock & roll. Blackmore didn't exactly retire his Fender Stratocaster, but he plays acoustic guitar almost exclusively in Blackmore's Night. His acoustic guitar melodies and Night's clear, ethereal voice blend with a host of instruments such as mandolins, keyboards, pennywhistles, violins, tambourines, military drums, and hurdy-gurdies. Blackmore once described the band's sound as "Mike Oldfield meets Enya."

Blackmore and Night met in about 1989 when Deep Purple played soccer against employees of a Long Island radio station where she worked. Night, a former model, studied communications at the New York Institute of Technology and had her own radio show. Blackmore and Night discovered they shared a love of Renaissance culture and quickly became a couple. The formation of Blackmore's Night is tied to the efforts of his previous two bands. Blackmore left Deep Purple – again – after 1993's musically disappointing The Battle Rages On… album. Blackmore then revived Rainbow – technically under the original Ritchie Blackmore's Rainbow moniker – with largely unknown musicians for 1995's Stranger in Us All, and Night contributed lyrics for four songs. Blackmore didn't really want to call it a Rainbow project, but record company executives insisted the name recognition would make it easier to market the album.

After Stranger in Us All, Blackmore decided to actually record Renaissance-inspired music. He'd loved the style for years, but he never really played it himself. Once he began playing the music at home, Night would casually start singing along. This innocent, informal practice germinated in Blackmore's Night. The debut Night and Blackmore-penned album Shadow of the Moon, was released domestically in 1998, and featured Jethro Tull's Ian Anderson, who contributed flute on "Play Minstrel Play." Under a Violet Moon followed in 1999, and since a full tour was planned, Blackmore consciously wrote more upbeat, stage-friendly music. The duo continued to release albums throughout the noughties, including 2003's Ghost of a Rose, 2006's The Village Lanterne, and 2008's Secret Voyage. In 2010, Blackmore and Night released their eighth studio album, Autumn Sky. Dedicated to their newly born daughter, the album went on to reach the number 15 spot on the German album charts. Night released his solo debut, Reflections, in 2011. Dancer and the Moon, Blackmore's Night's ninth release, appeared in 2013, followed in 2015 by All Our Yesterdays, both of which were issued via Frontiers Records.

by Bret Adams, allmusic
Blackmore's Night: Discography (1997 - 2015) Re-up

Blackmore's Night: Discography (1997 - 2015):

Blackmore's Night: Discography (1997 - 2015) Re-up

Tracklist CD01 - 1997 - Shadow Of The Moon [Edel 0099022WHE]:

01. Shadow Of The Moon (5:07)
02. The Clock Ticks On (5:15)
03. Be Mine Tonight (2:51)
04. Play Minstrel Play (3:59)
05. Ocean Gypsy (6:06)
06. Minstrel Hall (2:36)
07. Magical World (4:01)
08. Writing On The Wall (4:35)
09. Renaissance Faire (4:16)
10. Memmingen (1:06)
11. No Second Chance (5:38)
12. Mond Tanz (3:33)
13. Spirit Of The Sea (4:50)
14. Greensleeves (3:47)
15. Wish You Were Here (5:01)

Отчёт EAC об извлечении, выполненном 4. мая 2007, 19:26 для диска:
Blackmore's Night / Shadow Of The Moon

Дисковод: SONY DVD-ROM DDU1611 Adapter: 0 ID: 0
Режим чтения: Достоверный (C2: нет, Точный поток: да, Отключение кэша: да)
Комбинированное смещение чтения/записи: 0
Способность читать области Lead-in и Lead-out : Нет

Выходной формат: Внутренние WAV-операции
44.100 Гц; 16 бит; стерео

Другие параметры:
Заполнение пропущенных сэмплов тишиной : Да
Удаление блоков с тишиной в начале и конце : Нет
Встроенный Win32-интерфейс для Win NT/2000


Характеристики диапазона извлечения и сообщения об ошибках
Выбранный диапазон
Имя файла F:\Blackmore's Night\Blackmore's Night - Shadow Of The Moon\Blackmore's Night - Shadow Of The Moon.wav

Пиковый уровень 100.0 %
Качество диапазона 100.0 %
CRC 7A2635E2
Копирование… OK

Ошибок не произошло

Конец отчёта


[CUETools log; Date: 30.07.2019 10:51:59; Version: 2.1.4]
[AccurateRip ID: 0022cf7d-0186485f-d90eb10f] found.
Track [ CRC | V2 ] Status
01 [a15428eb|1d43c77d] (000+000/334) No match
02 [a5d42966|095df264] (000+000/330) No match
03 [3cfd0729|e72705b6] (000+000/331) No match
04 [8d93e770|ce106b21] (000+000/332) No match
05 [3a528857|3ce8bcd3] (000+000/331) No match
06 [bca83ad4|e2108b96] (000+000/335) No match
07 [ec7341f1|22432f33] (000+000/332) No match
08 [0ccb6d96|f5bdb208] (000+000/335) No match
09 [b18ab46e|0e248e92] (000+000/334) No match
10 [e73f871e|d7afe324] (000+000/336) No match
11 [212c3ef7|7eae787e] (000+000/335) No match
12 [183a8f04|8750e2e3] (000+000/331) No match
13 [bfec62dd|bd30051d] (000+000/331) No match
14 [217fd902|5f7c5879] (000+000/335) No match
15 [076ceaff|f964a722] (000+000/327) No match
Offsetted by -87:
01 [3894836c] (005/334) Accurately ripped
02 [b29607d2] (005/330) Accurately ripped
03 [0cd1f245] (005/331) Accurately ripped
04 [e1843b0b] (005/332) Accurately ripped
05 [e569f04a] (005/331) Accurately ripped
06 [6f02500e] (005/335) Accurately ripped
07 [f2a28084] (005/332) Accurately ripped
08 [5158af75] (005/335) Accurately ripped
09 [dc670698] (005/334) Accurately ripped
10 [28c40db7] (005/336) Accurately ripped
11 [f0d536bf] (005/335) Accurately ripped
12 [128d9887] (005/331) Accurately ripped
13 [37682a3c] (005/331) Accurately ripped
14 [536e78c7] (005/335) Accurately ripped
15 [802d3be7] (005/327) Accurately ripped
Offsetted by 594:
01 [755628ed] (130/334) Accurately ripped
02 [f6738a3e] (133/330) Accurately ripped
03 [24c21161] (132/331) Accurately ripped
04 [12af77a6] (132/332) Accurately ripped
05 [bbd6093d] (132/331) Accurately ripped
06 [91036348] (133/335) Accurately ripped
07 [4f775017] (132/332) Accurately ripped
08 [26ac9375] (130/335) Accurately ripped
09 [951e9753] (131/334) Accurately ripped
10 [7b950c16] (131/336) Accurately ripped
11 [10bf4eae] (132/335) Accurately ripped
12 [d952e2f7] (132/331) Accurately ripped
13 [3e1b469b] (134/331) Accurately ripped
14 [50ff4f8c] (133/335) Accurately ripped
15 [885d84cf] (128/327) Accurately ripped
Offsetted by -751:
01 [397cba94] (000/334) No match (V2 was not tested)
02 [7af0ccb2] (000/330) No match (V2 was not tested)
03 [e3cfc2a5] (000/331) No match (V2 was not tested)
04 [d4e94c43] (000/332) No match (V2 was not tested)
05 [9548b742] (000/331) No match (V2 was not tested)
06 [e679ef1e] (000/335) No match (V2 was not tested)
07 [27b8b07c] (000/332) No match (V2 was not tested)
08 [71190e89] (000/335) No match (V2 was not tested)
09 [306b7c99] (000/334) No match (V2 was not tested)
10 [b314333e] (000/336) No match (V2 was not tested)
11 [b34d1f0b] (000/335) No match (V2 was not tested)
12 [8fd2f71f] (000/331) No match (V2 was not tested)
13 [02bbeecc] (000/331) No match (V2 was not tested)
14 [0b5f8e8f] (000/335) No match (V2 was not tested)
15 [c17f1827] (000/327) No match (V2 was not tested)
Offsetted by -746:
01 [3c909211] (000/334) No match (V2 was not tested)
02 [424ca56e] (000/330) No match (V2 was not tested)
03 [b19d4551] (000/331) No match (V2 was not tested)
04 [3a04ae72] (000/332) No match (V2 was not tested)
05 [dae64469] (000/331) No match (V2 was not tested)
06 [aa340570] (000/335) No match (V2 was not tested)
07 [f84919c3] (000/332) No match (V2 was not tested)
08 [20de01bf] (000/335) No match (V2 was not tested)
09 [18473150] (000/334) No match (V2 was not tested)
10 [835661a3] (000/336) No match (V2 was not tested)
11 [a575f1dc] (000/335) No match (V2 was not tested)
12 [77f12867] (000/331) No match (V2 was not tested)
13 [6917d17d] (000/331) No match (V2 was not tested)
14 [31b2f240] (000/335) No match (V2 was not tested)
15 [7cc37d6f] (000/327) No match (V2 was not tested)
Offsetted by -734:
01 [7726973d] (000/334) No match (V2 was not tested)
02 [872913fe] (000/330) No match (V2 was not tested)
03 [d2bdb221] (000/331) No match (V2 was not tested)
04 [f9799a16] (000/332) No match (V2 was not tested)
05 [1b93972d] (000/331) No match (V2 was not tested)
06 [7ff2a168] (000/335) No match (V2 was not tested)
07 [b9a3b007] (000/332) No match (V2 was not tested)
08 [93837ca7] (000/335) No match (V2 was not tested)
09 [24735646] (000/334) No match (V2 was not tested)
10 [de0a37bd] (000/336) No match (V2 was not tested)
11 [a6125238] (000/335) No match (V2 was not tested)
12 [b58e3847] (000/331) No match (V2 was not tested)
13 [f863be59] (000/331) No match (V2 was not tested)
14 [c0e17b1c] (000/335) No match (V2 was not tested)
15 [0b013d4f] (000/327) No match (V2 was not tested)
Offsetted by -684:
01 [95ed021f] (000/334) No match (V2 was not tested)
02 [50bf8b56] (000/330) No match
03 [dcc4ccd9] (000/331) No match
04 [ec8b6fec] (000/332) No match
05 [d3bb1ab3] (000/331) No match
06 [2537809c] (000/335) No match
07 [df47cccd] (000/332) No match
08 [7134fcc3] (000/335) No match
09 [467733e5] (000/334) No match
10 [085d0cee] (000/336) No match
11 [75028e62] (000/335) No match
12 [0bac2517] (000/331) No match
13 [f73e9943] (000/331) No match
14 [40236006] (000/335) No match
15 [5bad321f] (000/327) No match
Offsetted by -674:
01 [9c14b119] (000/334) No match (V2 was not tested)
02 [df773cce] (000/330) No match (V2 was not tested)
03 [785fd231] (000/331) No match (V2 was not tested)
04 [b6c2344a] (000/332) No match (V2 was not tested)
05 [5ef63501] (000/331) No match (V2 was not tested)
06 [acabad40] (000/335) No match (V2 was not tested)
07 [80689f5b] (000/332) No match (V2 was not tested)
08 [d0bee32f] (000/335) No match (V2 was not tested)
09 [213c5e43] (000/334) No match (V2 was not tested)
10 [aa1a6b98] (000/336) No match (V2 was not tested)
11 [d7edaf1b] (000/335) No match (V2 was not tested)
12 [758287b8] (000/331) No match (V2 was not tested)
13 [c39a5ea5] (000/331) No match (V2 was not tested)
14 [8cca2768] (000/335) No match (V2 was not tested)
15 [d235fcaf] (000/327) No match (V2 was not tested)
Offsetted by -662:
01 [d6aab645] (000/334) No match
02 [2453ab5e] (000/330) No match (V2 was not tested)
03 [99803f01] (000/331) No match
04 [76371fee] (000/332) No match
05 [9fa387c5] (000/331) No match
06 [826a4938] (000/335) No match
07 [41c3359f] (000/332) No match
08 [43645e17] (000/335) No match
09 [96f7e6b3] (000/334) No match
10 [065d43a8] (000/336) No match
11 [ffb30f5f] (000/335) No match
12 [8d3f20b2] (000/331) No match
13 [528a4b77] (000/331) No match
14 [1bf8b044] (000/335) No match
15 [6073bc8f] (000/327) No match
Offsetted by -284:
01 [8c20592f] (000/334) No match
02 [9d734616] (000/330) No match (V2 was not tested)
03 [2cfda299] (000/331) No match (V2 was not tested)
04 [851a1e9c] (000/332) No match
05 [94f736e3] (000/331) No match
06 [4f5e7a3c] (000/335) No match (V2 was not tested)
07 [0c68b2fd] (000/332) No match (V2 was not tested)
08 [e83016d3] (000/335) No match (V2 was not tested)
09 [42e9c45c] (000/334) No match
10 [94edd53f] (000/336) No match
11 [877d31b5] (000/335) No match (V2 was not tested)
12 [ab52852f] (000/331) No match (V2 was not tested)
13 [e5ce7414] (000/331) No match (V2 was not tested)
14 [3a328756] (000/335) No match (V2 was not tested)
15 [e10cd89f] (000/327) No match (V2 was not tested)
Offsetted by -106:
01 [c67c5091] (000/334) No match (V2 was not tested)
02 [f039036e] (000/330) No match
03 [985e9b51] (000/331) No match (V2 was not tested)
04 [c7b5c5f2] (000/332) No match (V2 was not tested)
05 [a9acd7e9] (000/331) No match (V2 was not tested)
06 [873f2e70] (002/335) Accurately ripped
07 [407dbd43] (000/332) No match (V2 was not tested)
08 [1ca3ac30] (002/335) Accurately ripped
09 [b7fbb407] (002/334) Accurately ripped
10 [3c579597] (002/336) Accurately ripped
11 [55fa495d] (002/335) Accurately ripped
12 [e058aa48] (000/331) No match (V2 was not tested)
13 [80a03277] (000/331) No match (V2 was not tested)
14 [5b64cac0] (000/335) No match
15 [1ef6216f] (000/327) No match
Offsetted by 6:
01 [3e9f2b81] (000/334) No match (V2 was not tested)
02 [c84260ae] (000/330) No match (V2 was not tested)
03 [cd8d3d91] (000/331) No match (V2 was not tested)
04 [6d4e5d42] (000/332) No match (V2 was not tested)
05 [5aa931b9] (000/331) No match (V2 was not tested)
06 [a78788d0] (000/335) No match (V2 was not tested)
07 [4d208d13] (000/332) No match (V2 was not tested)
08 [45dc2b40] (000/335) No match (V2 was not tested)
09 [0e63e615] (000/334) No match (V2 was not tested)
10 [1828f161] (000/336) No match (V2 was not tested)
11 [1fd66e8f] (000/335) No match (V2 was not tested)
12 [fd9f974e] (000/331) No match (V2 was not tested)
13 [071bd987] (000/331) No match (V2 was not tested)
14 [e9171d70] (000/335) No match (V2 was not tested)
15 [4e8bcaef] (000/327) No match (V2 was not tested)
Offsetted by 325:
01 [695ddfa8] (000/334) No match (V2 was not tested)
02 [44263122] (000/330) No match (V2 was not tested)
03 [7e2b34d5] (000/331) No match (V2 was not tested)
04 [3987d55f] (000/332) No match (V2 was not tested)
05 [e7535f3e] (000/331) No match (V2 was not tested)
06 [6ee7e5a6] (000/335) No match (V2 was not tested)
07 [e11dfcf8] (000/332) No match (V2 was not tested)
08 [29a77623] (000/335) No match (V2 was not tested)
09 [82426941] (000/334) No match (V2 was not tested)
10 [48757720] (000/336) No match (V2 was not tested)
11 [5d2743fc] (000/335) No match (V2 was not tested)
12 [1bbe3076] (000/331) No match (V2 was not tested)
13 [9f1cfe80] (000/331) No match (V2 was not tested)
14 [dcac28f3] (000/335) No match (V2 was not tested)
15 [93caa247] (000/327) No match (V2 was not tested)
Offsetted by 418:
01 [6f6887bd] (000/334) No match
02 [59d289fe] (002/330) Accurately ripped
03 [3ee68021] (002/331) Accurately ripped
04 [c551f796] (002/332) Accurately ripped
05 [5c92a0ad] (002/331) Accurately ripped
06 [a76d1e68] (002/335) Accurately ripped
07 [3b9c0987] (002/332) Accurately ripped
08 [089c9cc5] (002/335) Accurately ripped
09 [298896c9] (002/334) Accurately ripped
10 [905078f0] (002/336) Accurately ripped
11 [f4c2cdbe] (002/335) Accurately ripped
12 [a4b43cc7] (002/331) Accurately ripped
13 [6d65adcb] (002/331) Accurately ripped
14 [7254cd9c] (002/335) Accurately ripped
15 [6229314f] (002/327) Accurately ripped
Offsetted by 420:
01 [a3d6ddef] (002/334) Accurately ripped
02 [0ff74716] (000/330) No match
03 [c46be799] (000/331) No match
04 [ba901edc] (000/332) No match
05 [1204d923] (000/331) No match
06 [f5b78dbc] (000/335) No match
07 [5bd5cd3d] (000/332) No match
08 [ae813107] (000/335) No match
09 [f810e065] (000/334) No match
10 [4d46f216] (000/336) No match
11 [e0ae87f4] (000/335) No match
12 [9c94ea87] (000/331) No match
13 [2fc4d559] (000/331) No match
14 [b4dc8f16] (000/335) No match
15 [79de269f] (000/327) No match
Offsetted by 588:
01 [d80b2657] (002/334) Accurately ripped
02 [d40552f6] (000/330) No match (V2 was not tested)
03 [9431daf9] (000/331) No match (V2 was not tested)
04 [32f501d4] (000/332) No match (V2 was not tested)
05 [9b7f5fdb] (000/331) No match (V2 was not tested)
06 [a624154c] (000/335) No match (V2 was not tested)
07 [eeca04f5] (000/332) No match (V2 was not tested)
08 [b78fd6af] (002/335) Accurately ripped
09 [cfdd5ebd] (000/334) No match (V2 was not tested)
10 [4368a16e] (000/336) No match (V2 was not tested)
11 [e315e63f] (000/335) No match (V2 was not tested)
12 [f123dac8] (000/331) No match (V2 was not tested)
13 [f6fdcff1] (000/331) No match (V2 was not tested)
14 [89680b1e] (000/335) No match (V2 was not tested)
15 [413ea4df] (000/327) No match (V2 was not tested)

Track Peak [ CRC32 ] [W/O NULL]
– 100,0 [7A2635E2] [60AEF937]
01 95,5 [738C8A17] [7F347490]
02 99,6 [837EFAF0] [787D72B9]
03 99,9 [DCAC804D] [CDB87075]
04 100,0 [C40B269E] [62FDA18A]
05 98,9 [D714ABAB] [193B811E]
06 93,3 [028FA9A0] [D4592AAF]
07 94,1 [8CDA4162] [37C8C0D0]
08 97,7 [BFBD5512] [64D54F16]
09 93,1 [D99B82FF] [68227C63]
10 82,0 [5884464C] [FD42F831]
11 92,2 [570BFF60] [309BD3AC]
12 97,7 [3D9E8536] [3B28772A]
13 98,8 [12290049] [0EF3D160]
14 98,8 [69BBDA5E] [01DB2C2C]
15 100,0 [C3B53412] [1A7F8CF3]


Blackmore's Night: Discography (1997 - 2015) Re-up

Tracklist CD02 - 1999 - Under A Violet Moon [Edel 0044732ERE]:

01. Under A Violet Moon (4:23)
02. Castles And Dreams (3:33)
03. Past Time With Good Company (3:24)
04. Morning Star (4:41)
05. Avalon (3:03)
06. Possum Goes To Prague (1:13)
07. Wind In The Willows (4:12)
08. Gone With The Wind (5:24)
09. Beyond The Sunset (3:45)
10. March The Heroes Home (4:39)
11. Spanish Nights (I Remember It Well) (5:23)
12. Catherine Howard's Fate (2:34)
13. Fool's Gold (3:32)
14. Durch Den Wald Zum Bach Haus (2:31)
15. Now And Then (3:11)
16. Self Portrait (3:18)

Отчёт EAC об извлечении, выполненном 4. мая 2007, 20:06 для диска:
Blackmore's Night / Under A Violet Moon

Дисковод: SONY DVD-ROM DDU1611 Adapter: 0 ID: 0
Режим чтения: Достоверный (C2: нет, Точный поток: да, Отключение кэша: да)
Комбинированное смещение чтения/записи: 0
Способность читать области Lead-in и Lead-out : Нет

Выходной формат: Внутренние WAV-операции
44.100 Гц; 16 бит; стерео

Другие параметры:
Заполнение пропущенных сэмплов тишиной : Да
Удаление блоков с тишиной в начале и конце : Нет
Встроенный Win32-интерфейс для Win NT/2000


Характеристики диапазона извлечения и сообщения об ошибках
Выбранный диапазон
Имя файла F:\Blackmore's Night\Blackmore's Night - Under A Violet Moon\Blackmore's Night - Under A Violet Moon.wav

Пиковый уровень 100.0 %
Качество диапазона 99.9 %
CRC 9B5D071F
Копирование… OK

Ошибок не произошло

Конец отчёта


[CUETools log; Date: 30.07.2019 10:55:55; Version: 2.1.4]
[AccurateRip ID: 00232486-01a517e6-e00dc810] found.
Track [ CRC | V2 ] Status
01 [5f132925|5ec69c73] (000+000/284) No match
02 [7939e8c2|7003d4ee] (000+000/287) No match
03 [55f6b5cc|ccd7a15e] (000+000/287) No match
04 [8639ce03|8dcb5a22] (000+000/287) No match
05 [045e55a9|26337895] (000+000/287) No match
06 [2b7641a2|1fffa2b5] (000+000/286) No match
07 [9d01264e|44861c55] (000+000/285) No match
08 [d118e7c1|234ea085] (000+000/284) No match
09 [11073017|a7cb71b5] (000+000/285) No match
10 [294b47ee|26fce30e] (000+000/283) No match
11 [d4000ad7|e941e024] (000+000/282) No match
12 [b9a83be2|6f28da50] (000+000/281) No match
13 [c19a2546|f4fe248a] (000+000/279) No match
14 [612b4b4a|0b45e95a] (000+000/278) No match
15 [88f25e84|7b78c212] (000+000/276) No match
16 [1d5bbf55|174c1d15] (000+000/276) No match
Offsetted by -1263:
01 [a24c2f45] (014/284) Accurately ripped
02 [434e07c1] (015/287) Accurately ripped
03 [2ffb6d49] (015/287) Accurately ripped
04 [a54fc6ba] (015/287) Accurately ripped
05 [99793662] (015/287) Accurately ripped
06 [f9530f78] (015/286) Accurately ripped
07 [d900c851] (014/285) Accurately ripped
08 [870ce19c] (015/284) Accurately ripped
09 [cbcd3e6c] (015/285) Accurately ripped
10 [b091eb27] (015/283) Accurately ripped
11 [efa2d47c] (015/282) Accurately ripped
12 [b5d901f0] (015/281) Accurately ripped
13 [e415b696] (015/279) Accurately ripped
14 [3d021f4d] (014/278) Accurately ripped
15 [ac32f8b6] (014/276) Accurately ripped
16 [0712ef41] (014/276) Accurately ripped
Offsetted by -97:
01 [8d963905] (006/284) Accurately ripped
02 [85b4aa13] (006/287) Accurately ripped
03 [2a1a573f] (006/287) Accurately ripped
04 [16e72c1c] (006/287) Accurately ripped
05 [2e6d2b20] (006/287) Accurately ripped
06 [eca0c0ec] (006/286) Accurately ripped
07 [3325335b] (006/285) Accurately ripped
08 [9ac3a976] (006/284) Accurately ripped
09 [8a64d732] (006/285) Accurately ripped
10 [621992e5] (006/283) Accurately ripped
11 [efa96da2] (006/282) Accurately ripped
12 [76e1b174] (006/281) Accurately ripped
13 [7c0dc82a] (005/279) Accurately ripped
14 [27186deb] (005/278) Accurately ripped
15 [80b574b2] (005/276) Accurately ripped
16 [1d10d5a9] (005/276) Accurately ripped
Offsetted by -73:
01 [bec79c05] (017/284) Accurately ripped
02 [a791037b] (017/287) Accurately ripped
03 [37981f77] (017/287) Accurately ripped
04 [cb84dac4] (017/287) Accurately ripped
05 [d234b6f8] (017/287) Accurately ripped
06 [fc2cabfc] (017/286) Accurately ripped
07 [e1218f23] (017/285) Accurately ripped
08 [f761fd7e] (018/284) Accurately ripped
09 [be2dffaa] (017/285) Accurately ripped
10 [a87f9abd] (017/283) Accurately ripped
11 [7f402d9a] (017/282) Accurately ripped
12 [f39c0dc4] (017/281) Accurately ripped
13 [2170727b] (017/279) Accurately ripped
14 [ba64b99a] (017/278) Accurately ripped
15 [d48fbe62] (017/276) Accurately ripped
16 [fad431c9] (017/276) Accurately ripped
Offsetted by 594:
01 [e0997b65] (067/284) Accurately ripped
02 [3f478d90] (068/287) Accurately ripped
03 [e3dfd136] (068/287) Accurately ripped
04 [7c7870c1] (068/287) Accurately ripped
05 [59e91acb] (068/287) Accurately ripped
06 [ac3d3b6e] (068/286) Accurately ripped
07 [6f2705e4] (068/285) Accurately ripped
08 [45678787] (067/284) Accurately ripped
09 [d2b9d9b1] (067/285) Accurately ripped
10 [f7a88a10] (068/283) Accurately ripped
11 [f5d31a11] (068/282) Accurately ripped
12 [08aca89e] (067/281) Accurately ripped
13 [52f3639a] (068/279) Accurately ripped
14 [0622f4a8] (067/278) Accurately ripped
15 [644cfe48] (067/276) Accurately ripped
16 [8dfee76d] (064/276) Accurately ripped
Offsetted by -752:
01 [045d0b25] (000/284) No match (V2 was not tested)
02 [feec4cb2] (000/287) No match (V2 was not tested)
03 [0491899c] (000/287) No match (V2 was not tested)
04 [c0426d73] (000/287) No match (V2 was not tested)
05 [f89c8d39] (000/287) No match (V2 was not tested)
06 [44562702] (000/286) No match (V2 was not tested)
07 [fc1dea7e] (000/285) No match (V2 was not tested)
08 [7b0d4971] (000/284) No match (V2 was not tested)
09 [0fbd9167] (000/285) No match (V2 was not tested)
10 [3623a77e] (000/283) No match (V2 was not tested)
11 [40e1e127] (000/282) No match (V2 was not tested)
12 [202e44c2] (000/281) No match (V2 was not tested)
13 [e01fb99c] (000/279) No match (V2 was not tested)
14 [2a700e30] (000/278) No match (V2 was not tested)
15 [9ae559a4] (000/276) No match (V2 was not tested)
16 [f8c7ce15] (000/276) No match (V2 was not tested)
Offsetted by -737:
01 [c31be905] (002/284) Accurately ripped
02 [54160493] (002/287) Accurately ripped
03 [6d0026bf] (002/287) Accurately ripped
04 [f124fa9c] (002/287) Accurately ripped
05 [1ef944a0] (002/287) Accurately ripped
06 [4e0d99ec] (002/286) Accurately ripped
07 [68dba3db] (002/285) Accurately ripped
08 [f4f03df6] (002/284) Accurately ripped
09 [d01b4ab2] (002/285) Accurately ripped
10 [62236c65] (002/283) Accurately ripped
11 [faa01922] (002/282) Accurately ripped
12 [ce22be74] (000/281) No match (V2 was not tested)
13 [23517f63] (000/279) No match (V2 was not tested)
14 [9e3a393a] (000/278) No match (V2 was not tested)
15 [6f4dc7b2] (000/276) No match (V2 was not tested)
16 [0361e7a9] (000/276) No match (V2 was not tested)
Offsetted by -103:
01 [4149e045] (000/284) No match (V2 was not tested)
02 [fd3d93b9] (000/287) No match (V2 was not tested)
03 [66bae531] (000/287) No match (V2 was not tested)
04 [69bfc072] (000/287) No match (V2 was not tested)
05 [857b482a] (000/287) No match (V2 was not tested)
06 [e8bdc628] (000/286) No match (V2 was not tested)
07 [07a61c69] (000/285) No match (V2 was not tested)
08 [039c1474] (000/284) No match (V2 was not tested)
09 [3d728d14] (000/285) No match (V2 was not tested)
10 [508010ef] (000/283) No match (V2 was not tested)
11 [0bc3bda4] (000/282) No match (V2 was not tested)
12 [97b31a60] (000/281) No match (V2 was not tested)
13 [12a26beb] (000/279) No match (V2 was not tested)
14 [c29f5b14] (000/278) No match (V2 was not tested)
15 [2bbee246] (000/276) No match
16 [e59ffea1] (000/276) No match (V2 was not tested)
Offsetted by 418:
01 [2284a565] (000/284) No match
02 [f1a25340] (000/287) No match (V2 was not tested)
03 [d6456a46] (000/287) No match (V2 was not tested)
04 [a5496ff1] (000/287) No match (V2 was not tested)
05 [a8dc6e9b] (000/287) No match (V2 was not tested)
06 [3a3b2a4e] (000/286) No match (V2 was not tested)
07 [1dec64d4] (000/285) No match (V2 was not tested)
08 [9e33c9f7] (000/284) No match (V2 was not tested)
09 [ac4c0641] (000/285) No match (V2 was not tested)
10 [9e11a5e0] (000/283) No match (V2 was not tested)
11 [d8d6efa1] (000/282) No match (V2 was not tested)
12 [20ab58fe] (000/281) No match (V2 was not tested)
13 [a31d0cd3] (000/279) No match (V2 was not tested)
14 [8d644d3f] (000/278) No match (V2 was not tested)
15 [52b6e1e8] (000/276) No match (V2 was not tested)
16 [33bb992d] (000/276) No match (V2 was not tested)
Offsetted by 420:
01 [3bf36da5] (000/284) No match (V2 was not tested)
02 [c9ca055e] (000/287) No match
03 [c20fe5a0] (000/287) No match
04 [df013e7f] (000/287) No match
05 [368264ed] (000/287) No match
06 [3b86d33a] (000/286) No match
07 [81c16c7a] (000/285) No match
08 [25eba64d] (000/284) No match
09 [1b47744b] (000/285) No match
10 [f944d132] (000/283) No match
11 [24ce2a4b] (000/282) No match
12 [c0658b5a] (000/281) No match
13 [3618f6d5] (000/279) No match
14 [5a87a953] (000/278) No match
15 [c45e680c] (000/276) No match
16 [46368b85] (000/276) No match

Track Peak [ CRC32 ] [W/O NULL]
– 100,0 [9B5D071F] [B11377D2]
01 99,9 [EC442AAB] [C0459A63]
02 99,9 [871EB0CB] [782BF2AD]
03 99,9 [37E1543E] [45B2FD98]
04 99,9 [57B0E85D] [93014B40]
05 99,9 [A8C45B0F] [565CB4AE]
06 99,9 [1955614B] [27CAD63B]
07 100,0 [D34FFAF5] [0AAC8A5E]
08 100,0 [4B2539A3] [74CC4B06]
09 100,0 [C7815083] [0FA2C299]
10 99,9 [32A62C22] [F2EC482D]
11 99,9 [D61AC519] [DDA25E72]
12 99,9 [7CE50995] [5BB02D92]
13 99,9 [81298679] [386F76E2]
14 99,9 [D07C96F7] [D12AC85C]
15 99,9 [C915D5F4] [B31D9760]
16 99,9 [77C50101] [76479139]


Blackmore's Night: Discography (1997 - 2015) Re-up

Tracklist CD03 - 2001 - Fires At Midnight [Steamhammer SPV 085-72432 CD]:

01. Written In The Stars (4:50)
02. The Times They Are A Changin' (3:33)
03. I Still Remember (5:42)
04. Home Again (5:28)
05. Crowning Of The King (4:32)
06. Fayre Thee Well (2:08)
07. Fires At Midnight (7:36)
08. Hanging Tree (3:47)
09. Storm (6:12)
10. Mid Winter's Night (4:30)
11. All Because Of You (3:37)
12. Waiting Just For You (3:17)
13. Praetorius (Courante) (1:57)
14. Benzai-Ten (3:52)
15. Village On The Sand (5:04)
16. Again Someday (1:39)

Отчёт EAC об извлечении, выполненном 4. мая 2007, 20:32 для диска:
Blackmore's Night / Fires At Midnight

Дисковод: SONY DVD-ROM DDU1611 Adapter: 0 ID: 0
Режим чтения: Достоверный (C2: нет, Точный поток: да, Отключение кэша: да)
Комбинированное смещение чтения/записи: 0
Способность читать области Lead-in и Lead-out : Нет

Выходной формат: Внутренние WAV-операции
44.100 Гц; 16 бит; стерео

Другие параметры:
Заполнение пропущенных сэмплов тишиной : Да
Удаление блоков с тишиной в начале и конце : Нет
Встроенный Win32-интерфейс для Win NT/2000


Характеристики диапазона извлечения и сообщения об ошибках
Выбранный диапазон
Имя файла F:\Blackmore's Night\Blackmore's Night - Fires At Midnight\Blackmore's Night - Fires At Midnight.wav

Пиковый уровень 100.0 %
Качество диапазона 100.0 %
CRC A953FF85
Копирование… OK

Ошибок не произошло

Конец отчёта


[CUETools log; Date: 30.07.2019 10:40:14; Version: 2.1.4]
[AccurateRip ID: 002a8ca9-01f94a12-e30fdf10] found.
Track [ CRC | V2 ] Status
01 [bc94cd0a|4afa0e3f] (000+000/228) No match
02 [6fade3b7|4b7538ec] (000+000/225) No match
03 [0570f3ea|71d89ed7] (000+000/228) No match
04 [b888b8e2|2e8d7f6b] (000+000/229) No match
05 [05394e3a|2b888761] (000+000/228) No match
06 [98965801|b41bc859] (000+000/229) No match
07 [b711b2fd|6f346c9d] (000+000/227) No match
08 [009e196e|c834e71e] (000+000/227) No match
09 [e096b3bd|582819d9] (000+000/224) No match
10 [277d5823|e7242869] (000+000/225) No match
11 [569a8e39|d04bc135] (000+000/226) No match
12 [05fb0b7e|58963b0d] (000+000/226) No match
13 [973466dc|e63ea353] (000+000/226) No match
14 [87444912|34316f7b] (000+000/225) No match
15 [212257d7|009ddc15] (000+000/224) No match
16 [11502f11|122a38e3] (000+000/220) No match
Offsetted by 568:
01 [ae8a56e2] (002/228) Accurately ripped
02 [855af2c7] (002/225) Accurately ripped
03 [96187b62] (002/228) Accurately ripped
04 [43d43412] (002/229) Accurately ripped
05 [3a58848a] (002/228) Accurately ripped
06 [a5d9baf1] (002/229) Accurately ripped
07 [63daabed] (002/227) Accurately ripped
08 [c1a36bb6] (002/227) Accurately ripped
09 [fec90505] (002/224) Accurately ripped
10 [519c3eeb] (002/225) Accurately ripped
11 [8922c0b1] (002/226) Accurately ripped
12 [c831f2f6] (002/226) Accurately ripped
13 [0c5d78bc] (002/226) Accurately ripped
14 [09f882ba] (002/225) Accurately ripped
15 [bd10ec77] (002/224) Accurately ripped
16 [107d29b9] (002/220) Accurately ripped
Offsetted by 594:
01 [ffed03f4] (007/228) Accurately ripped
02 [224a8833] (007/225) Accurately ripped
03 [734099ec] (007/228) Accurately ripped
04 [b82d4ad6] (007/229) Accurately ripped
05 [a2a2f5e6] (007/228) Accurately ripped
06 [e3c0df05] (007/229) Accurately ripped
07 [4165ac81] (007/227) Accurately ripped
08 [c25c73fc] (007/227) Accurately ripped
09 [ce970a8b] (007/224) Accurately ripped
10 [21f5ff91] (007/225) Accurately ripped
11 [e596f57b] (007/226) Accurately ripped
12 [e96c5980] (007/226) Accurately ripped
13 [0b6b11e4] (007/226) Accurately ripped
14 [5e604f48] (007/225) Accurately ripped
15 [9e583d2f] (007/224) Accurately ripped
16 [d327c907] (007/220) Accurately ripped
Offsetted by 604:
01 [1f3a5a36] (021/228) Accurately ripped
02 [2392fcbf] (021/225) Accurately ripped
03 [8d3c56e6] (021/228) Accurately ripped
04 [5b147afa] (021/229) Accurately ripped
05 [05d348e2] (021/228) Accurately ripped
06 [0f4127f9] (021/229) Accurately ripped
07 [aa4c5df5] (021/227) Accurately ripped
08 [878fed52] (021/227) Accurately ripped
09 [a85c6f21] (021/224) Accurately ripped
10 [fbf12247] (021/225) Accurately ripped
11 [4439ceb5] (021/226) Accurately ripped
12 [a76f1e7a] (021/226) Accurately ripped
13 [32704ccc] (021/226) Accurately ripped
14 [b9eab1a6] (021/225) Accurately ripped
15 [7ed62127] (021/224) Accurately ripped
16 [a7df9025] (021/220) Accurately ripped
Offsetted by 607:
01 [a89e5a7d] (002/228) Accurately ripped
02 [f0c252e9] (002/225) Accurately ripped
03 [e1d4a931] (002/228) Accurately ripped
04 [7259d638] (002/229) Accurately ripped
05 [d6c82e94] (002/228) Accurately ripped
06 [02b4710f] (002/229) Accurately ripped
07 [302b2ccb] (002/227) Accurately ripped
08 [c2b8f81f] (002/227) Accurately ripped
09 [367e0d4e] (002/224) Accurately ripped
10 [8a22dfe4] (002/225) Accurately ripped
11 [93d10fe0] (002/226) Accurately ripped
12 [7a098cc5] (002/226) Accurately ripped
13 [8af1de78] (002/226) Accurately ripped
14 [0894358f] (002/225) Accurately ripped
15 [0efbe58b] (002/224) Accurately ripped
16 [b47d18ae] (002/220) Accurately ripped
Offsetted by 610:
01 [32025ac4] (002/228) Accurately ripped
02 [bdf1a913] (002/225) Accurately ripped
03 [366cfb7c] (002/228) Accurately ripped
04 [899f3176] (002/229) Accurately ripped
05 [a7bd1446] (002/228) Accurately ripped
06 [f627ba25] (002/229) Accurately ripped
07 [b609fba1] (002/227) Accurately ripped
08 [fde202ec] (002/227) Accurately ripped
09 [c49fab7b] (002/224) Accurately ripped
10 [18549d81] (002/225) Accurately ripped
11 [e368510b] (002/226) Accurately ripped
12 [4ca3fb10] (002/226) Accurately ripped
13 [e3737024] (002/226) Accurately ripped
14 [573db978] (002/225) Accurately ripped
15 [9f21a9ef] (002/224) Accurately ripped
16 [c11aa137] (002/220) Accurately ripped
Offsetted by 1277:
01 [d9dbedc3] (003/228) Accurately ripped
02 [46b8d38d] (003/225) Accurately ripped
03 [aeb71e9f] (003/228) Accurately ripped
04 [14db6fa4] (003/229) Accurately ripped
05 [cc6de688] (002/228) Accurately ripped
06 [654788eb] (002/229) Accurately ripped
07 [a48b9e27] (002/227) Accurately ripped
08 [5f31b9a1] (003/227) Accurately ripped
09 [35276090] (003/224) Accurately ripped
10 [96dcf586] (002/225) Accurately ripped
11 [586fea0e] (002/226) Accurately ripped
12 [34c31a33] (003/226) Accurately ripped
13 [c1504930] (003/226) Accurately ripped
14 [fdcbf429] (003/225) Accurately ripped
15 [cfee8f73] (003/224) Accurately ripped
16 [60963588] (003/220) Accurately ripped
Offsetted by 1283:
01 [eca3ee51] (062/228) Accurately ripped
02 [e1177fe1] (062/225) Accurately ripped
03 [57e7c335] (062/228) Accurately ripped
04 [43662620] (062/229) Accurately ripped
05 [6e57b1ec] (062/228) Accurately ripped
06 [4c2e1b17] (063/229) Accurately ripped
07 [b0493bd3] (061/227) Accurately ripped
08 [d583cf3b] (062/227) Accurately ripped
09 [516a9cea] (062/224) Accurately ripped
10 [b34070c0] (062/225) Accurately ripped
11 [f79e6c64] (063/226) Accurately ripped
12 [d9f7f6c9] (062/226) Accurately ripped
13 [72536c88] (062/226) Accurately ripped
14 [9b1efbfb] (062/225) Accurately ripped
15 [f03a183b] (061/224) Accurately ripped
16 [79d1469a] (060/220) Accurately ripped
Offsetted by -57:
01 [8a28c7c5] (000/228) No match (V2 was not tested)
02 [352a7e99] (000/225) No match (V2 was not tested)
03 [be22d859] (000/228) No match (V2 was not tested)
04 [fe62f348] (000/229) No match (V2 was not tested)
05 [830c4204] (000/228) No match (V2 was not tested)
06 [8707eb5f] (000/229) No match (V2 was not tested)
07 [c788591b] (000/227) No match (V2 was not tested)
08 [9c924c37] (000/227) No match (V2 was not tested)
09 [5417f666] (000/224) No match (V2 was not tested)
10 [99cc457c] (000/225) No match (V2 was not tested)
11 [6e60b808] (000/226) No match (V2 was not tested)
12 [6484dbed] (000/226) No match (V2 was not tested)
13 [05969718] (000/226) No match (V2 was not tested)
14 [b0af7ec7] (000/225) No match (V2 was not tested)
15 [6e54c46b] (000/224) No match (V2 was not tested)
16 [219f0ce6] (000/220) No match (V2 was not tested)
Offsetted by 538:
01 [50a2541c] (000/228) No match (V2 was not tested)
02 [81819523] (000/225) No match (V2 was not tested)
03 [48254474] (000/228) No match (V2 was not tested)
04 [5b1ea3a6] (000/229) No match (V2 was not tested)
05 [10c78b96] (000/228) No match (V2 was not tested)
06 [2358e015] (000/229) No match (V2 was not tested)
07 [29269791] (000/227) No match (V2 was not tested)
08 [7208ffb4] (000/227) No match (V2 was not tested)
09 [7178d743] (000/224) No match (V2 was not tested)
10 [c3aad6c9] (000/225) No match (V2 was not tested)
11 [6d3a3503] (000/226) No match (V2 was not tested)
12 [8e29a408] (000/226) No match (V2 was not tested)
13 [974dc804] (000/226) No match (V2 was not tested)
14 [f7595ba0] (000/225) No match (V2 was not tested)
15 [1b97408f] (000/224) No match (V2 was not tested)
16 [9255d45f] (000/220) No match (V2 was not tested)
Offsetted by 544:
01 [636a54aa] (002/228) Accurately ripped
02 [1be04177] (002/225) Accurately ripped
03 [f155e90a] (002/228) Accurately ripped
04 [89a95a22] (002/229) Accurately ripped
05 [b2b156fa] (002/228) Accurately ripped
06 [0a3f7241] (002/229) Accurately ripped
07 [34e4353d] (002/227) Accurately ripped
08 [e85b154e] (002/227) Accurately ripped
09 [8dbc139d] (000/224) No match (V2 was not tested)
10 [e00e5203] (000/225) No match (V2 was not tested)
11 [0c68b759] (000/226) No match (V2 was not tested)
12 [335e809e] (000/226) No match (V2 was not tested)
13 [4850eb5c] (000/226) No match (V2 was not tested)
14 [94ac6372] (000/225) No match (V2 was not tested)
15 [3be2c957] (000/224) No match (V2 was not tested)
16 [ab90e571] (000/220) No match (V2 was not tested)
Offsetted by 613:
01 [bb665b0b] (000/228) No match (V2 was not tested)
02 [8b20ff3d] (000/225) No match (V2 was not tested)
03 [8b054dc7] (000/228) No match (V2 was not tested)
04 [a0e48cb4] (000/229) No match (V2 was not tested)
05 [78b1f9f8] (000/228) No match (V2 was not tested)
06 [e99b033b] (000/229) No match (V2 was not tested)
07 [3be8ca77] (000/227) No match (V2 was not tested)
08 [390b0db9] (000/227) No match (V2 was not tested)
09 [52c149a8] (000/224) No match (V2 was not tested)
10 [a6865b1e] (000/225) No match (V2 was not tested)
11 [32ff9236] (000/226) No match (V2 was not tested)
12 [1f3e695b] (000/226) No match (V2 was not tested)
13 [3bf501d0] (000/226) No match (V2 was not tested)
14 [a5e73d61] (000/225) No match (V2 was not tested)
15 [2f476e53] (000/224) No match (V2 was not tested)
16 [cdb829c0] (000/220) No match (V2 was not tested)
Offsetted by 1151:
01 [4f73e21d] (000/228) No match (V2 was not tested)
02 [9cf4b0a9] (000/225) No match (V2 was not tested)
03 [cdb99e51] (000/228) No match (V2 was not tested)
04 [437a7778] (000/229) No match (V2 was not tested)
05 [84403754] (000/228) No match (V2 was not tested)
06 [745d8b4f] (000/229) No match (V2 was not tested)
07 [adfdaf0b] (000/227) No match (V2 was not tested)
08 [aa75f3ff] (000/227) No match (V2 was not tested)
09 [e3a36d2e] (000/224) No match (V2 was not tested)
10 [42b3d9c4] (000/225) No match (V2 was not tested)
11 [499f3900] (000/226) No match (V2 was not tested)
12 [a76d01e5] (000/226) No match (V2 was not tested)
13 [3c0e62f8] (000/226) No match (V2 was not tested)
14 [15fc4fef] (000/225) No match (V2 was not tested)
15 [29bc570b] (000/224) No match (V2 was not tested)
16 [4ebdcf0e] (000/220) No match (V2 was not tested)
Offsetted by 1217:
01 [1e0be837] (000/228) No match (V2 was not tested)
02 [3f061845] (000/225) No match (V2 was not tested)
03 [12d0b0c3] (000/228) No match (V2 was not tested)
04 [43704ecc] (000/229) No match (V2 was not tested)
05 [794bf4a0] (000/228) No match (V2 was not tested)
06 [6045d333] (000/229) No match (V2 was not tested)
07 [2f23756f] (000/227) No match (V2 was not tested)
08 [bffce19d] (000/227) No match (V2 was not tested)
09 [1a87050c] (000/224) No match (V2 was not tested)
10 [7afa2542] (000/225) No match (V2 was not tested)
11 [209ed2b2] (000/226) No match (V2 was not tested)
12 [c0b27c57] (000/226) No match (V2 was not tested)
13 [d730e7c0] (000/226) No match (V2 was not tested)
14 [d88da5f5] (000/225) No match (V2 was not tested)
15 [8cfb37a3] (000/224) No match (V2 was not tested)
16 [64478ad4] (000/220) No match (V2 was not tested)

Track Peak [ CRC32 ] [W/O NULL]
– 100,0 [A953FF85] [886288E4]
01 98,8 [A9885CF6] [21175F24]
02 98,8 [8FB0E194] [E4D818C3]
03 98,9 [22EBBA93] [BE2F9234]
04 98,8 [6B39432F] [F43FF475]
05 98,8 [0373AFD2] [94ED76FD]
06 99,9 [EC4D8FAF] [01F090BF]
07 98,8 [F17C4515] [F2DA845A]
08 98,9 [881ABC21] [779B915B]
09 98,8 [346441A2] [16066A3C]
10 98,8 [8C9D561C] [EA939DB0]
11 100,0 [ADB782DF] [FBA8024F]
12 98,8 [96F8383E] [EFECC357]
13 98,8 [87382E2F] [3C9AAB89]
14 98,8 [49560CC5] [1F59EC73]
15 98,9 [D5838FCA] [69FC19ED]
16 99,9 [AF7D31F7] [C8E18983]


Blackmore's Night: Discography (1997 - 2015) Re-up

Tracklist CD04 - 2003 - Ghost Of A Rose [Steamhammer SPV 085-74992 CD]:

01. Way To Mandalay (6:26)
02. 3 Black Crows (3:43)
03. Diamonds And Rust (4:54)
04. Cartouche (3:48)
05. Queen For A Day (Part 1) (3:05)
06. Queen For A Day (Part 2) (1:36)
07. Ivory Tower (4:24)
08. Nur Eine Minute (1:08)
09. Ghost Of A Rose (5:45)
10. Mr. Peagram's Morris And Sword (2:01)
11. Loreley (3:36)
12. Where Are We Going From Here (4:05)
13. Rainbow Blues (4:30)
14. All For One (5:36)
15. Dandelion Wine (5:39)

Отчёт EAC об извлечении, выполненном 4. мая 2007, 21:40 для диска:
Blackmore's Night / Ghost Of A Rose

Дисковод: SONY DVD-ROM DDU1611 Adapter: 0 ID: 0
Режим чтения: Достоверный (C2: нет, Точный поток: да, Отключение кэша: да)
Комбинированное смещение чтения/записи: 0
Способность читать области Lead-in и Lead-out : Нет

Выходной формат: Внутренние WAV-операции
44.100 Гц; 16 бит; стерео

Другие параметры:
Заполнение пропущенных сэмплов тишиной : Да
Удаление блоков с тишиной в начале и конце : Нет
Встроенный Win32-интерфейс для Win NT/2000


Характеристики диапазона извлечения и сообщения об ошибках
Выбранный диапазон
Имя файла F:\Blackmore's Night\Blackmore's Night - Ghost Of A Rose\Blackmore's Night - Ghost Of A Rose.wav

Пиковый уровень 98.9 %
Качество диапазона 100.0 %
CRC EF14DFE8
Копирование… OK

Ошибок не произошло

Конец отчёта


[CUETools log; Date: 30.07.2019 10:43:14; Version: 2.1.4]
[AccurateRip ID: 00208731-0169d23b-cc0e220f] found.
Track [ CRC | V2 ] Status
01 [0bb42b84|b1707b25] (000+000/147) No match
02 [49bc553e|13e93c12] (000+000/146) No match
03 [111ce617|13293abb] (000+000/145) No match
04 [22ffc119|d5df894b] (000+000/145) No match
05 [5da6b6f1|fad69918] (000+000/143) No match
06 [13bdca07|6d4e80f2] (000+000/144) No match
07 [50dcf39c|2bd18d22] (000+000/142) No match
08 [af72578a|5ff729fd] (000+000/144) No match
09 [4b6761d6|a4d08c3e] (000+000/143) No match
10 [191f1051|42db24c4] (000+000/143) No match
11 [80504c87|5820b761] (000+000/142) No match
12 [71d5fd18|cb3c5813] (000+000/140) No match
13 [d1ba52f6|80377f4d] (000+000/142) No match
14 [f7df3d9c|a3d81208] (000+000/142) No match
15 [1010e3b0|a2f4900b] (000+000/141) No match
Offsetted by -82:
01 [76a16f06] (008/147) Accurately ripped
02 [23e859b6] (007/146) Accurately ripped
03 [2f223733] (007/145) Accurately ripped
04 [058ef6bb] (007/145) Accurately ripped
05 [68e82311] (007/143) Accurately ripped
06 [e47c4b95] (007/144) Accurately ripped
07 [c0df88a0] (007/142) Accurately ripped
08 [4d48ceec] (008/144) Accurately ripped
09 [c031600a] (007/143) Accurately ripped
10 [508d8fd7] (008/143) Accurately ripped
11 [9ebf3655] (007/142) Accurately ripped
12 [8e45fce0] (007/140) Accurately ripped
13 [83379ab8] (007/142) Accurately ripped
14 [e74bc808] (008/142) Accurately ripped
15 [a1013bc2] (007/141) Accurately ripped
Offsetted by -55:
01 [72a47b23] (002/147) Accurately ripped
02 [df314582] (002/146) Accurately ripped
03 [3e3970c9] (002/145) Accurately ripped
04 [79660da8] (002/145) Accurately ripped
05 [b34c4ea5] (002/143) Accurately ripped
06 [0f010c8c] (002/144) Accurately ripped
07 [e6eb2bda] (002/142) Accurately ripped
08 [b5693739] (002/144) Accurately ripped
09 [618af67c] (002/143) Accurately ripped
10 [be4d14ae] (002/143) Accurately ripped
11 [532a4d40] (002/142) Accurately ripped
12 [4cb6f6b4] (002/140) Accurately ripped
13 [48c68c75] (002/142) Accurately ripped
14 [cd88d2a6] (002/142) Accurately ripped
15 [811bf189] (002/141) Accurately ripped
Offsetted by 594:
01 [b3f73602] (061/147) Accurately ripped
02 [620098c6] (061/146) Accurately ripped
03 [5d1bd8fb] (060/145) Accurately ripped
04 [177bb977] (060/145) Accurately ripped
05 [e3e0df0d] (061/143) Accurately ripped
06 [bfd631bd] (060/144) Accurately ripped
07 [95dcfa98] (059/142) Accurately ripped
08 [a23b4e28] (060/144) Accurately ripped
09 [291a4fa2] (059/143) Accurately ripped
10 [87947acb] (060/143) Accurately ripped
11 [018444b9] (061/142) Accurately ripped
12 [cf8b7550] (060/140) Accurately ripped
13 [cc031934] (059/142) Accurately ripped
14 [c11e2730] (061/142) Accurately ripped
15 [89695b86] (059/141) Accurately ripped
Offsetted by -70:
01 [031490da] (000/147) No match (V2 was not tested)
02 [9396fb66] (000/146) No match (V2 was not tested)
03 [a79e50cb] (000/145) No match (V2 was not tested)
04 [1c9939cf] (000/145) No match (V2 was not tested)
05 [5b2f2617] (000/143) No match (V2 was not tested)
06 [d80684db] (000/144) No match (V2 was not tested)
07 [271d9848] (000/142) No match (V2 was not tested)
08 [42ac8b80] (000/144) No match (V2 was not tested)
09 [96204d92] (000/143) No match (V2 was not tested)
10 [4870e753] (000/143) No match (V2 was not tested)
11 [d27d07a1] (000/142) No match (V2 was not tested)
12 [7122ddb0] (000/140) No match (V2 was not tested)
13 [693e3f0c] (000/142) No match (V2 was not tested)
14 [4d9fccc0] (000/142) No match (V2 was not tested)
15 [ad3bf0db] (000/141) No match (V2 was not tested)
Offsetted by 600:
01 [7a30c6ec] (002/147) Accurately ripped
02 [19d7e99e] (002/146) Accurately ripped
03 [9959e5c7] (002/145) Accurately ripped
04 [a300db01] (002/145) Accurately ripped
05 [5bc3af27] (002/143) Accurately ripped
06 [3eb9a9c9] (003/144) Accurately ripped
07 [48fc026c] (003/142) Accurately ripped
08 [9ced2c72] (003/144) Accurately ripped
09 [1411c666] (003/143) Accurately ripped
10 [83862689] (002/143) Accurately ripped
11 [9b632d5f] (002/142) Accurately ripped
12 [c0f9e5b8] (000/140) No match (V2 was not tested)
13 [bf066b5e] (002/142) Accurately ripped
14 [f448298c] (000/142) No match (V2 was not tested)
15 [9073f950] (002/141) Accurately ripped

Track Peak [ CRC32 ] [W/O NULL]
– 98,9 [EF14DFE8] [9616BD96]
01 98,9 [6EB6DF71] [D302AA5B]
02 98,8 [E85FF641] [65A6EA00]
03 98,8 [98DD96A4] [882B8BFC]
04 93,3 [AFB35D96] [5E50F386]
05 98,8 [ABE623F4] [6A92636B]
06 98,8 [56EA9BA2] [38EEC02E]
07 98,8 [35D5F348] [8440730E]
08 80,8 [5D86F986] [42324FC6]
09 98,9 [0B38E707] [5FDB17D4]
10 98,8 [9D7AC0FB] [E7E6EE9C]
11 98,8 [556318B1] [888F35C3]
12 98,8 [81B232BA] [7F30DB10]
13 98,8 [CCE0CC24] [C9A750AF]
14 98,9 [6F201C79] [63A94590]
15 98,8 [70DFB6C2] [172A29E3]


Blackmore's Night: Discography (1997 - 2015) Re-up

Tracklist CD05-06 - 2006 - The Village Lanterne [Steamhammer SPV 99700 2CD-E]:

01. 25 Years (4:58)
02. Village Lanterne (5:14)
03. I Guess It Doesn't Matter Anymore (4:50)
04. The Messenger (2:55)
05. World Of Stone (4:26)
06. Faerie Queen - Faerie Dance (4:57)
07. St. Teresa (5:26)
08. Village Dance (Instrumental) (1:58)
09. Mond Tanz / Child In Time (6:12)
10. Streets Of London (3:48)
11. Just Call My Name (I'll Be There) (4:49)
12. Olde Mill Inn (3:21)
13. Windmills (3:27)
14. Street Of Dreams (4:31)

Отчёт EAC об извлечении, выполненном 5. мая 2007, 16:57 для диска:
Blackmore's Night / The Village Lanterne

Дисковод: SONY DVD-ROM DDU1611 Adapter: 0 ID: 0
Режим чтения: Достоверный (C2: нет, Точный поток: да, Отключение кэша: да)
Комбинированное смещение чтения/записи: 0
Способность читать области Lead-in и Lead-out : Нет

Выходной формат: Внутренние WAV-операции
44.100 Гц; 16 бит; стерео

Другие параметры:
Заполнение пропущенных сэмплов тишиной : Да
Удаление блоков с тишиной в начале и конце : Нет
Встроенный Win32-интерфейс для Win NT/2000


Характеристики диапазона извлечения и сообщения об ошибках
Выбранный диапазон
Имя файла F:\Blackmore's Night\Blackmore's Night - The Village Lanterne\Blackmore's Night - The Village Lanterne.wav

Пиковый уровень 100.0 %
Качество диапазона 100.0 %
CRC 0314E53C
Копирование… OK

Ошибок не произошло

Конец отчёта


[CUETools log; Date: 30.07.2019 11:39:03; Version: 2.1.4]
[AccurateRip ID: 0020523a-0155b975-dd0e440e] found.
Track [ CRC | V2 ] Status
01 [31198f33|036b7652] (000+000/229) No match
02 [1f843af9|2b782a47] (000+000/227) No match
03 [f8b6a9d3|c5de330d] (000+000/227) No match
04 [50b14793|33c518cc] (000+000/230) No match
05 [9411f7dc|82ea61f0] (000+000/226) No match
06 [90759194|dd3192af] (000+000/228) No match
07 [6f282f5f|64ce8fe0] (000+000/227) No match
08 [64f7877b|eb1db5b3] (000+000/228) No match
09 [1225f50b|a366aa2a] (000+000/226) No match
10 [bd3d8d80|6129f3d2] (000+000/229) No match
11 [3e35a4e0|ee25ba9d] (000+000/225) No match
12 [cfaa113c|fbf38712] (000+000/227) No match
13 [6bbe56a9|7ce2c390] (000+000/228) No match
14 [4ae8e4ae|8766d198] (000+000/229) No match
Offsetted by -70:
01 [10364747] (008/229) Accurately ripped
02 [2338b7df] (007/227) Accurately ripped
03 [f59d8b65] (007/227) Accurately ripped
04 [d18d42b7] (007/230) Accurately ripped
05 [967b5190] (007/226) Accurately ripped
06 [106a5094] (007/228) Accurately ripped
07 [b9405cdd] (007/227) Accurately ripped
08 [a7bc6b77] (007/228) Accurately ripped
09 [f8537c89] (007/226) Accurately ripped
10 [cc19c6f8] (007/229) Accurately ripped
11 [f45f7618] (007/225) Accurately ripped
12 [7dc941de] (007/227) Accurately ripped
13 [5762d33f] (007/228) Accurately ripped
14 [1eb60ea4] (007/229) Accurately ripped
Offsetted by 588:
01 [def51e8b] (002/229) Accurately ripped
02 [cd31bb6d] (002/227) Accurately ripped
03 [df89a96f] (002/227) Accurately ripped
04 [afdfd6cb] (002/230) Accurately ripped
05 [e6369ff4] (002/226) Accurately ripped
06 [2a6db394] (002/228) Accurately ripped
07 [9a5d17a3] (002/227) Accurately ripped
08 [9a81a603] (002/228) Accurately ripped
09 [eb0de94f] (002/226) Accurately ripped
10 [a6d07790] (002/229) Accurately ripped
11 [773cc770] (002/225) Accurately ripped
12 [190a78b8] (002/227) Accurately ripped
13 [e38bd9bd] (002/228) Accurately ripped
14 [8afa5102] (002/229) Accurately ripped
Offsetted by 594:
01 [398c41f7] (096/229) Accurately ripped
02 [af9e9ac7] (096/227) Accurately ripped
03 [c28bd09d] (096/227) Accurately ripped
04 [8ee2ed27] (095/230) Accurately ripped
05 [20855dc0] (096/226) Accurately ripped
06 [b90f9494] (096/228) Accurately ripped
07 [597f9765] (096/227) Accurately ripped
08 [f3de7c87] (096/228) Accurately ripped
09 [11d6cf11] (094/226) Accurately ripped
10 [bb7bc318] (096/229) Accurately ripped
11 [604f2338] (095/225) Accurately ripped
12 [2eb006d6] (097/227) Accurately ripped
13 [112d4b67] (096/228) Accurately ripped
14 [03cb794c] (097/229) Accurately ripped
Offsetted by -136:
01 [2bb7c1a3] (000/229) No match (V2 was not tested)
02 [688b1f01] (000/227) No match (V2 was not tested)
03 [3485dc6b] (000/227) No match (V2 was not tested)
04 [3c6b4cc3] (000/230) No match (V2 was not tested)
05 [151929cc] (000/226) No match (V2 was not tested)
06 [ef75a594] (000/228) No match (V2 was not tested)
07 [82c4df87] (000/227) No match (V2 was not tested)
08 [d0bf33cb] (000/228) No match (V2 was not tested)
09 [4db19d33] (000/226) No match (V2 was not tested)
10 [e8bd8820] (000/229) No match (V2 was not tested)
11 [f0958480] (000/225) No match (V2 was not tested)
12 [8fac2694] (000/227) No match (V2 was not tested)
13 [6172f0f1] (000/228) No match (V2 was not tested)
14 [edb95376] (000/229) No match (V2 was not tested)
Offsetted by 528:
01 [550dbc53] (003/229) Accurately ripped
02 [f4f101e9] (002/227) Accurately ripped
03 [017421a3] (002/227) Accurately ripped
04 [f9c0f733] (002/230) Accurately ripped
05 [9f2335fc] (000/226) No match
06 [981ae994] (002/228) Accurately ripped
07 [23041a0f] (000/227) No match (V2 was not tested)
08 [1ce144db] (002/228) Accurately ripped
09 [6734efbb] (002/226) Accurately ripped
10 [d81f8440] (002/229) Accurately ripped
11 [5c8531a0] (002/225) Accurately ripped
12 [4092eb8c] (002/227) Accurately ripped
13 [1b3d6919] (002/228) Accurately ripped
14 [d2cebe1e] (002/229) Accurately ripped
Offsetted by 600:
01 [94236563] (000/229) No match
02 [920b7a21] (000/227) No match
03 [a58df7cb] (000/227) No match
04 [6de60383] (002/230) Accurately ripped
05 [5ad41b8c] (000/226) No match
06 [47b17594] (000/228) No match
07 [18a21727] (000/227) No match
08 [4d3b530b] (000/228) No match
09 [389fb4d3] (000/226) No match (V2 was not tested)
10 [d0270ea0] (000/229) No match
11 [49617f00] (000/225) No match
12 [445594f4] (000/227) No match
13 [3ecebd11] (000/228) No match
14 [7c9ca196] (000/229) No match

Track Peak [ CRC32 ] [W/O NULL]
– 100,0 [0314E53C] [30A7FDA7]
01 100,0 [7EC7761D] [ECC6806F]
02 100,0 [07CD2D4A] [F301AFAF]
03 100,0 [EFDDC2B9] [028FF425]
04 100,0 [F043F556] [30EB3E04]
05 100,0 [43D8F711] [F2F8409A]
06 100,0 [D96CA46F] [A2E4AC24]
07 100,0 [2CFBA751] [534A4AC9]
08 100,0 [DD906E33] [0AF9F501]
09 100,0 [45A9DA6E] [A6CFAD02]
10 100,0 [A62F9EB3] [14D4999E]
11 100,0 [8F0E5388] [1A6DFF76]
12 100,0 [E5273198] [83F7ED60]
13 100,0 [B4F4BB5D] [F0F7B3B9]
14 100,0 [5A4C5B15] [16583967]



01. Call It Love (2:54)
02. Street Of Dreams Feat. Joe Lynn Turner (4:31)

Отчёт EAC об извлечении, выполненном 5. мая 2007, 17:09 для диска:
Blackmore's Night / The Village Lanterne (CD2)

Дисковод: SONY DVD-ROM DDU1611 Adapter: 0 ID: 0
Режим чтения: Достоверный (C2: нет, Точный поток: да, Отключение кэша: да)
Комбинированное смещение чтения/записи: 0
Способность читать области Lead-in и Lead-out : Нет

Выходной формат: Внутренние WAV-операции
44.100 Гц; 16 бит; стерео

Другие параметры:
Заполнение пропущенных сэмплов тишиной : Да
Удаление блоков с тишиной в начале и конце : Нет
Встроенный Win32-интерфейс для Win NT/2000


Характеристики диапазона извлечения и сообщения об ошибках
Выбранный диапазон
Имя файла F:\Blackmore's Night\Blackmore's Night - The Village Lanterne\Blackmore's Night - The Village Lanterne (CD2).wav

Пиковый уровень 98.8 %
Качество диапазона 100.0 %
CRC 676B2637
Копирование… OK

Ошибок не произошло

Конец отчёта


[CUETools log; Date: 30.07.2019 10:52:58; Version: 2.1.4]
[AccurateRip ID: 0000b531-0001eca2-0f01bc02] found.
Track [ CRC | V2 ] Status
01 [74fb3c90|b33254ce] (0+0/4) No match
02 [0099778a|b2b76c83] (0+0/4) No match
Offsetted by -73:
01 [75f39d5e] (0/4) No match (V2 was not tested)
02 [fb5769bc] (0/4) No match (V2 was not tested)
Offsetted by 594:
01 [07635674] (0/4) No match (V2 was not tested)
02 [e1bd77a6] (0/4) No match (V2 was not tested)

Track Peak [ CRC32 ] [W/O NULL]
– 98,8 [676B2637] [DA551EF5]
01 98,8 [41BEAF04] [8A77BC32]
02 98,8 [0622F11B] [8A2A9BED]


Blackmore's Night: Discography (1997 - 2015) Re-up

Tracklist CD07 - 2006 - Winter Carols [Minstrel Hall Music, PRE 008]:

01. Hark The Herald Angels Sing\Come All Ye Faithful (3:50)
02. I Saw Three Ships (2:40)
03. Ritchie Blackmore / Winter (basse dance) (3:08)
04. Ding Dong Merrily On High (3:16)
05. Ma-O-Tzur (2:19)
06. Good King Wenceslas (4:44)
07. Lord of the Dance\Simple Gifts (3:34)
08. We Three Kings (4:49)
09. Wish You Were Here (5:02)
10. Emmanuel (3:33)
11. Christmas Eve (4:20)
12. We Wish You A Merry Christmas (1:21)

EAC extraction logfile from 18. March 2007, 14:55 for CD
Blackmore's Night / Winter Carols

Used drive : PLEXTOR DVDR PX-760A Adapter: 1 ID: 0
Read mode : Secure with NO C2, accurate stream, disable cache
Read offset correction : 30
Overread into Lead-In and Lead-Out : No

Used output format : Internal WAV Routines
44.100 Hz; 16 Bit; Stereo

Other options :
Fill up missing offset samples with silence : Yes
Delete leading and trailing silent blocks : No
Installed external ASPI interface


Range status and errors
Selected range
Filename F:\Blackmore's Night - Winter Carols.wav

Peak level 100.0 %
Range quality 100.0 %
CRC 8CD2565A
Copy OK

No errors occured

End of status report


[CUETools log; Date: 30.07.2019 10:59:21; Version: 2.1.4]
[AccurateRip ID: 0012d5c6-00b23503-8b09fd0c] found.
Track [ CRC | V2 ] Status
01 [5782aff9|0afaeeb7] (034+059/137) Accurately ripped
02 [4aa0da80|a77f1379] (034+059/138) Accurately ripped
03 [dea1493a|8886424c] (034+059/139) Accurately ripped
04 [fa27a8fd|4b9b312c] (034+058/137) Accurately ripped
05 [9d00d757|e3d2cd54] (034+059/139) Accurately ripped
06 [ea120227|b2261417] (034+058/138) Accurately ripped
07 [46d0401e|7c5b4022] (034+058/138) Accurately ripped
08 [09719e15|2ff17a29] (034+058/138) Accurately ripped
09 [6e515df8|3a7c7849] (034+058/139) Accurately ripped
10 [d49ca15c|9fcba2a5] (034+058/137) Accurately ripped
11 [065919f4|3b4f5ffb] (034+059/137) Accurately ripped
12 [63ba155e|ca25d509] (032+059/135) Accurately ripped
Offsetted by -664:
01 [c13562ee] (002/137) Accurately ripped
02 [337a21c8] (002/138) Accurately ripped
03 [147b6c3a] (002/139) Accurately ripped
04 [a590f8b5] (002/137) Accurately ripped
05 [a0d4612f] (002/139) Accurately ripped
06 [7718516f] (002/138) Accurately ripped
07 [b8f79a36] (002/138) Accurately ripped
08 [d0e7fc6d] (002/138) Accurately ripped
09 [575ddb18] (002/139) Accurately ripped
10 [7f8160e4] (002/137) Accurately ripped
11 [1ea9e6a4] (002/137) Accurately ripped
12 [1c4e7a6c] (002/135) Accurately ripped
Offsetted by -652:
01 [b58d6462] (003/137) Accurately ripped
02 [c1c665e4] (003/138) Accurately ripped
03 [e85402ba] (003/139) Accurately ripped
04 [008a7119] (003/137) Accurately ripped
05 [190cb383] (003/139) Accurately ripped
06 [83f7d18b] (003/138) Accurately ripped
07 [f622126a] (003/138) Accurately ripped
08 [4bc26081] (003/138) Accurately ripped
09 [1a183b88] (003/139) Accurately ripped
10 [0420b6e0] (003/137) Accurately ripped
11 [af3026cc] (003/137) Accurately ripped
12 [094f2509] (003/135) Accurately ripped
Offsetted by -640:
01 [3ba8ab9a] (012/137) Accurately ripped
02 [5012aa00] (012/138) Accurately ripped
03 [bc2c993a] (012/139) Accurately ripped
04 [5b83e97d] (012/137) Accurately ripped
05 [914505d7] (012/139) Accurately ripped
06 [90d751a7] (012/138) Accurately ripped
07 [334c8a9e] (012/138) Accurately ripped
08 [c69cc495] (012/138) Accurately ripped
09 [dcd29bf8] (012/139) Accurately ripped
10 [88c00cdc] (011/137) Accurately ripped
11 [3fb666f4] (011/137) Accurately ripped
12 [1f903945] (012/135) Accurately ripped
Offsetted by 6:
01 [e714d3ba] (002/137) Accurately ripped
02 [91c6fc8e] (003/138) Accurately ripped
03 [c88d947a] (003/139) Accurately ripped
04 [27a4652f] (003/137) Accurately ripped
05 [d91d0081] (003/139) Accurately ripped
06 [7081c235] (003/138) Accurately ripped
07 [e5657c38] (003/138) Accurately ripped
08 [46ded01f] (003/138) Accurately ripped
09 [cfae8e30] (003/139) Accurately ripped
10 [96ec4c5a] (003/137) Accurately ripped
11 [ce9c3a08] (003/137) Accurately ripped
12 [6e3b5638] (003/135) Accurately ripped
Offsetted by -646:
01 [050f26b9] (000/137) No match (V2 was not tested)
02 [08ec87f2] (000/138) No match (V2 was not tested)
03 [d2404dfa] (000/139) No match (V2 was not tested)
04 [2e072d4b] (000/137) No match (V2 was not tested)
05 [5528dcad] (000/139) No match (V2 was not tested)
06 [0a679199] (000/138) No match (V2 was not tested)
07 [94b74e84] (000/138) No match (V2 was not tested)
08 [892f928b] (000/138) No match (V2 was not tested)
09 [7b756bc0] (000/139) No match (V2 was not tested)
10 [c67061de] (000/137) No match (V2 was not tested)
11 [777346e0] (000/137) No match (V2 was not tested)
12 [1454665b] (000/135) No match (V2 was not tested)
Offsetted by -634:
01 [91ba4bb3] (000/137) No match
02 [9738cc0e] (000/138) No match (V2 was not tested)
03 [a618e47a] (000/139) No match
04 [8900a5af] (000/137) No match
05 [cd612f01] (000/139) No match
06 [174711b5] (000/138) No match
07 [d1e1c6b8] (000/138) No match (V2 was not tested)
08 [0409f69f] (000/138) No match
09 [3e2fcc30] (000/139) No match
10 [4b0fb7da] (000/137) No match
11 [07f98708] (000/137) No match
12 [2bdce412] (000/135) No match

Track Peak [ CRC32 ] [W/O NULL] [ LOG ]
– 100,0 [8CD2565A] [D12D3C3F] CRC32
01 100,0 [549EE79D] [32BE4465]
02 100,0 [3E0E39BB] [B10CCBAE]
03 100,0 [1B6A66D9] [5442F021]
04 100,0 [B82E4B00] [9B9B6900]
05 100,0 [5ADDCBAB] [258B1B7B]
06 100,0 [4AB29925] [3D5DB8E7]
07 100,0 [BF4FD8B8] [423157FA]
08 100,0 [C1CE3A5D] [6B1E445F]
09 100,0 [DF4DA5AB] [15F0F19F]
10 100,0 [AB7FAE79] [8447033B]
11 100,0 [5F298B45] [C2AB0742]
12 98,6 [310E2574] [6C40C891]


Blackmore's Night: Discography (1997 - 2015) Re-up

Tracklist CD08 - 2008 - Secret Voyage [SPV 91782 CD-E]:

1. God Save The Keg - 3:40
2. Locked Within The Crystal Ball - 8:04
3. Gilded Cage - 3:42
4. Toast To Tomorrow - 3:49
5. Prince Waldeek's Galliard - 2:13
6. Rainbow Eyes - 6:01
7. The Circle - 4:48
8. Sister Gypsy - 3:21
9. Can't Help Falling In Love - 2:51
10. The Peasant's Promise - 5:33
11. Far Far Away - 3:54
12. Empty Words - 5:12

Exact Audio Copy V1.0 beta 3 from 29. August 2011

EAC extraction logfile from 18. May 2014, 21:26

Blackmore's Night / Secret Voyage

Used drive : SlimtypeDVD A DS8A5SH Adapter: 0 ID: 1

Read mode : Secure
Utilize accurate stream : Yes
Defeat audio cache : Yes
Make use of C2 pointers : No

Read offset correction : 6
Overread into Lead-In and Lead-Out : No
Fill up missing offset samples with silence : Yes
Delete leading and trailing silent blocks : No
Null samples used in CRC calculations : Yes
Used interface : Native Win32 interface for Win NT & 2000

Used output format : User Defined Encoder
Selected bitrate : 320 kBit/s
Quality : High
Add ID3 tag : No
Command line compressor : C:\Program Files (x86)\Exact Audio Copy\Flac\flac.exe
Additional command line options : -V -8 -T "Date=%year%" -T "Genre=%genre%" %source%


TOC of the extracted CD

Track | Start | Length | Start sector | End sector
––––––––––––––––––––––––––––-
1 | 0:00.00 | 3:40.36 | 0 | 16535
2 | 3:40.36 | 8:04.35 | 16536 | 52870
3 | 11:44.71 | 3:42.57 | 52871 | 69577
4 | 15:27.53 | 3:49.58 | 69578 | 86810
5 | 19:17.36 | 2:13.29 | 86811 | 96814
6 | 21:30.65 | 6:01.49 | 96815 | 123938
7 | 27:32.39 | 4:48.51 | 123939 | 145589
8 | 32:21.15 | 3:21.30 | 145590 | 160694
9 | 35:42.45 | 2:51.45 | 160695 | 173564
10 | 38:34.15 | 5:33.26 | 173565 | 198565
11 | 44:07.41 | 3:54.25 | 198566 | 216140
12 | 48:01.66 | 2:40.52 | 216141 | 228192
13 | 53:14.43 | 6:00.01 | 239593 | 266593


Range status and errors

Selected range

Filename D:\My Music\Blackmore's Night - 2008 Secret Voyage\Blackmore's Night - Secret Voyage.wav

Peak level 98.8 %
Extraction speed 2.9 X
Range quality 100.0 %
Test CRC 5A2174FA
Copy CRC 5A2174FA
Copy OK

No errors occurred


AccurateRip summary

Track 1 accurately ripped (confidence 54) [FACEDFE9] (AR v2)
Track 2 accurately ripped (confidence 54) [228FA2AE] (AR v2)
Track 3 accurately ripped (confidence 54) [A77DA0AC] (AR v2)
Track 4 accurately ripped (confidence 53) [D8F6C908] (AR v2)
Track 5 accurately ripped (confidence 55) [843B8063] (AR v2)
Track 6 accurately ripped (confidence 54) [9FDC3122] (AR v2)
Track 7 accurately ripped (confidence 54) [673A0460] (AR v2)
Track 8 accurately ripped (confidence 54) [88B4D33B] (AR v2)
Track 9 accurately ripped (confidence 54) [01DCCE1B] (AR v2)
Track 10 accurately ripped (confidence 54) [AB827A6C] (AR v2)
Track 11 accurately ripped (confidence 54) [0A087FB7] (AR v2)
Track 12 accurately ripped (confidence 54) [D31B41B6] (AR v2)

All tracks accurately ripped

End of status report

==== Log checksum 68065C794DA1002020B3D6AD77F81F26DB00E4847D1068BCEDA3B97D348A9FCF ====


[CUETools log; Date: 30.07.2019 11:07:59; Version: 2.1.4]
CD-Extra data track length 06:00:01.
[AccurateRip ID: 00188815-00e4023d-bc0de20d] found.
Track [ CRC | V2 ] Status
01 [c58d98a3|facedfe9] (079+103/241) Accurately ripped
02 [700b1e59|228fa2ae] (079+102/240) Accurately ripped
03 [25486418|a77da0ac] (079+102/240) Accurately ripped
04 [789e0ae8|d8f6c908] (079+101/239) Accurately ripped
05 [bc978be2|843b8063] (080+103/242) Accurately ripped
06 [1336ac72|9fdc3122] (077+102/238) Accurately ripped
07 [7e46478e|673a0460] (078+102/238) Accurately ripped
08 [68eca325|88b4d33b] (079+102/240) Accurately ripped
09 [9af94a9e|01dcce1b] (080+102/240) Accurately ripped
10 [8c2f94ac|ab827a6c] (079+102/239) Accurately ripped
11 [65611c17|0a087fb7] (076+101/235) Accurately ripped
12 [a1ddd9e8|d31b41b6] (075+103/236) Accurately ripped
Offsetted by -676:
01 [40296628] (004/241) Accurately ripped
02 [9e84e294] (004/240) Accurately ripped
03 [c0e7b4d0] (004/240) Accurately ripped
04 [3508a748] (004/239) Accurately ripped
05 [62c5be4e] (004/242) Accurately ripped
06 [0cc1dd1e] (004/238) Accurately ripped
07 [0e2fb9ee] (004/238) Accurately ripped
08 [b2f7b9c5] (004/240) Accurately ripped
09 [494041ee] (003/240) Accurately ripped
10 [fa645f84] (003/239) Accurately ripped
11 [4257532f] (003/235) Accurately ripped
12 [ec1b4e28] (004/236) Accurately ripped
Offsetted by -664:
01 [fd101786] (007/241) Accurately ripped
02 [dd57fb70] (007/240) Accurately ripped
03 [76f282e8] (007/240) Accurately ripped
04 [caaee728] (007/239) Accurately ripped
05 [f8d10aaa] (007/242) Accurately ripped
06 [aa690cba] (007/238) Accurately ripped
07 [40a647ce] (007/238) Accurately ripped
08 [615e88e5] (007/240) Accurately ripped
09 [c0db057e] (007/240) Accurately ripped
10 [74a6163c] (007/239) Accurately ripped
11 [4905b327] (007/235) Accurately ripped
12 [25dd9f68] (006/236) Accurately ripped
Offsetted by 12:
01 [c1269c95] (017/241) Accurately ripped
02 [a10593ef] (017/240) Accurately ripped
03 [db533230] (017/240) Accurately ripped
04 [0e444ac8] (017/239) Accurately ripped
05 [52a2d83e] (017/242) Accurately ripped
06 [b0dddc0e] (017/238) Accurately ripped
07 [b0bcd56e] (017/238) Accurately ripped
08 [17537245] (017/240) Accurately ripped
09 [12940e2e] (017/240) Accurately ripped
10 [06714b64] (017/239) Accurately ripped
11 [6c0f7c0f] (017/235) Accurately ripped
12 [dba02b28] (017/236) Accurately ripped
Offsetted by -762:
01 [0e4b89a6] (000/241) No match (V2 was not tested)
02 [5a96274f] (000/240) No match (V2 was not tested)
03 [fd9a4524] (000/240) No match (V2 was not tested)
04 [d9e132d8] (000/239) No match (V2 was not tested)
05 [84ca1b10] (000/242) No match (V2 was not tested)
06 [f83e5d40] (000/238) No match (V2 was not tested)
07 [f9de167e] (000/238) No match (V2 was not tested)
08 [266c42b5] (000/240) No match (V2 was not tested)
09 [f015c866] (000/240) No match (V2 was not tested)
10 [38e2c208] (000/239) No match (V2 was not tested)
11 [bd204e13] (000/235) No match (V2 was not tested)
12 [4e2ab288] (000/236) No match (V2 was not tested)
Offsetted by -18:
01 [10fb1c33] (000/241) No match (V2 was not tested)
02 [20639891] (000/240) No match (V2 was not tested)
03 [14382ef4] (000/240) No match (V2 was not tested)
04 [1824ab18] (000/239) No match (V2 was not tested)
05 [db869958] (000/242) No match (V2 was not tested)
06 [26bbe508] (000/238) No match (V2 was not tested)
07 [329472be] (000/238) No match (V2 was not tested)
08 [63526c75] (000/240) No match (V2 was not tested)
09 [e7912546] (000/240) No match (V2 was not tested)
10 [d4cd0298] (000/239) No match (V2 was not tested)
11 [5b5b8c23] (000/235) No match (V2 was not tested)
12 [4b3a6008] (000/236) No match (V2 was not tested)
Offsetted by 6:
01 [d2e14c2f] (000/241) No match (V2 was not tested)
02 [565ae616] (000/240) No match (V2 was not tested)
03 [804dcb24] (000/240) No match (V2 was not tested)
04 [43712ad8] (000/239) No match (V2 was not tested)
05 [079d3210] (000/242) No match (V2 was not tested)
06 [620a4440] (000/238) No match (V2 was not tested)
07 [97818e7e] (000/238) No match (V2 was not tested)
08 [c0200ab5] (000/240) No match (V2 was not tested)
09 [d6c6ac66] (000/240) No match (V2 was not tested)
10 [c9507008] (000/239) No match (V2 was not tested)
11 [68b84c13] (000/235) No match (V2 was not tested)
12 [bebf0288] (000/236) No match (V2 was not tested)

Track Peak [ CRC32 ] [W/O NULL] [ LOG ]
– 98,8 [5A2174FA] [46BA01F4] CRC32
01 98,8 [05467FFD] [21F346FB]
02 98,8 [420A8982] [BAD75ABA]
03 98,8 [936C188B] [CA656431]
04 98,8 [9719CDF8] [8A10E090]
05 98,8 [86A084F2] [26B3EC0E]
06 98,8 [516DE007] [D5E8043F]
07 98,8 [9E30A767] [F5AE4721]
08 98,8 [EE467EF0] [6265FB9D]
09 98,8 [509EF852] [7EA14C77]
10 98,8 [AD38331C] [31764F92]
11 98,8 [57A43C79] [CDC30412]
12 98,8 [284814FC] [31A5CC0A]


Blackmore's Night: Discography (1997 - 2015) Re-up

Tracklist CD09 - 2010 - Autumn Sky [Universal Music, UICO-1192]:

1. Highland - 5:49
2. Vagabond (Make A Princess Of Me) - 5:23
3. Journeyman - 5:41
4. Believe In Me - 4:25
5. Sake Of The Song - 2:46
6. Song And Dance (Pt II) - 2:03
7. Celluloid Heroes - 5:27
8. Keeper Of The Flame - 4:42
9. Night At Eggersberg - 2:15
10. Strawberry Girl - 4:05
11. All The Fun Of The Fayre - 3:55
12. Darkness - 3:21
13. Dance Of The Darkness - 3:35
14. Health To The Company - 4:19
15. Barbara Allen - 3:43
16. Gottlische Devise (bonus track for Japan) - 3:36

Exact Audio Copy V1.0 beta 3 from 29. August 2011

EAC extraction logfile from 18. May 2014, 23:41

Blackmore's Night / Autumn Sky

Used drive : SlimtypeDVD A DS8A5SH Adapter: 0 ID: 1

Read mode : Secure
Utilize accurate stream : Yes
Defeat audio cache : Yes
Make use of C2 pointers : No

Read offset correction : 6
Overread into Lead-In and Lead-Out : No
Fill up missing offset samples with silence : Yes
Delete leading and trailing silent blocks : No
Null samples used in CRC calculations : Yes
Used interface : Native Win32 interface for Win NT & 2000

Used output format : User Defined Encoder
Selected bitrate : 320 kBit/s
Quality : High
Add ID3 tag : No
Command line compressor : C:\Program Files (x86)\Exact Audio Copy\Flac\flac.exe
Additional command line options : -V -8 -T "Date=%year%" -T "Genre=%genre%" %source%


TOC of the extracted CD

Track | Start | Length | Start sector | End sector
––––––––––––––––––––––––––––-
1 | 0:00.00 | 5:49.13 | 0 | 26187
2 | 5:49.13 | 5:23.19 | 26188 | 50431
3 | 11:12.32 | 5:41.23 | 50432 | 76029
4 | 16:53.55 | 4:25.49 | 76030 | 95953
5 | 21:19.29 | 2:46.71 | 95954 | 108474
6 | 24:06.25 | 2:03.09 | 108475 | 117708
7 | 26:09.34 | 5:27.44 | 117709 | 142277
8 | 31:37.03 | 4:42.00 | 142278 | 163427
9 | 36:19.03 | 2:15.23 | 163428 | 173575
10 | 38:34.26 | 4:05.51 | 173576 | 192001
11 | 42:40.02 | 3:55.13 | 192002 | 209639
12 | 46:35.15 | 3:21.04 | 209640 | 224718
13 | 49:56.19 | 3:35.51 | 224719 | 240894
14 | 53:31.70 | 4:19.06 | 240895 | 260325
15 | 57:51.01 | 3:43.18 | 260326 | 277068
16 | 61:34.19 | 3:36.43 | 277069 | 293311


Range status and errors

Selected range

Filename D:\My Music\Blackmore's Night - 2010 Autumn Sky\Blackmore's Night - Autumn Sky.wav

Peak level 98.9 %
Extraction speed 2.0 X
Range quality 100.0 %
Test CRC 948C8766
Copy CRC 948C8766
Copy OK

No errors occurred


AccurateRip summary

Track 1 accurately ripped (confidence 7) [EC960E3A] (AR v2)
Track 2 accurately ripped (confidence 7) [3C682446] (AR v2)
Track 3 accurately ripped (confidence 7) [0DE2531F] (AR v2)
Track 4 accurately ripped (confidence 7) [31B80EFF] (AR v2)
Track 5 accurately ripped (confidence 7) [E26A7FBB] (AR v2)
Track 6 accurately ripped (confidence 7) [95647F48] (AR v2)
Track 7 accurately ripped (confidence 7) [33369D19] (AR v2)
Track 8 accurately ripped (confidence 6) [CC7710F8] (AR v2)
Track 9 accurately ripped (confidence 7) [ECF46F13] (AR v2)
Track 10 accurately ripped (confidence 7) [C501BDA1] (AR v2)
Track 11 accurately ripped (confidence 7) [AE6BB25D] (AR v2)
Track 12 accurately ripped (confidence 7) [E9358AD1] (AR v2)
Track 13 accurately ripped (confidence 7) [B881FAF2] (AR v2)
Track 14 accurately ripped (confidence 7) [3D6A6367] (AR v2)
Track 15 accurately ripped (confidence 7) [BFD2A1A0] (AR v2)
Track 16 accurately ripped (confidence 7) [133B88AE] (AR v2)

All tracks accurately ripped

End of status report

==== Log checksum DEA6DFEEC86EF1E7A6DC79238B78D856EC2C4D85E4A08C5DC6B281707E3841DB ====


[CUETools log; Date: 30.07.2019 11:10:51; Version: 2.1.4]
[AccurateRip ID: 00287781-01d9d521-f70f4610] found.
Track [ CRC | V2 ] Status
01 [a88934a4|ec960e3a] (04+12/18) Accurately ripped
02 [b95ed00a|3c682446] (04+12/18) Accurately ripped
03 [48804bb3|0de2531f] (04+12/18) Accurately ripped
04 [b1f2da37|31b80eff] (04+12/18) Accurately ripped
05 [5ffdf9b4|e26a7fbb] (04+12/18) Accurately ripped
06 [23b74fbb|95647f48] (04+12/18) Accurately ripped
07 [d5e8bebc|33369d19] (04+12/18) Accurately ripped
08 [06d93d75|cc7710f8] (04+11/17) Accurately ripped
09 [d11a5c8b|ecf46f13] (04+12/18) Accurately ripped
10 [15f0b0ae|c501bda1] (04+12/18) Accurately ripped
11 [ee1e2f88|ae6bb25d] (04+12/18) Accurately ripped
12 [04f700b5|e9358ad1] (04+12/18) Accurately ripped
13 [32653325|b881faf2] (04+12/18) Accurately ripped
14 [9730cbc1|3d6a6367] (04+12/18) Accurately ripped
15 [632e2c73|bfd2a1a0] (04+12/18) Accurately ripped
16 [3430b319|133b88ae] (04+11/17) Accurately ripped
Offsetted by 6:
01 [d2407682] (00/18) No match (V2 was not tested)
02 [bf76706c] (00/18) No match (V2 was not tested)
03 [a299a3d1] (00/18) No match (V2 was not tested)
04 [0195e52f] (00/18) No match (V2 was not tested)
05 [560f6726] (00/18) No match (V2 was not tested)
06 [203fb1a4] (00/18) No match (V2 was not tested)
07 [ad17a821] (00/18) No match (V2 was not tested)
08 [b44b4c26] (00/17) No match (V2 was not tested)
09 [9b1a22e6] (00/18) No match (V2 was not tested)
10 [ba114a49] (00/18) No match (V2 was not tested)
11 [d3feb0d1] (00/18) No match (V2 was not tested)
12 [c488ca70] (00/18) No match (V2 was not tested)
13 [8e9ce2d4] (00/18) No match (V2 was not tested)
14 [4eb1e067] (00/18) No match (V2 was not tested)
15 [496d9f1d] (00/18) No match (V2 was not tested)
16 [31cd435f] (00/17) No match (V2 was not tested)

Track Peak [ CRC32 ] [W/O NULL] [ LOG ]
– 98,9 [948C8766] [AF422933] CRC32
01 98,9 [2D5B41E7] [CAC82ACB]
02 98,9 [095939DB] [609202AF]
03 98,9 [42EBB642] [9830BD70]
04 98,9 [D545C951] [F7CC3222]
05 98,8 [66598C2A] [8E2C78CC]
06 98,9 [CEBE39CF] [9125E446]
07 98,9 [41944C40] [C9B6AD5D]
08 98,8 [31E50FED] [3AC90DDD]
09 98,8 [D17CFB1C] [CC4F66EE]
10 98,9 [88C0DD3A] [141961EC]
11 98,9 [B4F06DD2] [3158E91C]
12 98,8 [02ABB4F5] [7564FEC8]
13 98,8 [C644CFAE] [FE3C036D]
14 98,8 [502CB0F1] [0ADF3230]
15 98,8 [DB723DE4] [43316085]
16 98,9 [7E08CDFC] [705F6518]


Blackmore's Night: Discography (1997 - 2015) Re-up

Tracklist CD10 - 2013 - Dancer and the Moon [Frontiers Records, FR CDVD 605]:

01. I Think It's Going To Rain Today (3:54)
02. Troika (3:30)
03. The Last Leaf (4:05)
04. Lady In Black (5:48)
05. Minstrels In The Hall (2:38)
06. The Temple Of The King (4:26)
07. Dancer And The Moon (4:55)
08. Galliard (2:00)
09. The Ashgrove (2:21)
10. Somewhere Over The Sea (The Moon Is Shining) (4:07)
11. The Moon Is Shining (Somewhere Over The Sea) (6:19)
12. The Spinner's Tale (3:30)
13. Carry On… Jon (5:37)

Exact Audio Copy V0.99 prebeta 5 from 4. May 2009

Отчёт EAC об извлечении, выполненном 11. июня 2013, 20:11

Blackmore's Night / Dancer and the Moon

Дисковод: PLEXTOR DVDR PX-880SA Adapter: 1 ID: 0

Режим чтения : Достоверность
Использование точного потока : Да
Отключение кэша аудио : Да
Использование указателей C2 : Нет

Коррекция смещения при чтении : 6
Способность читать области Lead-in и Lead-out : Нет
Заполнение пропущенных сэмплов тишиной : Да
Удаление блоков с тишиной в начале и конце : Нет
При вычислениях CRC использовались нулевые сэмплы : Да
Интерфейс : Установленный внешний ASPI-интерфейс

Выходной формат : Пользовательский кодировщик
Выбранный битрейт : 1024 kBit/s
Качество : Высокий
Добавление ID3-тэга : Нет
Утилита сжатия : C:\Program Files\Exact Audio Copy\FLAC\FLAC.EXE
Дополнительные параметры : -10 -V -T "ARTIST=%a" -T "TITLE=%t" -T "ALBUM=%g" -T "DATE=%y" -T "TRACKNUMBER=%n" -T "GENRE=%m" -T "COMMENT=%e" %s -o %d


TOC извлечённого CD

Трек | Старт | Длительность | Начальный сектор | Конечный сектор
––––––––––––––––––––––––––––––––––-
1 | 0:00.00 | 3:54.39 | 0 | 17588
2 | 3:54.39 | 3:30.47 | 17589 | 33385
3 | 7:25.11 | 4:05.03 | 33386 | 51763
4 | 11:30.14 | 5:48.22 | 51764 | 77885
5 | 17:18.36 | 2:38.35 | 77886 | 89770
6 | 19:56.71 | 4:26.51 | 89771 | 109771
7 | 24:23.47 | 4:55.09 | 109772 | 131905
8 | 29:18.56 | 2:00.11 | 131906 | 140916
9 | 31:18.67 | 2:21.59 | 140917 | 151550
10 | 33:40.51 | 4:07.04 | 151551 | 170079
11 | 37:47.55 | 6:19.20 | 170080 | 198524
12 | 44:07.00 | 3:30.34 | 198525 | 214308
13 | 47:37.34 | 5:37.13 | 214309 | 239596


Характеристики диапазона извлечения и сообщения об ошибках

Выбранный диапазон

Имя файла D:\BitComet\Blackmore's Night - Dancer And The Moon(2013)\Blackmore's Night - Dancer and the Moon.wav

Пиковый уровень 98.8 %
Качество диапазона 100.0 %
CRC теста B21520B1
CRC копии B21520B1
Копирование… OK

Ошибок не произошло


AccurateRip: сводка

Трек 1 нет в базе данных
Трек 2 нет в базе данных
Трек 3 нет в базе данных
Трек 4 нет в базе данных
Трек 5 нет в базе данных
Трек 6 нет в базе данных
Трек 7 нет в базе данных
Трек 8 нет в базе данных
Трек 9 нет в базе данных
Трек 10 нет в базе данных
Трек 11 нет в базе данных
Трек 12 нет в базе данных
Трек 13 нет в базе данных

Ни одного трека нет в базе AccurateRip

Конец отчёта


[CUETools log; Date: 30.07.2019 11:01:49; Version: 2.1.4]
[AccurateRip ID: 0018d3ad-00f8483b-ba0c7a0d] found.
Track [ CRC | V2 ] Status
01 [0e7b23c3|86e9e158] (009+128/156) Accurately ripped
02 [a1ab653f|520206f2] (009+127/155) Accurately ripped
03 [d6b9d9d2|86af9b66] (009+126/154) Accurately ripped
04 [d999d5a2|153cadd6] (009+127/155) Accurately ripped
05 [3f497e2f|3b9c196b] (009+127/155) Accurately ripped
06 [9f9fcc58|5bbd6a93] (009+128/156) Accurately ripped
07 [bbb75aba|b3c224cc] (009+127/155) Accurately ripped
08 [6517dac0|ad21c7eb] (009+126/154) Accurately ripped
09 [caf8c7e5|515fb6d7] (009+127/155) Accurately ripped
10 [0ae0d516|6d57c7df] (009+128/156) Accurately ripped
11 [b72825dc|58ba7f08] (009+130/158) Accurately ripped
12 [d24a2e20|568acad9] (009+129/157) Accurately ripped
13 [85645969|35ede833] (009+131/160) Accurately ripped
Offsetted by -664:
01 [68f0104c] (000/156) No match (V2 was not tested)
02 [ea307647] (000/155) No match (V2 was not tested)
03 [71857b82] (000/154) No match (V2 was not tested)
04 [8c08fefa] (000/155) No match (V2 was not tested)
05 [34f9e5af] (000/155) No match (V2 was not tested)
06 [5daf2230] (000/156) No match (V2 was not tested)
07 [ad091862] (000/155) No match (V2 was not tested)
08 [be7a6d20] (000/154) No match (V2 was not tested)
09 [a107fe65] (000/155) No match (V2 was not tested)
10 [e006458e] (000/156) No match (V2 was not tested)
11 [cf13de5c] (000/158) No match (V2 was not tested)
12 [9be38f98] (000/157) No match (V2 was not tested)
13 [efd78281] (000/160) No match (V2 was not tested)
Offsetted by 62:
01 [90635412] (000/156) No match (V2 was not tested)
02 [0d04c0f5] (000/155) No match (V2 was not tested)
03 [82dfe5b6] (000/154) No match (V2 was not tested)
04 [80753cf4] (000/155) No match (V2 was not tested)
05 [cbd0eccf] (000/155) No match (V2 was not tested)
06 [38498c0a] (000/156) No match (V2 was not tested)
07 [7625b2a8] (000/155) No match (V2 was not tested)
08 [ca3dafc8] (000/154) No match (V2 was not tested)
09 [3a1193c5] (000/155) No match (V2 was not tested)
10 [a2ed8780] (000/156) No match (V2 was not tested)
11 [b3618f3c] (000/158) No match (V2 was not tested)
12 [7196134a] (000/157) No match (V2 was not tested)
13 [f85e390b] (000/160) No match (V2 was not tested)
Offsetted by 86:
01 [e7cac42a] (000/156) No match (V2 was not tested)
02 [3ed4c36d] (000/155) No match (V2 was not tested)
03 [8372c106] (000/154) No match (V2 was not tested)
04 [a8460a1c] (000/155) No match (V2 was not tested)
05 [75d3cd4f] (000/155) No match (V2 was not tested)
06 [4a17a4b2] (000/156) No match (V2 was not tested)
07 [10e50e80] (000/155) No match (V2 was not tested)
08 [b796a768] (000/154) No match (V2 was not tested)
09 [0a3c3545] (000/155) No match (V2 was not tested)
10 [1fd9ab88] (000/156) No match (V2 was not tested)
11 [46908ebc] (000/158) No match (V2 was not tested)
12 [9ebbb652] (000/157) No match (V2 was not tested)
13 [1c9dea73] (000/160) No match (V2 was not tested)

Track Peak [ CRC32 ] [W/O NULL] [ LOG ]
– 98,8 [B21520B1] [8D0133FA] CRC32
01 98,8 [D513D11F] [CC0BD60C]
02 98,8 [6C0251F9] [87E56509]
03 88,1 [AE3297FA] [680BA870]
04 98,8 [E71725F5] [61235C4E]
05 83,1 [8785D4B3] [36D0A06F]
06 98,8 [A2C5917D] [491688ED]
07 98,8 [1FBE45AC] [FB3C9608]
08 98,8 [BFD80CB1] [C44C8DEA]
09 98,8 [102ED6AE] [125A482E]
10 98,8 [145D4647] [9891A92A]
11 98,8 [FC0C70FB] [4B2731E5]
12 85,4 [903726B0] [A52D2847]
13 98,8 [319C6BDE] [AFE07FE3]


Blackmore's Night: Discography (1997 - 2015) Re-up

Tracklist CD11 - 2015 - All Our Yesterdays [Avalon Marquee, MIZP-30011]:

1. All Our Yesterdays - 4:01
2. Allan Yn N Fan - 3:28
3. Darker Shade Of Black - 6:04
4. Long Long Time - 4:12
5. Moonlight Shadow - 4:14
6. I Got You Babe - 3:59
7. The Other Side - 3:19
8. Queen's Lament - 2:09
9. Where Are We Going From Here - 5:43
10. Will O' The Wisp - 4:31
11. Earth Wind And Sky - 3:42
12. Coming Home - 3:35

Exact Audio Copy V1.0 beta 3 from 29. August 2011

EAC extraction logfile from 26. September 2015, 21:57

Blackmore's Night / All Our Yesterdays

Used drive : SlimtypeDVD A DS8A5SH Adapter: 0 ID: 0

Read mode : Secure
Utilize accurate stream : Yes
Defeat audio cache : Yes
Make use of C2 pointers : No

Read offset correction : 6
Overread into Lead-In and Lead-Out : No
Fill up missing offset samples with silence : Yes
Delete leading and trailing silent blocks : No
Null samples used in CRC calculations : Yes
Used interface : Installed external ASPI interface

Used output format : User Defined Encoder
Selected bitrate : 320 kBit/s
Quality : High
Add ID3 tag : No
Command line compressor : C:\Program Files (x86)\Exact Audio Copy\Flac\flac.exe
Additional command line options : -V -8 -T "Date=%year%" -T "Genre=%genre%" %source%


TOC of the extracted CD

Track | Start | Length | Start sector | End sector
––––––––––––––––––––––––––––-
1 | 0:00.00 | 4:01.53 | 0 | 18127
2 | 4:01.53 | 3:28.35 | 18128 | 33762
3 | 7:30.13 | 6:04.60 | 33763 | 61122
4 | 13:34.73 | 4:12.44 | 61123 | 80066
5 | 17:47.42 | 4:14.11 | 80067 | 99127
6 | 22:01.53 | 3:59.09 | 99128 | 117061
7 | 26:00.62 | 3:19.70 | 117062 | 132056
8 | 29:20.57 | 2:09.30 | 132057 | 141761
9 | 31:30.12 | 5:43.07 | 141762 | 167493
10 | 37:13.19 | 4:31.08 | 167494 | 187826
11 | 41:44.27 | 3:42.40 | 187827 | 204516
12 | 45:26.67 | 3:34.29 | 204517 | 220595


Range status and errors

Selected range

Filename D:\My Music\Blackmore's Night - 2015 All Our Yesterdays\Blackmore's Night - All Our Yesterdays.wav

Peak level 98.8 %
Extraction speed 1.7 X
Range quality 100.0 %
Test CRC 19E103C9
Copy CRC 19E103C9
Copy OK

No errors occurred


AccurateRip summary

Track 1 not present in database
Track 2 not present in database
Track 3 not present in database
Track 4 not present in database
Track 5 not present in database
Track 6 not present in database
Track 7 not present in database
Track 8 not present in database
Track 9 not present in database
Track 10 not present in database
Track 11 not present in database
Track 12 not present in database

None of the tracks are present in the AccurateRip database

End of status report

==== Log checksum 897BD2B852E2DCC4B632CA92DD07FF01E7CE58A8D9D24C537AAA74FE9B9BE912 ====


[CUETools log; Date: 30.07.2019 11:13:49; Version: 2.1.4]
[AccurateRip ID: 001654e4-00cf6546-9c0b7d0c] found.
Track [ CRC | V2 ] Status
01 [1b3a80df|0b274550] (00+05/65) Accurately ripped
02 [47cdea73|fa9aa899] (00+05/65) Accurately ripped
03 [567fa67e|ce091424] (00+05/66) Accurately ripped
04 [871224d8|9d11b999] (00+05/64) Accurately ripped
05 [85cadd99|30ee66df] (00+05/66) Accurately ripped
06 [bbb52a2f|e30967a2] (00+05/66) Accurately ripped
07 [bd59f89f|02ff48f2] (00+05/63) Accurately ripped
08 [1ef3a961|e1a886d2] (00+05/66) Accurately ripped
09 [8d311132|0104b52c] (00+05/67) Accurately ripped
10 [11630c4e|410d0ab5] (00+05/67) Accurately ripped
11 [a28acfd0|51f500ad] (00+05/66) Accurately ripped
12 [0fbf9d68|34e5dd59] (00+05/65) Accurately ripped
Offsetted by -98:
01 [c7e0777c] (00/65) No match
02 [58313cb1] (04/65) Accurately ripped
03 [f7adbbb2] (04/66) Accurately ripped
04 [ea4d1b5e] (04/64) Accurately ripped
05 [b3960029] (04/66) Accurately ripped
06 [d825715b] (04/66) Accurately ripped
07 [acc602bf] (04/63) Accurately ripped
08 [8deb2f9b] (04/66) Accurately ripped
09 [44b39340] (04/67) Accurately ripped
10 [25d2c100] (04/67) Accurately ripped
11 [bd2c790e] (04/66) Accurately ripped
12 [c0eb8f56] (04/65) Accurately ripped
Offsetted by -6:
01 [303f4257] (00/65) No match (V2 was not tested)
02 [9c66484d] (00/65) No match (V2 was not tested)
03 [2c1f34da] (00/66) No match (V2 was not tested)
04 [c1641f0a] (00/64) No match (V2 was not tested)
05 [98450449] (00/66) No match (V2 was not tested)
06 [6f14daf3] (00/66) No match (V2 was not tested)
07 [fb07c4ff] (00/63) No match (V2 was not tested)
08 [98af396f] (00/66) No match (V2 was not tested)
09 [1b0a097c] (00/67) No match (V2 was not tested)
10 [31fc2c44] (00/67) No match (V2 was not tested)
11 [f28a42aa] (00/66) No match (V2 was not tested)
12 [da2069d4] (00/65) No match (V2 was not tested)

Track Peak [ CRC32 ] [W/O NULL] [ LOG ]
– 98,8 [19E103C9] [785DE2F0] CRC32
01 98,8 [B7D56274] [D2E84F32]
02 98,8 [7429BC4D] [AE7F5EDF]
03 98,8 [79E5EC29] [840FA393]
04 98,8 [C0ED6459] [490F7608]
05 98,8 [4CEA006A] [82E7C5DD]
06 98,8 [17B361E0] [17A100B5]
07 98,8 [5D94596F] [E6C046E9]
08 98,8 [84AF205F] [0138491E]
09 98,8 [383AA719] [B7B8B842]
10 98,8 [4046EADC] [B012E551]
11 98,8 [F8AE8B2F] [7C44A1B0]
12 98,8 [4BF90FF2] [E356D139]


All thanks go to the original releasers

Blackmore's Night in my Blog

Download Blackmore's Night: Discography (1997 - 2015):