Subcategories

Blue Oyster Cult - The Complete Columbia Albums Collection (2012) (16 CDs Box Set)

Posted By: murena
Blue Oyster Cult - The Complete Columbia Albums Collection (2012) (16 CDs Box Set)

Blue Oyster Cult - The Complete Columbia Albums Collection (2012) (16 CDs Box Set)
EAC Rip | FLAC (Image+.cue, log) | 16 CDs, 17:06:29 min | 6,83 Gb | Scans -> 234 mb
Genre: Rock, Hard Rock / Label: Sony Music

Blue Oyster Cult - The Columbia Albums Collection brings together the group's 14 official Columbia Records albums–including newly-mastered editions of On Your Feet or on Your Knees, Fire of Unknown Origin, The Revolution by Night, Mirrors, Cultosaurus Erectus, Extraterrestrial Live, Club Ninja and Imaginos–alongside two newly-curated bonus discs: Rarities and Radios Appear: The Best of the Broadcasts (a special collection of classic live performances).

Many of the discs retain the bonus tracks from previous releases and the set also includes newly mastered versions of On Your Feet or on Your Knees, Fire of Unknown Origin, The Revölution by Night, Mirrors, Cultösaurus Erectus, Extraterrestrial Live, Club Ninja and Imaginos.

Blue Oyster Cult - The Complete Columbia Albums Collection (2012) (16 CDs Box Set)


Blue Oyster Cult - The Columbia Albums Collection includes:
1. Blue Oyster Cult (1972 - studio - with 2001 CD bonus tracks)
2. Tyranny and Mutation (1973 - studio - with 2001 CD bonus tracks)
3. Secret Treaties (1974 - studio - with 2001 CD bonus tracks)
4. On Your Feet or on Your Knees (1975 - live) - 2012 Remaster
5. Agents of Fortune (1976 - studio - with 2001 CD bonus tracks)
6. Spectres (1977 - studio - with 2007 CD bonus tracks)
7. Some Enchanted Evening CD (1978 - live - with 2007 CD bonus tracks)
8. Some OTHER Enchanted Evening DVD (1978 - live)
9. Mirrors (1979 - studio) - 2012 Remaster
10. Cultosaurus Erectus (1980 - studio) - 2012 Remaster
11. Fire of Unknown Origin (1981 - studio) - 2012 Remaster
12. Extraterrestrial Live (1982 - live) - 2012 Remaster
13. The Revolution By Night (1983 - studio) - 2012 Remaster
14. Club Ninja (1985 - studio) - 2012 Remaster
15. Imaginos (1988 - studio) - 2012 Remaster
16. Rarities
17. Radios Appear: The Best of the Broadcasts


1972 - Blue Oyster Cult (Studio / With 2001 CD Bonus Tracks) 00:49:42
01. Transmission MC 03:20
02. I'm On The Lamb But I Ain't No Sheep 03:10
03. Then Came The Last Days Of May 03:30
04. Stairways To The Stars 03:43
05. Before The Kiss, A Redcap 04:59
06. Screams 03:09
07. She's As Beautiful As A Foot 02:57
08. Cities On Flame With Rock And Roll 04:03
09. Workshop Of The Telescopes 04:01
10. Redeemed 03:51

Bonus Tracks:
11. Donovan's Monkey 03:49
12. What Is Quicksand? 03:40
13. A Fact About Sneakers 02:51
14. Betty Lou's Got A New Pair Of Shoes 02:33

1973 - Tyranny And Mutation (Studio / With 2001 CD Bonus Tracks) 01:07:11
01. The Red & The Black 04:23
02. O.D.'d On Life Itself 04:47
03. Hot Rails To Hell 05:11
04. 7 Screaming Diz-Busters 07:01
05. Baby Ice Dog 03:28
06. Wings Wetted Down 04:12
07. Teen Archer 03:57
08. Mistress Of The Salmon Salt (Quicklime Girl) 05:08

Bonus Tracks:
09. Cities On Flame With Rock And Roll (Live) 04:44
10. Buck's Boogie (Studio Version) 05:21
11. 7 Screaming Diz-Busters (Live) 14:00
12. O.D.'d On Life Itself (Live) 04:52

1974 - Secret Treaties (Studio / With 2001 CD Bonus Tracks) 00:56:08
01. Career Of Evil 03:59
02. Subhuman 04:38
03. Dominance And Submission 05:22
04. ME 262 04:47
05. Cagey Cretins 03:16
06. Harvester Of Eyes 04:41
07. Flaming Telepaths 05:19
08. Astronomy 06:28

Bonus Tracks:
09. Boorman The Chauffer 03:19
10. Mommy 03:32
11. Mes Dames Sarat 04:06
12. Born To Be Wild (Single B-Side) 03:40
13. Career Of Evil (Single Version) 03:00

1975 - On Your Feet Or On Your Knees (Live / New 2012 Remaster) 01:16:25
01. The Subhuman 07:29
02. Harvester Of Eyes 04:56
03. Hot Rails To Hell 05:39
04. The Red & The Black 04:32
05. Seven Screaming Diz-Busters 08:48
06. Buck's Boogie 07:13
07. (Then Came The) Last Days Of May 04:37
08. Cities On Flame 04:05
09. ME 262 08:22
10. Before The Kiss (A Redcap) 05:11
11. Maserati GT (I Ain't Got You) 08:58
12. Born To Be Wild 06:28

1976 - Agents Of Fortune (Studio / With 2001 CD Bonus Tracks) 00:51:41
01. This Ain't The Summer Of Love 02:20
02. True Confessions 02:56
03. (Don't Fear) The Reaper 05:08
04. E. T. I. (Extra Terrestrial Intelligence) 03:42
05. The Revenge Of Vera Gemini 03:52
06. Sinful Love 03:29
07. Tattoo Vampire 02:41
08. Morning Final 04:30
09. Tenderloin 03:39
10. Debbie Denise 04:13

Bonus Tracks:
11. Fire Of Unknown Origin (Original Version) 03:29
12. Sally (Demo) 02:39
13. (Don't Fear) The Reaper (Demo) 06:20
14. Dance The Night Away (Demo) 02:36

1977 - Spectres (Studio / With 2007 CD Bonus Tracks) 00:53:38
01. Godzilla 03:41
02. Golden Age Of Leather 05:52
03. Death Valley Nights 04:08
04. Searchin' For Celine 03:36
05. Fireworks 03:12
06. R. U. Ready 2 Rock 03:44
07. Celestial The Queen 03:26
08. Goin' Through The Motions 03:12
09. I Love The Night 04:24
10. Nosferatu 05:27

Bonus Tracks:
11. Night Flyer 03:49
12. Dial M For Murder 03:11
13. Please Hold 02:47
14. Be My Baby 03:01

1978 - Some Enchanted Evening (Live / With 2007 CD Bonus Tracks) 01:13:33
01. R.U. Ready 2 Rock 06:08
02. E.T.I. (Extra Terrestrial Intelligence) 05:17
03. Astronomy 08:29
04. Kick Out The Jams 03:07
05. Godzilla 04:13
06. (Don't Fear) The Reaper 06:10
07. We Gotta Get Out Of This Place 04:35

Bonus Tracks:
08. ME 262 03:23
09. Harvester Of Eyes 04:34
10. Hot Rails To Hell 05:00
11. (This Ain't The) Summer Of Love 02:47
12. 5 Guitars 08:33
13. Born To Be Wild 06:33
14. We Gotta Get Out Of This Place (Alternate Version) 04:35

1979 - Mirrors (Studio / New 2012 Remaster) 00:37:01
01. Dr Music 03:13
02. The Great Sun Jester 04:50
03. In Thee 03:50
04. Mirrors 03:47
05. Moon Crazy 04:07
06. The Vigil 06:28
07. I Am The Storm 03:44
08. You're Not The One (I Was Looking For) 03:16
09. Lonely Teardrops 03:41

1980 - Cultosaurus Erectus (Studio / New 2012 Remaster) 00:42:14
01. Black Blade 06:39
02. Monsters 05:07
03. Divine Wind 05:10
04. Deadline 04:30
05. The Marshall Plan 05:27
06. Hungry Boys 03:40
07. Fallen Angel 03:14
08. Lips In The Hill 04:26
09. Unknown Tongue 03:57

1981 - Fire Of Unknown Origin (Studio / New 2012 Remaster) 00:43:07
01. Fire Of Unknown Origin 04:11
02. Burnin' For You 04:31
03. Veteran Of Psychic Wars 04:49
04. Sole Survivor 04:06
05. Heavy Metal: The Black And Silver 03:18
06. Vengeance (The Pact) 04:40
07. After Dark 04:25
08. Joan Crawford 04:54
09. Don't Turn Your Back 04:08

1982 - Extraterrestrial Live (Live / New 2012 Remaster) 01:17:49
01. Dominance And Submission 05:54
02. Cities On Flame 05:15
03. Dr. Music 03:38
04. The Red And The Black 04:36
05. Joan Crawford 05:17
06. Burnin' For You 04:51
07. Roadhouse Blues 09:04
08. Black Blade 06:15
09. Hot Rails To Hell 05:02
10. Godzilla 07:48
11. Veteran Of The Psychic Wars 08:07
12. E. T. I. (Extra Terrestrial Intelligence) 05:21
13. (Don't Fear) The Reaper 06:35

1983 - The Revolution By Night (Studio / New 2012 Remaster) 00:42:19
01. Take Me Away 04:31
02. Eyes On Fire 03:56
03. Shooting Shark 07:10
04. Veins 03:59
05. Shadow Of California 05:10
06. Feel The Thunder 05:48
07. Let Go 03:25
08. Dragon Lady 04:08
09. Light Years Of Love 04:06

1985 - Club Ninja (Studio / New 2012 Remaster) 00:45:17
01. White Flags 04:43
02. Dancin' In The Ruins 04:01
03. Make Rock Not War 03:57
04. Perfect Water 05:32
05. Spy In The House Of The Night 04:22
06. Beat 'Em Up 03:24
07. When The War Comes 06:05
08. Shadow Warrior 05:42
09. Madness To The Method 07:27

1988 - Imaginos (Studio / New 2012 Remaster) 00:55:29
01. I Am The One You Warned Me Of 05:05
02. Les Invisibles 05:34
03. In The Presence Of Another World 06:28
04. Del Rio's Song 05:36
05 The Siege And Investiture Of Baron Von Frankenstein's Castle At Weisseria 06:44
06. Astronomy 06:55
07. Magna Of Illusion 05:58
08. Blue Oyster Cult 07:18
09. Imaginos 05:46

2012 - Rarities 01:18:40
01. Stairway To The Stars / Live 04:06
02. The Red & The Black / Live 04:36
03. Buck's Boogie / Live 05:19
04. Cities On Flame With Rock And Roll / Live 04:44
05. Workshop Of The Telescopes / Live 03:48
06. Dr. Music / Live 04:08
07. The Vigil / Live 07:22
08. The Great Sun Jester / Live 05:48
09. In Thee / Live 03:51
10. Mirrors / Live 04:43
11. Steppin' Razor (Rehearsal Demo) 02:50
12. Godzilla (Mono Version) / Live 03:55
13. Double Talk (Demo) 03:49
14. Rebel (Demo) 03:55
15. Summa Cum Laude (Demo) 04:22
16. I'm On The Lamb But I Ain't No Sheep (Demo) 02:58
17. John L. Sullivan (Demo) 01:36
18. I Want You (She's So Heavy) / Live 05:54
19. Stephen King Spoken Intro 00:48

2012 - Radios Appear: The Best Of The Broadcasts 01:16:54
01. Intro / Dr. Music (KSAN Broadcast) 04:25
02. Lips In The Hills (KSAN Broadcast) 04:56
03. Before The Kiss, A Red Cap (RKO Radio Networks: Captured Live) 06:16
04. 7 Screaming Dizbusters (RKO Radio Networks: Captured Live) 10:43
05. Workshop Of The Telescopes (RKO Radio Networks: Captured Live) 03:31
06. It's Not Easy (KSAN Broadcast) 08:30
07. Wings Of Mercury (King Biscuit Flower Hour) 04:44
08. Arthur Comics (KSAN Broadcast) 03:15
09. Black Blade (KSAN Broadcast) 08:40
10. Joan Crawford (ABC: A Night On The Road) 05:04
11. 5 Guitars / Golden Age Of Leather (KSAN Broadcast) 05:16
12. Dancin' In The Ruins (King Biscuit Flower Hour) 04:13
13. Take Me Away (King Biscuit Flower Hour) 07:14



CD1
Exact Audio Copy V1.0 beta 3 from 29. August 2011
EAC extraction logfile from 15. November 2012, 18:59
Blue Oyster Cult / Blue Oyster Cult
Used drive : PLEXTOR BD-R PX-B950SA Adapter: 6 ID: 0
Read mode : Secure
Utilize accurate stream : Yes
Defeat audio cache : Yes
Make use of C2 pointers : No
Read offset correction : 6
Overread into Lead-In and Lead-Out : No
Fill up missing offset samples with silence : Yes
Delete leading and trailing silent blocks : No
Null samples used in CRC calculations : Yes
Used interface : Native Win32 interface for Win NT & 2000
Used output format : Internal WAV Routines
Sample format : 44.100 Hz; 16 Bit; Stereo
TOC of the extracted CD
Track | Start | Length | Start sector | End sector
––––––––––––––––––––––––––––-
1 | 0:00.00 | 3:20.55 | 0 | 15054
2 | 3:20.55 | 3:10.37 | 15055 | 29341
3 | 6:31.17 | 3:30.73 | 29342 | 45164
4 | 10:02.15 | 3:43.35 | 45165 | 61924
5 | 13:45.50 | 4:59.02 | 61925 | 84351
6 | 18:44.52 | 3:09.60 | 84352 | 98586
7 | 21:54.37 | 2:57.38 | 98587 | 111899
8 | 24:52.00 | 4:03.15 | 111900 | 130139
9 | 28:55.15 | 4:01.12 | 130140 | 148226
10 | 32:56.27 | 3:51.30 | 148227 | 165581
11 | 36:47.57 | 3:49.08 | 165582 | 182764
12 | 40:36.65 | 3:40.20 | 182765 | 199284
13 | 44:17.10 | 2:51.00 | 199285 | 212109
14 | 47:08.10 | 2:33.10 | 212110 | 223594
Range status and errors
Selected range
Filename C:\Users\Meijin\Desktop\Lossless Galaxy Rip by ALLexxess\Blue Oyster Cult\2012 Complete Columbia Albums (16CD + DVD
Box Set Sony Music)\1972 Blue Oyster Cult\Blue Oyster Cult - Blue Oyster Cult.wav
Peak level 100.0 %
Extraction speed 7.2 X
Range quality 100.0 %
Test CRC 7266F257
Copy CRC 7266F257
Copy OK
No errors occurred
AccurateRip summary
Track 1 not present in database
Track 2 not present in database
Track 3 not present in database
Track 4 not present in database
Track 5 not present in database
Track 6 not present in database
Track 7 not present in database
Track 8 not present in database
Track 9 not present in database
Track 10 not present in database
Track 11 not present in database
Track 12 not present in database
Track 13 not present in database
Track 14 not present in database
None of the tracks are present in the AccurateRip database
End of status report
==== Log checksum 04AFE844785E84796E087E249A3545E2CB95AB5D4ECF4C8AC0DEE0E6360633DC ====


CD2
Exact Audio Copy V1.0 beta 3 from 29. August 2011
EAC extraction logfile from 15. November 2012, 14:58
Blue Oyster Cult / Tyranny And Mutation
Used drive : PLEXTOR BD-R PX-B950SA Adapter: 6 ID: 0
Read mode : Secure
Utilize accurate stream : Yes
Defeat audio cache : Yes
Make use of C2 pointers : No
Read offset correction : 6
Overread into Lead-In and Lead-Out : No
Fill up missing offset samples with silence : Yes
Delete leading and trailing silent blocks : No
Null samples used in CRC calculations : Yes
Used interface : Native Win32 interface for Win NT & 2000
Used output format : Internal WAV Routines
Sample format : 44.100 Hz; 16 Bit; Stereo
TOC of the extracted CD
Track | Start | Length | Start sector | End sector
––––––––––––––––––––––––––––-
1 | 0:00.00 | 4:23.57 | 0 | 19781
2 | 4:23.57 | 4:47.43 | 19782 | 41349
3 | 9:11.25 | 5:11.55 | 41350 | 64729
4 | 14:23.05 | 7:01.35 | 64730 | 96339
5 | 21:24.40 | 3:28.27 | 96340 | 111966
6 | 24:52.67 | 4:12.19 | 111967 | 130885
7 | 29:05.11 | 3:57.06 | 130886 | 148666
8 | 33:02.17 | 5:08.73 | 148667 | 171839
9 | 38:11.15 | 4:44.17 | 171840 | 193156
10 | 42:55.32 | 5:21.60 | 193157 | 217291
11 | 48:17.17 | 14:00.60 | 217292 | 280351
12 | 62:18.02 | 4:52.40 | 280352 | 302291
Range status and errors
Selected range
Filename C:\Users\Meijin\Desktop\Lossless Galaxy Rip by ALLexxess\Blue Oyster Cult\2012 Complete Columbia Albums (16CD + DVD
Box Set Sony Music)\1973 Tyranny And Mutation\Blue Oyster Cult - Tyranny And Mutation.wav
Peak level 100.0 %
Extraction speed 8.6 X
Range quality 100.0 %
Test CRC 4386957A
Copy CRC 4386957A
Copy OK
No errors occurred
AccurateRip summary
Track 1 not present in database
Track 2 not present in database
Track 3 not present in database
Track 4 not present in database
Track 5 not present in database
Track 6 not present in database
Track 7 not present in database
Track 8 not present in database
Track 9 not present in database
Track 10 not present in database
Track 11 not present in database
Track 12 not present in database
None of the tracks are present in the AccurateRip database
End of status report
==== Log checksum CE2F37C9A34B6688E15EECBC14253970B070C996331711E2D06AFCD638EB3006 ====


CD3
Exact Audio Copy V1.0 beta 3 from 29. August 2011
EAC extraction logfile from 15. November 2012, 14:09
Blue Oyster Cult / Secret Treaties
Used drive : PLEXTOR BD-R PX-B950SA Adapter: 6 ID: 0
Read mode : Secure
Utilize accurate stream : Yes
Defeat audio cache : Yes
Make use of C2 pointers : No
Read offset correction : 6
Overread into Lead-In and Lead-Out : No
Fill up missing offset samples with silence : Yes
Delete leading and trailing silent blocks : No
Null samples used in CRC calculations : Yes
Used interface : Native Win32 interface for Win NT & 2000
Used output format : Internal WAV Routines
Sample format : 44.100 Hz; 16 Bit; Stereo
TOC of the extracted CD
Track | Start | Length | Start sector | End sector
––––––––––––––––––––––––––––-
1 | 0:00.00 | 3:59.50 | 0 | 17974
2 | 3:59.50 | 4:38.55 | 17975 | 38879
3 | 8:38.30 | 5:22.70 | 38880 | 63099
4 | 14:01.25 | 4:47.45 | 63100 | 84669
5 | 18:48.70 | 3:16.65 | 84670 | 99434
6 | 22:05.60 | 4:41.27 | 99435 | 120536
7 | 26:47.12 | 5:19.55 | 120537 | 144516
8 | 32:06.67 | 6:28.35 | 144517 | 173651
9 | 38:35.27 | 3:12.48 | 173652 | 188099
10 | 41:48.00 | 3:32.15 | 188100 | 204014
11 | 45:20.15 | 4:06.37 | 204015 | 222501
12 | 49:26.52 | 3:40.60 | 222502 | 239061
13 | 53:07.37 | 3:00.28 | 239062 | 252589
Range status and errors
Selected range
Filename C:\Users\Meijin\Desktop\Lossless Galaxy Rip by ALLexxess\Blue Oyster Cult\2012 Complete Columbia Albums (16CD + DVD
Box Set Sony Music)\1974 Secret Treaties\Blue Oyster Cult - Secret Treaties.wav
Peak level 100.0 %
Extraction speed 7.3 X
Range quality 100.0 %
Test CRC 4D0E5E4F
Copy CRC 4D0E5E4F
Copy OK
No errors occurred
AccurateRip summary
Track 1 not present in database
Track 2 not present in database
Track 3 not present in database
Track 4 not present in database
Track 5 not present in database
Track 6 not present in database
Track 7 not present in database
Track 8 not present in database
Track 9 not present in database
Track 10 not present in database
Track 11 not present in database
Track 12 not present in database
Track 13 not present in database
None of the tracks are present in the AccurateRip database
End of status report
==== Log checksum 874644A02F5A911309ECC9192016BE88E202D7D7EE868F7EED3BEAA2E9F4508B ====


CD4
Exact Audio Copy V1.0 beta 3 from 29. August 2011
EAC extraction logfile from 15. November 2012, 11:41
Blue Oyster Cult / On Your Feet Or On Your Knees
Used drive : PLEXTOR BD-R PX-B950SA Adapter: 6 ID: 0
Read mode : Secure
Utilize accurate stream : Yes
Defeat audio cache : Yes
Make use of C2 pointers : No
Read offset correction : 6
Overread into Lead-In and Lead-Out : No
Fill up missing offset samples with silence : Yes
Delete leading and trailing silent blocks : No
Null samples used in CRC calculations : Yes
Used interface : Native Win32 interface for Win NT & 2000
Used output format : Internal WAV Routines
Sample format : 44.100 Hz; 16 Bit; Stereo
TOC of the extracted CD
Track | Start | Length | Start sector | End sector
––––––––––––––––––––––––––––-
1 | 0:00.00 | 7:29.62 | 0 | 33736
2 | 7:29.62 | 4:56.65 | 33737 | 56001
3 | 12:26.52 | 5:39.34 | 56002 | 81460
4 | 18:06.11 | 4:32.69 | 81461 | 101929
5 | 22:39.05 | 8:48.68 | 101930 | 141597
6 | 31:27.73 | 7:13.00 | 141598 | 174072
7 | 38:40.73 | 4:37.02 | 174073 | 194849
8 | 43:18.00 | 4:05.18 | 194850 | 213242
9 | 47:23.18 | 8:22.25 | 213243 | 250917
10 | 55:45.43 | 5:11.73 | 250918 | 274315
11 | 60:57.41 | 8:58.44 | 274316 | 314709
12 | 69:56.10 | 6:28.05 | 314710 | 343814
Range status and errors
Selected range
Filename C:\Users\Meijin\Desktop\Lossless Galaxy Rip by ALLexxess\Blue Oyster Cult\2012 Complete Columbia Albums (16CD + DVD
Box Set Sony Music)\1975 On Your Feet Or On Your Knees\Blue Oyster Cult - On Your Feet Or On Your Knees.wav
Peak level 99.1 %
Extraction speed 8.8 X
Range quality 100.0 %
Test CRC 02ACBAFE
Copy CRC 02ACBAFE
Copy OK
No errors occurred
AccurateRip summary
Track 1 not present in database
Track 2 not present in database
Track 3 not present in database
Track 4 not present in database
Track 5 not present in database
Track 6 not present in database
Track 7 not present in database
Track 8 not present in database
Track 9 not present in database
Track 10 not present in database
Track 11 not present in database
Track 12 not present in database
None of the tracks are present in the AccurateRip database
End of status report
==== Log checksum F7FA9D534630111DD4152A0C580D7FCC305E83CF61583E5E5043A8EACEA72458 ====


CD5
Exact Audio Copy V1.0 beta 3 from 29. August 2011
EAC extraction logfile from 15. November 2012, 11:03
Blue Oyster Cult / Agents Of Fortune
Used drive : PLEXTOR BD-R PX-B950SA Adapter: 6 ID: 0
Read mode : Secure
Utilize accurate stream : Yes
Defeat audio cache : Yes
Make use of C2 pointers : No
Read offset correction : 6
Overread into Lead-In and Lead-Out : No
Fill up missing offset samples with silence : Yes
Delete leading and trailing silent blocks : No
Null samples used in CRC calculations : Yes
Used interface : Native Win32 interface for Win NT & 2000
Used output format : Internal WAV Routines
Sample format : 44.100 Hz; 16 Bit; Stereo
TOC of the extracted CD
Track | Start | Length | Start sector | End sector
––––––––––––––––––––––––––––-
1 | 0:00.00 | 2:20.45 | 0 | 10544
2 | 2:20.45 | 2:56.57 | 10545 | 23801
3 | 5:17.27 | 5:08.33 | 23802 | 46934
4 | 10:25.60 | 3:42.70 | 46935 | 63654
5 | 14:08.55 | 3:52.05 | 63655 | 81059
6 | 18:00.60 | 3:29.32 | 81060 | 96766
7 | 21:30.17 | 2:41.00 | 96767 | 108841
8 | 24:11.17 | 4:30.30 | 108842 | 129121
9 | 28:41.47 | 3:39.43 | 129122 | 145589
10 | 32:21.15 | 4:13.22 | 145590 | 164586
11 | 36:34.37 | 3:29.48 | 164587 | 180309
12 | 40:04.10 | 2:39.70 | 180310 | 192304
13 | 42:44.05 | 6:20.00 | 192305 | 220804
14 | 49:04.05 | 2:36.67 | 220805 | 232571
Range status and errors
Selected range
Filename C:\Users\Meijin\Desktop\Lossless Galaxy Rip by ALLexxess\Blue Oyster Cult\2012 Complete Columbia Albums (16CD + DVD
Box Set Sony Music)\1976 Agents Of Fortune\Blue Oyster Cult - Agents Of Fortune.wav
Peak level 100.0 %
Extraction speed 7.2 X
Range quality 100.0 %
Test CRC 9AAF86F1
Copy CRC 9AAF86F1
Copy OK
No errors occurred
AccurateRip summary
Track 1 not present in database
Track 2 not present in database
Track 3 not present in database
Track 4 not present in database
Track 5 not present in database
Track 6 not present in database
Track 7 not present in database
Track 8 not present in database
Track 9 not present in database
Track 10 not present in database
Track 11 not present in database
Track 12 not present in database
Track 13 not present in database
Track 14 not present in database
None of the tracks are present in the AccurateRip database
End of status report
==== Log checksum F6C5132A4552A0FA857CBB974F790609811977185D8FA91D2C1C4786042DD608 ====


CD6
Exact Audio Copy V1.0 beta 3 from 29. August 2011
EAC extraction logfile from 15. November 2012, 10:21
Blue Oyster Cult / Spectres
Used drive : PLEXTOR BD-R PX-B950SA Adapter: 6 ID: 0
Read mode : Secure
Utilize accurate stream : Yes
Defeat audio cache : Yes
Make use of C2 pointers : No
Read offset correction : 6
Overread into Lead-In and Lead-Out : No
Fill up missing offset samples with silence : Yes
Delete leading and trailing silent blocks : No
Null samples used in CRC calculations : Yes
Used interface : Native Win32 interface for Win NT & 2000
Used output format : Internal WAV Routines
Sample format : 44.100 Hz; 16 Bit; Stereo
TOC of the extracted CD
Track | Start | Length | Start sector | End sector
––––––––––––––––––––––––––––-
1 | 0:00.00 | 3:41.57 | 0 | 16631
2 | 3:41.57 | 5:52.50 | 16632 | 43081
3 | 9:34.32 | 4:08.48 | 43082 | 61729
4 | 13:43.05 | 3:36.47 | 61730 | 77976
5 | 17:19.52 | 3:12.68 | 77977 | 92444
6 | 20:32.45 | 3:44.57 | 92445 | 109301
7 | 24:17.27 | 3:26.30 | 109302 | 124781
8 | 27:43.57 | 3:12.33 | 124782 | 139214
9 | 30:56.15 | 4:24.57 | 139215 | 159071
10 | 35:20.72 | 5:27.70 | 159072 | 183666
11 | 40:48.67 | 3:49.08 | 183667 | 200849
12 | 44:38.00 | 3:11.12 | 200850 | 215186
13 | 47:49.12 | 2:47.33 | 215187 | 227744
14 | 50:36.45 | 3:01.05 | 227745 | 241324
Range status and errors
Selected range
Filename C:\Users\Meijin\Desktop\Lossless Galaxy Rip by ALLexxess\Blue Oyster Cult\2012 Complete Columbia Albums (16CD + DVD
Box Set Sony Music)\1977 Spectres\Blue Oyster Cult - Spectres.wav
Peak level 99.8 %
Extraction speed 7.2 X
Range quality 100.0 %
Test CRC AE6B3A5A
Copy CRC AE6B3A5A
Copy OK
No errors occurred
AccurateRip summary
Track 1 accurately ripped (confidence 4) [1DBD28A7] (AR v2)
Track 2 accurately ripped (confidence 4) [23E8396C] (AR v2)
Track 3 accurately ripped (confidence 4) [4B2B7ACD] (AR v2)
Track 4 accurately ripped (confidence 4) [4BEC9C23] (AR v2)
Track 5 accurately ripped (confidence 4) [73374677] (AR v2)
Track 6 accurately ripped (confidence 4) [BFF761CC] (AR v2)
Track 7 accurately ripped (confidence 4) [1B0804E9] (AR v2)
Track 8 accurately ripped (confidence 4) [233DEA70] (AR v2)
Track 9 accurately ripped (confidence 4) [2966FBFD] (AR v2)
Track 10 accurately ripped (confidence 4) [F3265037] (AR v2)
Track 11 accurately ripped (confidence 4) [2EDD6AB5] (AR v2)
Track 12 accurately ripped (confidence 4) [31F192B8] (AR v2)
Track 13 accurately ripped (confidence 4) [4E7C6DBC] (AR v2)
Track 14 accurately ripped (confidence 4) [679D8E90] (AR v2)
All tracks accurately ripped
End of status report
==== Log checksum 3BFB80EC263D38A14B0C8FD658570D298C1B4568ADA08AA3D51732ACF458563C ====


CD7
Exact Audio Copy V1.0 beta 3 from 29. August 2011
EAC extraction logfile from 14. November 2012, 20:36
Blue Oyster Cult / Some Enchanted Evening
Used drive : PLEXTOR BD-R PX-B950SA Adapter: 6 ID: 0
Read mode : Secure
Utilize accurate stream : Yes
Defeat audio cache : Yes
Make use of C2 pointers : No
Read offset correction : 6
Overread into Lead-In and Lead-Out : No
Fill up missing offset samples with silence : Yes
Delete leading and trailing silent blocks : No
Null samples used in CRC calculations : Yes
Used interface : Native Win32 interface for Win NT & 2000
Used output format : Internal WAV Routines
Sample format : 44.100 Hz; 16 Bit; Stereo
TOC of the extracted CD
Track | Start | Length | Start sector | End sector
––––––––––––––––––––––––––––-
1 | 0:00.00 | 6:08.00 | 0 | 27599
2 | 6:08.00 | 5:17.67 | 27600 | 51441
3 | 11:25.67 | 8:29.68 | 51442 | 89684
4 | 19:55.60 | 3:07.12 | 89685 | 103721
5 | 23:02.72 | 4:13.25 | 103722 | 122721
6 | 27:16.22 | 6:10.43 | 122722 | 150514
7 | 33:26.65 | 4:35.22 | 150515 | 171161
8 | 38:02.12 | 3:23.73 | 171162 | 186459
9 | 41:26.10 | 4:34.70 | 186460 | 207079
10 | 46:01.05 | 5:00.47 | 207080 | 229626
11 | 51:01.52 | 2:47.60 | 229627 | 242211
12 | 53:49.37 | 8:33.70 | 242212 | 280756
13 | 62:23.32 | 6:33.73 | 280757 | 310304
14 | 68:57.30 | 4:35.50 | 310305 | 330979
Range status and errors
Selected range
Filename C:\Users\Meijin\Desktop\Lossless Galaxy Rip by ALLexxess\Blue Oyster Cult\2012 Complete Columbia Albums (16CD + DVD
Box Set Sony Music)\1978 Some Enchanted Evening CD + DVD\Blue Oyster Cult - Some Enchanted Evening.wav
Peak level 100.0 %
Extraction speed 4.0 X
Range quality 100.0 %
Test CRC 268323E1
Copy CRC 268323E1
Copy OK
No errors occurred
AccurateRip summary
Track 1 cannot be verified as accurate (confidence 23) [91D09977], AccurateRip returned [9AC65EE3] (AR v2)
Track 2 cannot be verified as accurate (confidence 23) [5E52A757], AccurateRip returned [C4C4A7C3] (AR v2)
Track 3 cannot be verified as accurate (confidence 23) [45868F1E], AccurateRip returned [2F75013D] (AR v2)
Track 4 cannot be verified as accurate (confidence 23) [74D766C0], AccurateRip returned [4E2C5D07] (AR v2)
Track 5 cannot be verified as accurate (confidence 23) [CD1B6DD0], AccurateRip returned [3C32EDFA] (AR v2)
Track 6 cannot be verified as accurate (confidence 23) [00ED45C4], AccurateRip returned [10F5DBC8] (AR v2)
Track 7 cannot be verified as accurate (confidence 23) [80183C2B], AccurateRip returned [D54B4ED8] (AR v2)
Track 8 cannot be verified as accurate (confidence 23) [C11E3F81], AccurateRip returned [EA628870] (AR v2)
Track 9 cannot be verified as accurate (confidence 23) [C3FA2CD1], AccurateRip returned [F9DDB2A3] (AR v2)
Track 10 cannot be verified as accurate (confidence 23) [A57D0BE1], AccurateRip returned [B8663B62] (AR v2)
Track 11 cannot be verified as accurate (confidence 23) [43088BDD], AccurateRip returned [9D5AB24B] (AR v2)
Track 12 cannot be verified as accurate (confidence 23) [04CD6967], AccurateRip returned [BC3702E8] (AR v2)
Track 13 cannot be verified as accurate (confidence 23) [DDC6C227], AccurateRip returned [05FC8680] (AR v2)
Track 14 cannot be verified as accurate (confidence 23) [B2348B41], AccurateRip returned [B86A0921] (AR v2)
No tracks could be verified as accurate
You may have a different pressing from the one(s) in the database
End of status report
==== Log checksum 8FA4451FD5EBF907868EFED85AD0F24BE8405D9239F57FCF9B1C7CC398DDDA9D ====


CD8
Exact Audio Copy V1.0 beta 3 from 29. August 2011
EAC extraction logfile from 14. November 2012, 19:27
Blue Oyster Cult / Mirrors
Used drive : PLEXTOR BD-R PX-B950SA Adapter: 6 ID: 0
Read mode : Secure
Utilize accurate stream : Yes
Defeat audio cache : Yes
Make use of C2 pointers : No
Read offset correction : 6
Overread into Lead-In and Lead-Out : No
Fill up missing offset samples with silence : Yes
Delete leading and trailing silent blocks : No
Null samples used in CRC calculations : Yes
Used interface : Native Win32 interface for Win NT & 2000
Used output format : Internal WAV Routines
Sample format : 44.100 Hz; 16 Bit; Stereo
TOC of the extracted CD
Track | Start | Length | Start sector | End sector
––––––––––––––––––––––––––––-
1 | 0:00.00 | 3:13.65 | 0 | 14539
2 | 3:13.65 | 4:50.50 | 14540 | 36339
3 | 8:04.40 | 3:50.09 | 36340 | 53598
4 | 11:54.49 | 3:47.61 | 53599 | 70684
5 | 15:42.35 | 4:07.36 | 70685 | 89245
6 | 19:49.71 | 6:28.04 | 89246 | 118349
7 | 26:18.00 | 3:44.58 | 118350 | 135207
8 | 30:02.58 | 3:16.47 | 135208 | 149954
9 | 33:19.30 | 3:41.54 | 149955 | 166583
Range status and errors
Selected range
Filename C:\Users\Meijin\Desktop\Lossless Galaxy Rip by ALLexxess\Blue Oyster Cult\2012 Complete Columbia Albums (16CD + DVD
Box Set Sony Music)\1979 Mirrors\Blue Oyster Cult - Mirrors.wav
Peak level 100.0 %
Extraction speed 6.6 X
Range quality 100.0 %
Test CRC 2D627B82
Copy CRC 2D627B82
Copy OK
No errors occurred
AccurateRip summary
Track 1 not present in database
Track 2 not present in database
Track 3 not present in database
Track 4 not present in database
Track 5 not present in database
Track 6 not present in database
Track 7 not present in database
Track 8 not present in database
Track 9 not present in database
None of the tracks are present in the AccurateRip database
End of status report
==== Log checksum 9A5CDBB22C382E5F965E845D0AE6C2550EE83D4F931CA50D77337C41B30FC631 ====


CD9
Exact Audio Copy V1.0 beta 3 from 29. August 2011
EAC extraction logfile from 14. November 2012, 19:00
Blue Oyster Cult / Cultosaurus Erectus
Used drive : PLEXTOR BD-R PX-B950SA Adapter: 6 ID: 0
Read mode : Secure
Utilize accurate stream : Yes
Defeat audio cache : Yes
Make use of C2 pointers : No
Read offset correction : 6
Overread into Lead-In and Lead-Out : No
Fill up missing offset samples with silence : Yes
Delete leading and trailing silent blocks : No
Null samples used in CRC calculations : Yes
Used interface : Native Win32 interface for Win NT & 2000
Used output format : Internal WAV Routines
Sample format : 44.100 Hz; 16 Bit; Stereo
TOC of the extracted CD
Track | Start | Length | Start sector | End sector
––––––––––––––––––––––––––––-
1 | 0:00.00 | 6:39.05 | 0 | 29929
2 | 6:39.05 | 5:07.08 | 29930 | 52962
3 | 11:46.13 | 5:10.21 | 52963 | 76233
4 | 16:56.34 | 4:30.72 | 76234 | 96555
5 | 21:27.31 | 5:27.38 | 96556 | 121118
6 | 26:54.69 | 3:40.56 | 121119 | 137674
7 | 30:35.50 | 3:14.64 | 137675 | 152288
8 | 33:50.39 | 4:26.17 | 152289 | 172255
9 | 38:16.56 | 3:57.45 | 172256 | 190075
Range status and errors
Selected range
Filename C:\Users\Meijin\Desktop\Lossless Galaxy Rip by ALLexxess\Blue Oyster Cult\2012 Complete Columbia Albums (16CD + DVD
Box Set Sony Music)\1980 Cultosaurus Erectus\Blue Oyster Cult - Cultosaurus Erectus.wav
Peak level 100.0 %
Extraction speed 6.8 X
Range quality 100.0 %
Test CRC 7A0EABAE
Copy CRC 7A0EABAE
Copy OK
No errors occurred
AccurateRip summary
Track 1 not present in database
Track 2 not present in database
Track 3 not present in database
Track 4 not present in database
Track 5 not present in database
Track 6 not present in database
Track 7 not present in database
Track 8 not present in database
Track 9 not present in database
None of the tracks are present in the AccurateRip database
End of status report
==== Log checksum 7B1A74FD877B3711BE4C0B1DCB141068B26217FD847243078042696843B42991 ====


CD10
Exact Audio Copy V1.0 beta 3 from 29. August 2011
EAC extraction logfile from 14. November 2012, 18:31
Blue Oyster Cult / Fire Of Unknown Origin
Used drive : PLEXTOR BD-R PX-B950SA Adapter: 6 ID: 0
Read mode : Secure
Utilize accurate stream : Yes
Defeat audio cache : Yes
Make use of C2 pointers : No
Read offset correction : 6
Overread into Lead-In and Lead-Out : No
Fill up missing offset samples with silence : Yes
Delete leading and trailing silent blocks : No
Null samples used in CRC calculations : Yes
Used interface : Native Win32 interface for Win NT & 2000
Used output format : Internal WAV Routines
Sample format : 44.100 Hz; 16 Bit; Stereo
TOC of the extracted CD
Track | Start | Length | Start sector | End sector
––––––––––––––––––––––––––––-
1 | 0:00.00 | 4:11.39 | 0 | 18863
2 | 4:11.39 | 4:31.07 | 18864 | 39195
3 | 8:42.46 | 4:49.40 | 39196 | 60910
4 | 13:32.11 | 4:06.41 | 60911 | 79401
5 | 17:38.52 | 3:18.57 | 79402 | 94308
6 | 20:57.34 | 4:40.64 | 94309 | 115372
7 | 25:38.23 | 4:25.68 | 115373 | 135315
8 | 30:04.16 | 4:54.23 | 135316 | 157388
9 | 34:58.39 | 4:08.12 | 157389 | 176000
Range status and errors
Selected range
Filename C:\Users\Meijin\Desktop\Lossless Galaxy Rip by ALLexxess\Blue Oyster Cult\2012 Complete Columbia Albums (16CD + DVD
Box Set Sony Music)\1981 Fire Of Unknown Origin\Blue Oyster Cult - Fire Of Unknown Origin.wav
Peak level 100.0 %
Extraction speed 6.7 X
Range quality 100.0 %
Test CRC A550E2CA
Copy CRC A550E2CA
Copy OK
No errors occurred
AccurateRip summary
Track 1 not present in database
Track 2 not present in database
Track 3 not present in database
Track 4 not present in database
Track 5 not present in database
Track 6 not present in database
Track 7 not present in database
Track 8 not present in database
Track 9 not present in database
None of the tracks are present in the AccurateRip database
End of status report
==== Log checksum AC7416C40FF944CFCFC56F1ED31FB9850529C1E5E9B6E3ABF6AFB03E42ACFBF3 ====


CD11
Exact Audio Copy V1.0 beta 3 from 29. August 2011
EAC extraction logfile from 14. November 2012, 18:01
Blue Oyster Cult / Extraterrestrial Live
Used drive : PLEXTOR BD-R PX-B950SA Adapter: 6 ID: 0
Read mode : Secure
Utilize accurate stream : Yes
Defeat audio cache : Yes
Make use of C2 pointers : No
Read offset correction : 6
Overread into Lead-In and Lead-Out : No
Fill up missing offset samples with silence : Yes
Delete leading and trailing silent blocks : No
Null samples used in CRC calculations : Yes
Used interface : Native Win32 interface for Win NT & 2000
Used output format : Internal WAV Routines
Sample format : 44.100 Hz; 16 Bit; Stereo
TOC of the extracted CD
Track | Start | Length | Start sector | End sector
––––––––––––––––––––––––––––-
1 | 0:00.00 | 5:54.09 | 0 | 26558
2 | 5:54.09 | 5:15.62 | 26559 | 50245
3 | 11:09.71 | 3:38.08 | 50246 | 66603
4 | 14:48.04 | 4:36.46 | 66604 | 87349
5 | 19:24.50 | 5:17.12 | 87350 | 111136
6 | 24:41.62 | 4:51.47 | 111137 | 133008
7 | 29:33.34 | 9:04.56 | 133009 | 173864
8 | 38:38.15 | 6:15.69 | 173865 | 202058
9 | 44:54.09 | 5:02.53 | 202059 | 224761
10 | 49:56.62 | 7:48.08 | 224762 | 259869
11 | 57:44.70 | 8:07.02 | 259870 | 296396
12 | 65:51.72 | 5:21.21 | 296397 | 320492
13 | 71:13.18 | 6:35.55 | 320493 | 350172
Range status and errors
Selected range
Filename C:\Users\Meijin\Desktop\Lossless Galaxy Rip by ALLexxess\Blue Oyster Cult\2012 Complete Columbia Albums (16CD + DVD
Box Set Sony Music)\1982 Extraterrestrial Live\Blue Oyster Cult - Extraterrestrial Live.wav
Peak level 100.0 %
Extraction speed 8.8 X
Range quality 100.0 %
Test CRC A1BE1FA6
Copy CRC A1BE1FA6
Copy OK
No errors occurred
AccurateRip summary
Track 1 not present in database
Track 2 not present in database
Track 3 not present in database
Track 4 not present in database
Track 5 not present in database
Track 6 not present in database
Track 7 not present in database
Track 8 not present in database
Track 9 not present in database
Track 10 not present in database
Track 11 not present in database
Track 12 not present in database
Track 13 not present in database
None of the tracks are present in the AccurateRip database
End of status report
==== Log checksum AB8E833A311A7080876F8B8BF92A28ECEA7390D20B15304527AF4CD43178F87F ====


CD12
Exact Audio Copy V1.0 beta 3 from 29. August 2011
EAC extraction logfile from 14. November 2012, 14:35
Blue Oyster Cult / The Revolution By Night
Used drive : PLEXTOR BD-R PX-B950SA Adapter: 6 ID: 0
Read mode : Secure
Utilize accurate stream : Yes
Defeat audio cache : Yes
Make use of C2 pointers : No
Read offset correction : 6
Overread into Lead-In and Lead-Out : No
Fill up missing offset samples with silence : Yes
Delete leading and trailing silent blocks : No
Null samples used in CRC calculations : Yes
Used interface : Native Win32 interface for Win NT & 2000
Used output format : Internal WAV Routines
Sample format : 44.100 Hz; 16 Bit; Stereo
TOC of the extracted CD
Track | Start | Length | Start sector | End sector
––––––––––––––––––––––––––––-
1 | 0:00.00 | 4:31.72 | 0 | 20396
2 | 4:31.72 | 3:56.44 | 20397 | 38140
3 | 8:28.41 | 7:10.16 | 38141 | 70406
4 | 15:38.57 | 3:59.42 | 70407 | 88373
5 | 19:38.24 | 5:10.35 | 88374 | 111658
6 | 24:48.59 | 5:48.67 | 111659 | 137825
7 | 30:37.51 | 3:25.45 | 137826 | 153245
8 | 34:03.21 | 4:08.59 | 153246 | 171904
9 | 38:12.05 | 4:06.27 | 171905 | 190381
Range status and errors
Selected range
Filename C:\Users\Meijin\Desktop\Lossless Galaxy Rip by ALLexxess\Blue Oyster Cult\2012 Complete Columbia Albums (16CD + DVD
Box Set Sony Music)\1983 The Revolution By Night\Blue Oyster Cult - The Revolution By Night.wav
Peak level 100.0 %
Extraction speed 6.8 X
Range quality 100.0 %
Test CRC ED98EACD
Copy CRC ED98EACD
Copy OK
No errors occurred
AccurateRip summary
Track 1 not present in database
Track 2 not present in database
Track 3 not present in database
Track 4 not present in database
Track 5 not present in database
Track 6 not present in database
Track 7 not present in database
Track 8 not present in database
Track 9 not present in database
None of the tracks are present in the AccurateRip database
End of status report
==== Log checksum E21750A6C61C379DCB1E4F99CC58FC7EB360AD071BCE9A3B23918FB71829F65F ====


CD13
Exact Audio Copy V1.0 beta 3 from 29. August 2011
EAC extraction logfile from 14. November 2012, 13:56
Blue Oyster Cult / Club Ninja
Used drive : PLEXTOR BD-R PX-B950SA Adapter: 6 ID: 0
Read mode : Secure
Utilize accurate stream : Yes
Defeat audio cache : Yes
Make use of C2 pointers : No
Read offset correction : 6
Overread into Lead-In and Lead-Out : No
Fill up missing offset samples with silence : Yes
Delete leading and trailing silent blocks : No
Null samples used in CRC calculations : Yes
Used interface : Native Win32 interface for Win NT & 2000
Used output format : Internal WAV Routines
Sample format : 44.100 Hz; 16 Bit; Stereo
TOC of the extracted CD
Track | Start | Length | Start sector | End sector
––––––––––––––––––––––––––––-
1 | 0:00.00 | 4:43.09 | 0 | 21233
2 | 4:43.09 | 4:01.26 | 21234 | 39334
3 | 8:44.35 | 3:57.51 | 39335 | 57160
4 | 12:42.11 | 5:32.24 | 57161 | 82084
5 | 18:14.35 | 4:22.29 | 82085 | 101763
6 | 22:36.64 | 3:24.63 | 101764 | 117126
7 | 26:01.52 | 6:05.36 | 117127 | 144537
8 | 32:07.13 | 5:42.18 | 144538 | 170205
9 | 37:49.31 | 7:27.44 | 170206 | 203774
Range status and errors
Selected range
Filename C:\Users\Meijin\Desktop\Lossless Galaxy Rip by ALLexxess\Blue Oyster Cult\2012 Complete Columbia Albums (16CD + DVD
Box Set Sony Music)\1985 Club Ninja\Blue Oyster Cult - Club Ninja.wav
Peak level 100.0 %
Extraction speed 6.9 X
Range quality 100.0 %
Test CRC 54159994
Copy CRC 54159994
Copy OK
No errors occurred
AccurateRip summary
Track 1 not present in database
Track 2 not present in database
Track 3 not present in database
Track 4 not present in database
Track 5 not present in database
Track 6 not present in database
Track 7 not present in database
Track 8 not present in database
Track 9 not present in database
None of the tracks are present in the AccurateRip database
End of status report
==== Log checksum A07CCAB6A37C1507F581F094EA006E747C77412EF84AC52AA9EF09AA600961DD ====


CD14
Exact Audio Copy V1.0 beta 3 from 29. August 2011
EAC extraction logfile from 14. November 2012, 12:14
Blue Oyster Cult / Imaginos
Used drive : Optiarc DVD RW AD-7280S Adapter: 5 ID: 0
Read mode : Secure
Utilize accurate stream : Yes
Defeat audio cache : Yes
Make use of C2 pointers : No
Read offset correction : 48
Overread into Lead-In and Lead-Out : No
Fill up missing offset samples with silence : Yes
Delete leading and trailing silent blocks : No
Null samples used in CRC calculations : Yes
Used interface : Native Win32 interface for Win NT & 2000
Used output format : Internal WAV Routines
Sample format : 44.100 Hz; 16 Bit; Stereo
TOC of the extracted CD
Track | Start | Length | Start sector | End sector
––––––––––––––––––––––––––––-
1 | 0:00.00 | 5:05.38 | 0 | 22912
2 | 5:05.38 | 5:34.24 | 22913 | 47986
3 | 10:39.62 | 6:28.29 | 47987 | 77115
4 | 17:08.16 | 5:36.50 | 77116 | 102365
5 | 22:44.66 | 6:44.64 | 102366 | 132729
6 | 29:29.55 | 6:55.69 | 132730 | 163923
7 | 36:25.49 | 5:58.46 | 163924 | 190819
8 | 42:24.20 | 7:18.17 | 190820 | 223686
9 | 49:42.37 | 5:46.21 | 223687 | 249657
Range status and errors
Selected range
Filename C:\Users\Meijin\Desktop\Lossless Galaxy Rip by ALLexxess\Blue Oyster Cult\2012 Complete Columbia Albums (16CD + DVD
Box Set Sony Music)\1988 Imaginos\Blue Oyster Cult - Imaginos.wav
Peak level 100.0 %
Extraction speed 4.0 X
Range quality 100.0 %
Test CRC D680613F
Copy CRC D680613F
Copy OK
No errors occurred
AccurateRip summary
Track 1 not present in database
Track 2 not present in database
Track 3 not present in database
Track 4 not present in database
Track 5 not present in database
Track 6 not present in database
Track 7 not present in database
Track 8 not present in database
Track 9 not present in database
None of the tracks are present in the AccurateRip database
End of status report
==== Log checksum 88FE81942E435BE42CE8B28DF8E84212D49B36A1AC1B928A0D8AEDE08A622C39 ====


CD15
Exact Audio Copy V1.0 beta 3 from 29. August 2011
EAC extraction logfile from 14. November 2012, 9:54
Blue Oyster Cult / Rarities
Used drive : PLEXTOR BD-R PX-B950SA Adapter: 6 ID: 0
Read mode : Secure
Utilize accurate stream : Yes
Defeat audio cache : Yes
Make use of C2 pointers : No
Read offset correction : 6
Overread into Lead-In and Lead-Out : No
Fill up missing offset samples with silence : Yes
Delete leading and trailing silent blocks : No
Null samples used in CRC calculations : Yes
Used interface : Native Win32 interface for Win NT & 2000
Used output format : Internal WAV Routines
Sample format : 44.100 Hz; 16 Bit; Stereo
TOC of the extracted CD
Track | Start | Length | Start sector | End sector
––––––––––––––––––––––––––––-
1 | 0:00.00 | 4:06.28 | 0 | 18477
2 | 4:06.28 | 4:36.38 | 18478 | 39215
3 | 8:42.66 | 5:19.23 | 39216 | 63163
4 | 14:02.14 | 4:44.56 | 63164 | 84519
5 | 18:46.70 | 3:48.38 | 84520 | 101657
6 | 22:35.33 | 4:08.22 | 101658 | 120279
7 | 26:43.55 | 7:22.27 | 120280 | 153456
8 | 34:06.07 | 5:48.18 | 153457 | 179574
9 | 39:54.25 | 3:51.24 | 179575 | 196923
10 | 43:45.49 | 4:43.13 | 196924 | 218161
11 | 48:28.62 | 2:50.55 | 218162 | 230966
12 | 51:19.42 | 3:55.12 | 230967 | 248603
13 | 55:14.54 | 3:49.23 | 248604 | 265801
14 | 59:04.02 | 3:55.42 | 265802 | 283468
15 | 62:59.44 | 4:22.38 | 283469 | 303156
16 | 67:22.07 | 2:58.35 | 303157 | 316541
17 | 70:20.42 | 1:36.23 | 316542 | 323764
18 | 71:56.65 | 5:54.41 | 323765 | 350355
19 | 77:51.31 | 0:48.50 | 350356 | 354005
Range status and errors
Selected range
Filename C:\Users\Meijin\Desktop\Lossless Galaxy Rip by ALLexxess\Blue Oyster Cult\2012 Complete Columbia Albums (16CD + DVD
Box Set Sony Music)\2012 Rarities\Blue Oyster Cult - Rarities.wav
Peak level 100.0 %
Extraction speed 8.7 X
Range quality 99.9 %
Test CRC 7A311A03
Copy CRC 7A311A03
Copy OK
No errors occurred
AccurateRip summary
Track 1 not present in database
Track 2 not present in database
Track 3 not present in database
Track 4 not present in database
Track 5 not present in database
Track 6 not present in database
Track 7 not present in database
Track 8 not present in database
Track 9 not present in database
Track 10 not present in database
Track 11 not present in database
Track 12 not present in database
Track 13 not present in database
Track 14 not present in database
Track 15 not present in database
Track 16 not present in database
Track 17 not present in database
Track 18 not present in database
Track 19 not present in database
None of the tracks are present in the AccurateRip database
End of status report
==== Log checksum 9C1C138B2B32483C28D351C762243D0D7037E0E6CDD141B13005C1910338B1A3 ====


CD16
Exact Audio Copy V1.0 beta 3 from 29. August 2011
EAC extraction logfile from 13. November 2012, 22:27
Blue Oyster Cult / Radios Appear: The Best Of The Broadcasts
Used drive : Optiarc DVD RW AD-7280S Adapter: 5 ID: 0
Read mode : Secure
Utilize accurate stream : Yes
Defeat audio cache : Yes
Make use of C2 pointers : No
Read offset correction : 48
Overread into Lead-In and Lead-Out : No
Fill up missing offset samples with silence : Yes
Delete leading and trailing silent blocks : No
Null samples used in CRC calculations : Yes
Used interface : Native Win32 interface for Win NT & 2000
Used output format : Internal WAV Routines
Sample format : 44.100 Hz; 16 Bit; Stereo
TOC of the extracted CD
Track | Start | Length | Start sector | End sector
––––––––––––––––––––––––––––-
1 | 0:00.00 | 4:25.26 | 0 | 19900
2 | 4:25.26 | 4:56.22 | 19901 | 42122
3 | 9:21.48 | 6:16.54 | 42123 | 70376
4 | 15:38.27 | 10:43.31 | 70377 | 118632
5 | 26:21.58 | 3:31.14 | 118633 | 134471
6 | 29:52.72 | 8:30.45 | 134472 | 172766
7 | 38:23.42 | 4:44.72 | 172767 | 194138
8 | 43:08.39 | 3:15.30 | 194139 | 208793
9 | 46:23.69 | 8:40.57 | 208794 | 247850
10 | 55:04.51 | 5:04.40 | 247851 | 270690
11 | 60:09.16 | 5:16.64 | 270691 | 294454
12 | 65:26.05 | 4:13.40 | 294455 | 313469
13 | 69:39.45 | 7:14.50 | 313470 | 346069
Range status and errors
Selected range
Filename C:\Users\Meijin\Desktop\Lossless Galaxy Rip by ALLexxess\Blue Oyster Cult\2012 Complete Columbia Albums (16CD + DVD
Box Set Sony Music)\2012 Radios Appear\Blue Oyster Cult - Radios Appear.wav
Peak level 99.6 %
Extraction speed 4.7 X
Range quality 100.0 %
Test CRC 888A0890
Copy CRC 888A0890
Copy OK
No errors occurred
AccurateRip summary
Track 1 not present in database
Track 2 not present in database
Track 3 not present in database
Track 4 not present in database
Track 5 not present in database
Track 6 not present in database
Track 7 not present in database
Track 8 not present in database
Track 9 not present in database
Track 10 not present in database
Track 11 not present in database
Track 12 not present in database
Track 13 not present in database
None of the tracks are present in the AccurateRip database
End of status report
==== Log checksum A471A84642DFB3E5D4C6C9F1628E2F5FEB9F07BECD9B99866DF320B37DDCEA2C ====


Blue Oyster Cult - The Complete Columbia Albums Collection (2012) (16 CDs Box Set)


Thanks to original ripper.