Tags
Language
Tags

Bob Dylan - The Bootleg Series Vol.12: The Best Of The Cutting Edge 1965-1966 (2015)

Posted By: v3122
Bob Dylan - The Bootleg Series Vol.12: The Best Of The Cutting Edge 1965-1966 (2015)

Bob Dylan - The Bootleg Series Vol.12: The Best Of The Cutting Edge 1965-1966 (2015)
EAC | Flac(Image) + Cue + Log & MP3 CBR 320Kbps
2CD | Columbia-Legacy 88875124422 | ~ 851 or 343 Mb | Artwork -> 656 Mb
Folk Rock

The Bootleg Series Vol. 12: The Cutting Edge 1965–1966 is a compilation album by American singer-songwriter Bob Dylan, released on Legacy Records in November 2015. The tenth installment in the ongoing Bob Dylan Bootleg Series, it comprises recordings from 1965 and 1966, mostly unreleased demos and outtakes from recording sessions for his ground-breaking albums Bringing It All Back Home, Highway 61 Revisited and Blonde on Blonde…

~ wiki
Bob Dylan - The Bootleg Series Vol.12: The Best Of The Cutting Edge 1965-1966 (2015):

Tracklist CD1:

01. Love Minus Zero / No Limit [Take 2, Acoustic] [0:03:10.62]
02. I'll Keep It with Mine [Take 1, Piano Demo] [0:04:11.26]
03. Bob Dylan's 115th Dream [Take 1 & 2, Solo Acoustic] [0:06:17.02]
04. She Belongs to Me [Take 1, Solo Acoustic] [0:02:57.41]
05. Subterranean Homesick Blues [Take 1, Alternate Take] [0:02:38.49]
06. Outlaw Blues [Take 2, Alternate Take] [0:03:29.41]
07. On the Road Again [Take 4, Alternate Take] [0:02:31.16]
08. Farewell, Angelina [Take 1, Solo Acoustic] [0:05:28.04]
09. If You Gotta Go, Go Now [Take 2, Alternate Take] [0:02:50.30]
10. You Don't Have to Do That [Take 1, Solo Acoustic] [0:00:50.36]
11. California [Take 1, Solo Acoustic] [0:03:05.26]
12. Mr. Tambourine Man [Take 3 with Band, Incomplete] [0:03:23.31]
13. It Takes a Lot to Laugh, It Takes a Train to Cry [Take 8, Alternate Take] [0:03:28.34]
14. Like a Rolling Stone [Take 5, Rehearsal] [0:01:44.65]
15. Like a Rolling Stone [Take 11, Alternate Take] [0:05:56.60]
16. Sitting On a Barbed Wire Fence [Take 2] [0:03:58.72]
17. Medicine Sunday [Take 1] [0:01:01.59]
18. Desolation Row [Take 2, Piano Demo] [0:02:00.56]
19. Desolation Row [Take 1, Alternate Take] [0:11:16.05]

Exact Audio Copy V1.0 beta 3 from 29. August 2011

EAC extraction logfile from 13. February 2016, 12:15

Bob Dylan / The Best Of The Cutting Edge CD1

Used drive : PLEXTOR DVDR PX-L890SA Adapter: 5 ID: 1

Read mode : Secure
Utilize accurate stream : Yes
Defeat audio cache : Yes
Make use of C2 pointers : No

Read offset correction : 6
Overread into Lead-In and Lead-Out : No
Fill up missing offset samples with silence : Yes
Delete leading and trailing silent blocks : No
Null samples used in CRC calculations : Yes
Used interface : Native Win32 interface for Win NT & 2000

Used output format : User Defined Encoder
Selected bitrate : 768 kBit/s
Quality : High
Add ID3 tag : No
Command line compressor : C:\Program Files (x86)\Exact Audio Copy\Flac\flac.exe
Additional command line options : -V -8 -T "Date=%year%" -T "Genre=%genre%" %source%


TOC of the extracted CD

Track | Start | Length | Start sector | End sector
––––––––––––––––––––––––––––-
1 | 0:00.00 | 3:10.62 | 0 | 14311
2 | 3:10.62 | 4:11.26 | 14312 | 33162
3 | 7:22.13 | 6:17.02 | 33163 | 61439
4 | 13:39.15 | 2:57.41 | 61440 | 74755
5 | 16:36.56 | 2:38.49 | 74756 | 86654
6 | 19:15.30 | 3:29.41 | 86655 | 102370
7 | 22:44.71 | 2:31.16 | 102371 | 113711
8 | 25:16.12 | 5:28.04 | 113712 | 138315
9 | 30:44.16 | 2:50.30 | 138316 | 151095
10 | 33:34.46 | 0:50.36 | 151096 | 154881
11 | 34:25.07 | 3:05.26 | 154882 | 168782
12 | 37:30.33 | 3:23.31 | 168783 | 184038
13 | 40:53.64 | 3:28.34 | 184039 | 199672
14 | 44:22.23 | 1:44.65 | 199673 | 207537
15 | 46:07.13 | 5:56.60 | 207538 | 234297
16 | 52:03.73 | 3:58.72 | 234298 | 252219
17 | 56:02.70 | 1:01.59 | 252220 | 256853
18 | 57:04.54 | 2:00.56 | 256854 | 265909
19 | 59:05.35 | 11:16.05 | 265910 | 316614


Range status and errors

Selected range

Filename H:\MUSIC\2015. Bob Dylan - The Bootleg Series Vol.12 The Best Of The Cutting Edge 1965-1966 (Columbia-Legacy 88875124422, EU)\Bob Dylan - The Best Of The Cutting Edge CD1.wav

Peak level 88.2 %
Extraction speed 10.1 X
Range quality 100.0 %
Test CRC 734E1726
Copy CRC 734E1726
Copy OK

No errors occurred


AccurateRip summary

Track 1 accurately ripped (confidence 26) [420AF100] (AR v2)
Track 2 accurately ripped (confidence 26) [6015DECC] (AR v2)
Track 3 accurately ripped (confidence 26) [E3A00271] (AR v2)
Track 4 accurately ripped (confidence 26) [C99C0819] (AR v2)
Track 5 accurately ripped (confidence 26) [B4159794] (AR v2)
Track 6 accurately ripped (confidence 26) [66DA50AD] (AR v2)
Track 7 accurately ripped (confidence 26) [4FE971E0] (AR v2)
Track 8 accurately ripped (confidence 26) [63F85F81] (AR v2)
Track 9 accurately ripped (confidence 26) [3A7F5028] (AR v2)
Track 10 accurately ripped (confidence 26) [B1A164AA] (AR v2)
Track 11 accurately ripped (confidence 26) [6265FFAB] (AR v2)
Track 12 accurately ripped (confidence 26) [1C432B77] (AR v2)
Track 13 accurately ripped (confidence 26) [C673E7C3] (AR v2)
Track 14 accurately ripped (confidence 26) [CD16CE6E] (AR v2)
Track 15 accurately ripped (confidence 26) [682BBB6A] (AR v2)
Track 16 accurately ripped (confidence 26) [59B10B2A] (AR v2)
Track 17 accurately ripped (confidence 26) [61685F64] (AR v2)
Track 18 accurately ripped (confidence 26) [9F34B646] (AR v2)
Track 19 accurately ripped (confidence 26) [76FFB8E5] (AR v2)

All tracks accurately ripped

End of status report

==== Log checksum 7B5EF43843DEBB8FC468E21C6AAC7C1E16A0FC633974B1FA0759C1F7EA2310D7 ====


[CUETools log; Date: 25.04.2017 18:12:28; Version: 2.1.2a]
[CTDB TOCID: T5L6jJ.JjbBjJvRn8ixad7fu8wQ-] found.
[ CTDBID ] Status
[51498ef0] (274/279) Accurately ripped
[ead9eba9] (001/279) No match
[36034622] (001/279) No match
[8ff457b3] (001/279) No match
[175e8203] (001/279) No match
[c9cf5538] (001/279) No match
[AccurateRip ID: 002e07b9-027ca958-1a107d13] found.
Track [ CRC ] Status
01 [ac8dadf8] (004/126) Accurately ripped
02 [d7815435] (004/128) Accurately ripped
03 [2693c340] (004/128) Accurately ripped
04 [102fb631] (004/128) Accurately ripped
05 [32b7374d] (004/128) Accurately ripped
06 [c7c60412] (004/128) Accurately ripped
07 [e3614bc3] (004/128) Accurately ripped
08 [76af1a86] (004/128) Accurately ripped
09 [4807b078] (004/128) Accurately ripped
10 [419949a9] (004/128) Accurately ripped
11 [3dd7e55a] (004/128) Accurately ripped
12 [c2f60704] (004/128) Accurately ripped
13 [d75f7b7c] (004/127) Accurately ripped
14 [bcb9fcbb] (004/127) Accurately ripped
15 [1d52bce6] (004/127) Accurately ripped
16 [505e3ab5] (004/127) Accurately ripped
17 [a010322c] (004/127) Accurately ripped
18 [d71b55fe] (004/127) Accurately ripped
19 [dd89b1df] (004/127) Accurately ripped
AccurateRip v2:
01 [420af100] (122/126) Accurately ripped
02 [6015decc] (124/128) Accurately ripped
03 [e3a00271] (124/128) Accurately ripped
04 [c99c0819] (124/128) Accurately ripped
05 [b4159794] (124/128) Accurately ripped
06 [66da50ad] (124/128) Accurately ripped
07 [4fe971e0] (124/128) Accurately ripped
08 [63f85f81] (124/128) Accurately ripped
09 [3a7f5028] (124/128) Accurately ripped
10 [b1a164aa] (124/128) Accurately ripped
11 [6265ffab] (124/128) Accurately ripped
12 [1c432b77] (124/128) Accurately ripped
13 [c673e7c3] (123/127) Accurately ripped
14 [cd16ce6e] (123/127) Accurately ripped
15 [682bbb6a] (123/127) Accurately ripped
16 [59b10b2a] (123/127) Accurately ripped
17 [61685f64] (123/127) Accurately ripped
18 [9f34b646] (123/127) Accurately ripped
19 [76ffb8e5] (123/127) Accurately ripped

Track Peak [ CRC32 ] [W/O NULL] [ LOG ]
– 88,2 [734E1726] [CC773AC9] CRC32
01 80,6 [1DBDCCE3] [3653B544]
02 65,2 [71B11FA0] [0E0747D2]
03 68,8 [B4C2A55B] [4AC04FF0]
04 80,7 [B0156F22] [083900F2]
05 82,9 [5C53B803] [54D6E50A]
06 88,2 [88DC26E8] [5EEE72C3]
07 80,4 [E7774A29] [C8BDE9C6]
08 77,6 [4E3CD2E2] [84DCA2F0]
09 83,5 [BF14D616] [3270B322]
10 79,1 [516DBE5B] [8CBF599B]
11 79,6 [57524781] [FD28A86A]
12 84,7 [286E1B72] [771CC01B]
13 83,8 [F886A8A4] [D23572FC]
14 77,9 [4FE37B0A] [2F35B3AC]
15 82,6 [510FE085] [A6900050]
16 80,7 [BE4B7256] [425F0E5C]
17 79,2 [904C9D54] [4FFEB5EA]
18 62,9 [CAC57BEB] [145F299D]
19 86,2 [1991B927] [8B80008B]


Tracklist CD2:

01. Tombstone Blues [Take 1, Alternate Take] [0:07:29.63]
02. Positively 4th Street [Take 5, Alternate Take] [0:04:24.29]
03. Can You Please Crawl Out Your Window [Take 1, Alternate Take] [0:04:05.55]
04. Just Like Tom Thumb's Blues [Take 3, Rehearsal] [0:05:39.22]
05. Highway 61 Revisited [Take 3, Alternate Take] [0:03:30.37]
06. Queen Jane Approximately [Take 5, Alternate Take] [0:06:02.21]
07. Visions of Johanna [Take 5, Rehearsal] [0:07:40.03]
08. She's Your Lover Now [Take 6, Rehearsal] [0:04:58.36]
09. Lunatic Princess [Take 1] [0:01:20.16]
10. Leopard-Skin Pill-Box Hat [Take 8, Alternate Take] [0:03:26.38]
11. One of Us Must Know (Sooner or Later) [Take 19, Alternate Take] [0:05:10.71]
12. Stuck Inside of Mobile with the Memphis Blues Again [Take 13, Alternate Take] [0:04:03.28]
13. Absolutely Sweet Marie [Take 1, Alternate Take] [0:05:01.67]
14. Just Like a Woman [Take 4, Alternate Take] [0:05:19.40]
15. Pledging My Time [Take 1, Alternate Take] [0:03:22.70]
16. I Want You [Take 4, Alternate Take] [0:02:51.42]
17. Highway 61 Revisited [Take 7, False Start] [0:00:32.65]

Exact Audio Copy V1.0 beta 3 from 29. August 2011

EAC extraction logfile from 13. February 2016, 11:37

Bob Dylan / The Best of The Cutting Edge CD2

Used drive : PLEXTOR DVDR PX-L890SA Adapter: 5 ID: 1

Read mode : Secure
Utilize accurate stream : Yes
Defeat audio cache : Yes
Make use of C2 pointers : No

Read offset correction : 6
Overread into Lead-In and Lead-Out : No
Fill up missing offset samples with silence : Yes
Delete leading and trailing silent blocks : No
Null samples used in CRC calculations : Yes
Used interface : Native Win32 interface for Win NT & 2000

Used output format : User Defined Encoder
Selected bitrate : 768 kBit/s
Quality : High
Add ID3 tag : No
Command line compressor : C:\Program Files (x86)\Exact Audio Copy\Flac\flac.exe
Additional command line options : -V -8 -T "Date=%year%" -T "Genre=%genre%" %source%


TOC of the extracted CD

Track | Start | Length | Start sector | End sector
––––––––––––––––––––––––––––-
1 | 0:00.00 | 7:29.63 | 0 | 33737
2 | 7:29.63 | 4:24.29 | 33738 | 53566
3 | 11:54.17 | 4:05.55 | 53567 | 71996
4 | 15:59.72 | 5:39.22 | 71997 | 97443
5 | 21:39.19 | 3:30.37 | 97444 | 113230
6 | 25:09.56 | 6:02.21 | 113231 | 140401
7 | 31:12.02 | 7:40.03 | 140402 | 174904
8 | 38:52.05 | 4:58.36 | 174905 | 197290
9 | 43:50.41 | 1:20.16 | 197291 | 203306
10 | 45:10.57 | 3:26.38 | 203307 | 218794
11 | 48:37.20 | 5:10.71 | 218795 | 242115
12 | 53:48.16 | 4:03.28 | 242116 | 260368
13 | 57:51.44 | 5:01.67 | 260369 | 283010
14 | 62:53.36 | 5:19.40 | 283011 | 306975
15 | 68:13.01 | 3:22.70 | 306976 | 322195
16 | 71:35.71 | 2:51.42 | 322196 | 335062
17 | 74:27.38 | 0:32.65 | 335063 | 337527


Range status and errors

Selected range

Filename H:\MUSIC\2015. Bob Dylan - The Bootleg Series Vol.12 The Best Of The Cutting Edge 1965-1966 (Columbia-Legacy 88875124422, EU)\Bob Dylan - The Best of The Cutting Edge CD2.wav

Peak level 91.1 %
Extraction speed 10.3 X
Range quality 100.0 %
Test CRC 59EE960C
Copy CRC 59EE960C
Copy OK

No errors occurred


AccurateRip summary

Track 1 accurately ripped (confidence 19) [A0A643AC] (AR v2)
Track 2 accurately ripped (confidence 20) [6F9ED7E7] (AR v2)
Track 3 accurately ripped (confidence 20) [165ACD7D] (AR v2)
Track 4 accurately ripped (confidence 20) [15F1B47F] (AR v2)
Track 5 accurately ripped (confidence 20) [FA77E5AC] (AR v2)
Track 6 accurately ripped (confidence 20) [CCB75685] (AR v2)
Track 7 accurately ripped (confidence 20) [B59DDC08] (AR v2)
Track 8 accurately ripped (confidence 20) [0CED5390] (AR v2)
Track 9 accurately ripped (confidence 20) [A38F297E] (AR v2)
Track 10 accurately ripped (confidence 20) [BB87DCCA] (AR v2)
Track 11 accurately ripped (confidence 20) [844AF21B] (AR v2)
Track 12 accurately ripped (confidence 20) [3AAF13BA] (AR v2)
Track 13 accurately ripped (confidence 19) [7FF11816] (AR v2)
Track 14 accurately ripped (confidence 20) [88E339CE] (AR v2)
Track 15 accurately ripped (confidence 20) [C0B60CD3] (AR v2)
Track 16 accurately ripped (confidence 19) [19F310BB] (AR v2)
Track 17 accurately ripped (confidence 19) [0CD72BF6] (AR v2)

All tracks accurately ripped

End of status report

==== Log checksum 5A8A006F8A596DA324CBACFE7B4BDDCEC4DD20C3D52BC00D85C2E81628FDBE31 ====


[CUETools log; Date: 25.04.2017 18:13:07; Version: 2.1.2a]
[CTDB TOCID: Acn2yIl9u4RdI0i3_quskS.NvV8-] found.
[ CTDBID ] Status
[0aac309e] (260/271) Accurately ripped
[adf65d14] (001/271) No match
[e091a6da] (001/271) No match
[d2743f3a] (001/271) No match
[8f63f027] (001/271) No match
[4a3fe62e] (001/271) No match
[510c6719] (001/271) No match
[2b8d4fe8] (001/271) No match
[772eae2b] (001/271) No match
[b488761a] (001/271) No match
[0077b8b7] (001/271) No match
[705c6738] (001/271) No match
[AccurateRip ID: 0033c1c0-0281d852-f3119411] found.
Track [ CRC ] Status
01 [e4ea3f49] (005/124) Accurately ripped
02 [0879abe6] (005/126) Accurately ripped
03 [83796975] (005/125) Accurately ripped
04 [df753da8] (005/126) Accurately ripped
05 [7f5fc75d] (005/126) Accurately ripped
06 [7b346e9e] (005/126) Accurately ripped
07 [23590398] (005/126) Accurately ripped
08 [357b66c4] (005/126) Accurately ripped
09 [de10e035] (005/126) Accurately ripped
10 [596b5b16] (005/126) Accurately ripped
11 [fc782c34] (004/125) Accurately ripped
12 [b7b688c6] (004/124) Accurately ripped
13 [d772dc9e] (004/123) Accurately ripped
14 [9e1e2f99] (004/125) Accurately ripped
15 [8eaa3bce] (004/124) Accurately ripped
16 [6e1b0509] (004/122) Accurately ripped
17 [291579b6] (004/124) Accurately ripped
AccurateRip v2:
01 [a0a643ac] (119/124) Accurately ripped
02 [6f9ed7e7] (121/126) Accurately ripped
03 [165acd7d] (120/125) Accurately ripped
04 [15f1b47f] (121/126) Accurately ripped
05 [fa77e5ac] (121/126) Accurately ripped
06 [ccb75685] (121/126) Accurately ripped
07 [b59ddc08] (121/126) Accurately ripped
08 [0ced5390] (121/126) Accurately ripped
09 [a38f297e] (121/126) Accurately ripped
10 [bb87dcca] (121/126) Accurately ripped
11 [844af21b] (121/125) Accurately ripped
12 [3aaf13ba] (120/124) Accurately ripped
13 [7ff11816] (119/123) Accurately ripped
14 [88e339ce] (121/125) Accurately ripped
15 [c0b60cd3] (120/124) Accurately ripped
16 [19f310bb] (118/122) Accurately ripped
17 [0cd72bf6] (120/124) Accurately ripped

Track Peak [ CRC32 ] [W/O NULL] [ LOG ]
– 91,1 [59EE960C] [72921B54] CRC32
01 84,0 [B42A83FD] [54A404EE]
02 89,2 [1EE291D6] [4572B365]
03 84,2 [3AC69753] [BC663BBC]
04 80,0 [47F52648] [6A2E6D60]
05 88,5 [14391B49] [500E55D8]
06 83,3 [150736D9] [3729BDDC]
07 90,6 [B4449BB4] [93AA9DFD]
08 91,1 [08C7D423] [9A61F9B3]
09 76,3 [2E58BAB0] [B8C52B20]
10 84,6 [B84F762D] [EDE36F7F]
11 82,4 [7BA28E43] [98736B61]
12 89,9 [3FDCD0C8] [AA16C11E]
13 83,0 [09EBF7AD] [300C9652]
14 74,5 [A83CCDBB] [BC9E59B3]
15 81,6 [BC067329] [EEF39ECF]
16 83,5 [FA54F0CD] [AFE8E6C3]
17 74,5 [CE062630] [3FA6A90E]


All thanks go to the original releaser

Bob Dylan in my Blog

Download Bob Dylan - The Bootleg Series Vol.12: The Best Of The Cutting Edge 1965-1966 (2015):