Subcategories

Bob Mintzer Big Band - Swing Out (2008)

Posted By: tiburon
Bob Mintzer Big Band - Swing Out (2008)

Bob Mintzer Big Band - Swing Out (2008)
EAC 1.0b3 | FLAC tracks level 8 | Cue+Log+M3U | Full Scans 600dpi | 415MB + 5% Recovery
MP3 CBR 320 Kbps | 187MB + 5% Recovery
Genre: Big Band, Swing
Bob Mintzer Big Band - Swing Out (2008)

Bob Mintzer has led big bands off and on since the late 1970s, in addition to small groups and working as a part of the jazz fusion band the Yellowjackets. These sessions open with his colorful "'Swing Out," a forward-thinking chart in the mold of Bob Brookmeyer's large ensemble writing. "Each Day" is an upbeat number with a gospel undercurrent, while "Swangalang" is an infectious midtempo blues.
Track List
01. Swing Out 6:53
02. Each Day 5:42
03. Something Else 5:14
04. Swangalang 9:30
05. Beyond The Limit 5:30
06. Minuano 7:46
07. My Shining Hour 7:16
08. Freedom Song 7:35
09. Someday My Piince Will Come 8:14

musicians
Bob Mintzer - tenor saxophone, flute
Pete Yellin - alto saxophone, flute
Lawrence Feldman - lead alto Saxophone, flute
Bob Malach - tenor saxophone, clarinet
Roger Rosenberg - baritone saxophone, clarinet
Bob Millikan - lead trumpet
Scott Wendholt - trumpet, flugelhorn
Frank Greene - trumpet
Jim Rotondi - trumpet
Keith O'Quinn - trombone
Michael Davis - trombone
Larry Farrell - trombone
David Taylor - bass trombone
Phil Markowitz - piano
Jay Anderson - bass
John Riley - drums

Produced by Marty Ashby and Jay Ashby


Exact Audio Copy V1.0 beta 3 from 29. August 2011

EAC extraction logfile from 21. November 2011, 17:23

Bob Mintzer Big Band / Swing Out

Used drive : HL-DT-STDVD-RAM GSA-H55N Adapter: 0 ID: 2

Read mode : Secure
Utilize accurate stream : Yes
Defeat audio cache : Yes
Make use of C2 pointers : No

Read offset correction : 102
Overread into Lead-In and Lead-Out : Yes
Fill up missing offset samples with silence : Yes
Delete leading and trailing silent blocks : No
Null samples used in CRC calculations : Yes
Used interface : Native Win32 interface for Win NT & 2000
Gap handling : Appended to previous track

Used output format : User Defined Encoder
Selected bitrate : 128 kBit/s
Quality : High
Add ID3 tag : No
Command line compressor : G:\Program Files\Exact Audio Copy\Encoder\flac.exe
Additional command line options : -V -8 -T "Genre=%genre%" -T "Artist=%artist%" -T "Title=%title%" -T "Album=%albumtitle%" -T "Date=%year%" -T "Tracknumber=%tracknr%" -T "Comment=EAC1.0b3 FLAC -8" %source%


TOC of the extracted CD

Track | Start | Length | Start sector | End sector
––––––––––––––––––––––––––––-
1 | 0:00.00 | 6:55.07 | 0 | 31131
2 | 6:55.07 | 5:44.46 | 31132 | 56977
3 | 12:39.53 | 5:16.33 | 56978 | 80710
4 | 17:56.11 | 9:31.10 | 80711 | 123545
5 | 27:27.21 | 5:31.60 | 123546 | 148430
6 | 32:59.06 | 7:48.01 | 148431 | 183531
7 | 40:47.07 | 7:16.66 | 183532 | 216297
8 | 48:03.73 | 7:35.74 | 216298 | 250496
9 | 55:39.72 | 8:14.65 | 250497 | 287611


Track 1

Filename F:\WAV\01 - Swing Out.wav

Pre-gap length 0:00:02.00

Peak level 98.8 %
Extraction speed 5.3 X
Track quality 100.0 %
Test CRC D8586204
Copy CRC D8586204
Accurately ripped (confidence 2) [C30F7DA8] (AR v2)
Copy OK

Track 2

Filename F:\WAV\02 - Each Day.wav

Peak level 98.8 %
Extraction speed 5.3 X
Track quality 99.9 %
Test CRC 243D2BE0
Copy CRC 243D2BE0
Accurately ripped (confidence 2) [2D23F035] (AR v2)
Copy OK

Track 3

Filename F:\WAV\03 - Something Else.wav

Peak level 98.8 %
Extraction speed 6.2 X
Track quality 100.0 %
Test CRC F38B31A6
Copy CRC F38B31A6
Accurately ripped (confidence 2) [99697A8D] (AR v2)
Copy OK

Track 4

Filename F:\WAV\04 - Swangalang.wav

Peak level 98.8 %
Extraction speed 7.2 X
Track quality 100.0 %
Test CRC BF6028CA
Copy CRC BF6028CA
Accurately ripped (confidence 2) [C3F54D2C] (AR v2)
Copy OK

Track 5

Filename F:\WAV\05 - Beyond The Limit.wav

Peak level 98.8 %
Extraction speed 7.3 X
Track quality 100.0 %
Test CRC 9217AE0F
Copy CRC 9217AE0F
Accurately ripped (confidence 2) [6EC29D6E] (AR v2)
Copy OK

Track 6

Filename F:\WAV\06 - Minuano.wav

Peak level 98.8 %
Extraction speed 7.8 X
Track quality 100.0 %
Test CRC 7828E575
Copy CRC 7828E575
Accurately ripped (confidence 2) [799ABFD4] (AR v2)
Copy OK

Track 7

Filename F:\WAV\07 - My Shining Hour.wav

Peak level 98.8 %
Extraction speed 7.5 X
Track quality 99.9 %
Test CRC 02835A70
Copy CRC 02835A70
Accurately ripped (confidence 2) [B586ECC8] (AR v2)
Copy OK

Track 8

Filename F:\WAV\08 - Freedom Song.wav

Peak level 98.8 %
Extraction speed 8.5 X
Track quality 100.0 %
Test CRC 4B90A9EA
Copy CRC 4B90A9EA
Accurately ripped (confidence 2) [C0D1DCF0] (AR v2)
Copy OK

Track 9

Filename F:\WAV\09 - Someday My Piince Will Come.wav

Peak level 98.8 %
Extraction speed 3.4 X
Track quality 100.0 %
Test CRC 165AB5D3
Copy CRC 165AB5D3
Accurately ripped (confidence 2) [235BA413] (AR v2)
Copy OK


All tracks accurately ripped

No errors occurred

End of status report

==== Log checksum 24C8DD7BB26191CB548604E2E84551E6BA1BFB682C9C5D1DA30DE34D2C73AAB8 ====


––––––––––––––––––––––––––––––––––––––––
Analyzed: Bob Mintzer Big Band / Swing Out
––––––––––––––––––––––––––––––––––––––––

DR Peak RMS Duration Track
––––––––––––––––––––––––––––––––––––––––
DR15 -0.10 dB -18.68 dB 6:55 01-Swing Out
DR15 -0.10 dB -17.97 dB 5:45 02-Each Day
DR17 -0.10 dB -20.70 dB 5:16 03-Something Else
DR15 -0.10 dB -18.69 dB 9:31 04-Swangalang
DR18 -0.10 dB -21.81 dB 5:32 05-Beyond The Limit
DR12 -0.10 dB -16.73 dB 7:48 06-Minuano
DR15 -0.10 dB -18.40 dB 7:17 07-My Shining Hour
DR14 -0.10 dB -17.14 dB 7:36 08-Freedom Song
DR17 -0.10 dB -21.18 dB 8:15 09-Someday My Piince Will Come
––––––––––––––––––––––––––––––––––––––––

Number of tracks: 9
Official DR value: DR16

Samplerate: 44100 Hz
Channels: 2
Bits per sample: 16
Bitrate: 791 kbps
Codec: FLAC
================================================================================

Bob Mintzer Big Band - Swing Out (2008)
Bob Mintzer Big Band - Swing Out (2008)
Bob Mintzer Big Band - Swing Out (2008)


Rip by simple.i