Subcategories

Bojan Gorisek - Philip Glass: The Complete Piano Etudes (2017) 2CDs

Posted By: Designol
Bojan Gorisek - Philip Glass: The Complete Piano Etudes (2017) 2CDs

Bojan Gorišek - Philip Glass: The Complete Piano Etudes (2017) 2CDs
EAC | FLAC | Image (Cue&Log) ~ 435 Mb | Mp3 (CBR320) ~ 297 Mb | Scans included
Classical, Minimalism | Label: Factory of Sounds | # FOS 2205057 | Time: 02:03:10

This recording by Bojan Gorišek finds the Slovenian pianist exploring the piano etudes by the contemporary American composer Philip Glass. Glass was receiving grants and commissions both in the U.S. and internationally. Pieces like "Satyagrahe", "Koyaanisqatsi" and the Violin Concerto found Glass writing on an orchestral scale; he also wrote for more traditional chamber ensembles. By the 1990's, Philip Glass had become a new kind of musical institution. The twenty piano etudes heard in this recording were begun in 1993, commissioned by the pianist Dennis Russell Davies. In these pieces, Glass departs from the "minimalist" style, incorporating a high degree of emotional expressiveness. The pianist Bojan Gorišek was born in 1962. He is especially well-regarded for his interpretations of the complete piano works of Erik Satie. As in these Glass performances, Gorišek concentrates on 20th and 21st-century compositions, with a special interest in new Slovenian works.

Bojan Gorisek - Philip Glass: The Complete Piano Etudes (2017) 2CDs



Bojan Gorisek - Philip Glass: The Complete Piano Etudes (2017) 2CDs



Tracklist:

CD1 (57:41)

01. Etude No. 1 (3:51)
02. Etude No. 2 (6:49)
03. Etude No. 3 (4:22)
04. Etude No. 4 (4:07)
05. Etude No. 5 (7:17)
06. Etude No. 6 (5:29)
07. Etude No. 7 (8:50)
08. Etude No. 8 (8:02)
09. Etude No. 9 (3:40)
10. Etude No. 10 (5:13)

CD2 (1:05:29)

01. Etude No. 11 (7:15)
02. Etude No. 12 (6:26)
03. Etude No. 13 (3:58)
04. Etude No. 14 (5:59)
05. Etude No. 15 (7:31)
06. Etude No. 16 (5:39)
07. Etude No. 17 (8:12)
08. Etude No. 18 (4:51)
09. Etude No. 19 (6:18)
10. Etude No. 20 (9:19)


Exact Audio Copy V1.0 beta 4 from 7. December 2014

EAC extraction logfile from 10. May 2018, 18:06

Philip Glass / Etudes for Piano (CD1)

Used drive : TSSTcorpDVDWBD TS-LB23A Adapter: 1 ID: 0

Read mode : Secure
Utilize accurate stream : Yes
Defeat audio cache : Yes
Make use of C2 pointers : No

Read offset correction : 6
Overread into Lead-In and Lead-Out : No
Fill up missing offset samples with silence : Yes
Delete leading and trailing silent blocks : No
Null samples used in CRC calculations : Yes
Used interface : Native Win32 interface for Win NT & 2000

Used output format : User Defined Encoder
Selected bitrate : 128 kBit/s
Quality : High
Add ID3 tag : Yes
Command line compressor : C:\Program Files (x86)\Exact Audio Copy\Flac\flac.exe
Additional command line options : -T "COMMENT=Ripped by GFox" -V -8 %source%


TOC of the extracted CD

Track | Start | Length | Start sector | End sector
––––––––––––––––––––––––––––-
1 | 0:00.00 | 3:51.06 | 0 | 17330
2 | 3:51.06 | 6:49.28 | 17331 | 48033
3 | 10:40.34 | 4:21.59 | 48034 | 67667
4 | 15:02.18 | 4:07.16 | 67668 | 86208
5 | 19:09.34 | 7:16.47 | 86209 | 118955
6 | 26:26.06 | 5:28.73 | 118956 | 143628
7 | 31:55.04 | 8:50.26 | 143629 | 183404
8 | 40:45.30 | 8:02.19 | 183405 | 219573
9 | 48:47.49 | 3:40.24 | 219574 | 236097
10 | 52:27.73 | 5:13.26 | 236098 | 259598


Range status and errors

Selected range

Filename D:\Downloads\Philip Glass - Etudes for Piano (CD1).wav

Peak level 96.6 %
Extraction speed 1.8 X
Range quality 100.0 %
Test CRC 06A69167
Copy CRC 06A69167
Copy OK

No errors occurred


AccurateRip summary

Track 1 accurately ripped (confidence 2) [755480D6] (AR v2)
Track 2 accurately ripped (confidence 2) [A849EE2E] (AR v2)
Track 3 accurately ripped (confidence 2) [4DCEB9B2] (AR v2)
Track 4 accurately ripped (confidence 2) [72084F16] (AR v2)
Track 5 accurately ripped (confidence 2) [F8382C2D] (AR v2)
Track 6 accurately ripped (confidence 2) [17CD04A1] (AR v2)
Track 7 accurately ripped (confidence 2) [81BE1555] (AR v2)
Track 8 accurately ripped (confidence 2) [35670C94] (AR v2)
Track 9 accurately ripped (confidence 2) [6D1CA2E5] (AR v2)
Track 10 accurately ripped (confidence 2) [4DC60A4C] (AR v2)

All tracks accurately ripped

End of status report

==== Log checksum 15276FB5F3E06A25060180819B249AB56A428EE198A0D945C94F0B06F978CD50 ====

foobar2000 1.2 / Dynamic Range Meter 1.1.1
log date: 2018-06-24 01:49:41

––––––––––––––––––––––––––––––––––––––––
Analyzed: Bojan Gorisek / Etudes for Piano (CD1)
––––––––––––––––––––––––––––––––––––––––

DR Peak RMS Duration Track
––––––––––––––––––––––––––––––––––––––––
DR10 -2.51 dB -17.47 dB 3:51 01-Etude No. 1
DR14 -2.65 dB -22.83 dB 6:49 02-Etude No. 2
DR12 -1.11 dB -17.84 dB 4:22 03-Etude No. 3
DR12 -0.30 dB -16.50 dB 4:07 04-Etude No. 4
DR14 -5.61 dB -23.75 dB 7:17 05-Etude No. 5
DR12 -0.30 dB -18.68 dB 5:29 06-Etude No. 6
DR14 -0.66 dB -18.94 dB 8:50 07-Etude No. 7
DR13 -3.01 dB -21.96 dB 8:02 08-Etude No. 8
DR12 -1.97 dB -19.56 dB 3:40 09-Etude No. 9
DR11 -0.99 dB -15.21 dB 5:13 10-Etude No. 10
––––––––––––––––––––––––––––––––––––––––

Number of tracks: 10
Official DR value: DR12

Samplerate: 44100 Hz
Channels: 2
Bits per sample: 16
Bitrate: 512 kbps
Codec: FLAC
================================================================================


Exact Audio Copy V1.0 beta 4 from 7. December 2014

EAC extraction logfile from 10. May 2018, 19:08

Philip Glass / Etudes For Piano (CD2)

Used drive : TSSTcorpDVDWBD TS-LB23A Adapter: 1 ID: 0

Read mode : Secure
Utilize accurate stream : Yes
Defeat audio cache : Yes
Make use of C2 pointers : No

Read offset correction : 6
Overread into Lead-In and Lead-Out : No
Fill up missing offset samples with silence : Yes
Delete leading and trailing silent blocks : No
Null samples used in CRC calculations : Yes
Used interface : Native Win32 interface for Win NT & 2000

Used output format : User Defined Encoder
Selected bitrate : 128 kBit/s
Quality : High
Add ID3 tag : Yes
Command line compressor : C:\Program Files (x86)\Exact Audio Copy\Flac\flac.exe
Additional command line options : -T "COMMENT=Ripped by GFox" -V -8 %source%


TOC of the extracted CD

Track | Start | Length | Start sector | End sector
––––––––––––––––––––––––––––-
1 | 0:00.00 | 7:14.48 | 0 | 32597
2 | 7:14.48 | 6:26.00 | 32598 | 61547
3 | 13:40.48 | 3:58.32 | 61548 | 79429
4 | 17:39.05 | 5:58.74 | 79430 | 106353
5 | 23:38.04 | 7:30.71 | 106354 | 140174
6 | 31:09.00 | 5:39.35 | 140175 | 165634
7 | 36:48.35 | 8:11.44 | 165635 | 202503
8 | 45:00.04 | 4:51.29 | 202504 | 224357
9 | 49:51.33 | 6:18.30 | 224358 | 252737
10 | 56:09.63 | 9:19.13 | 252738 | 294675


Range status and errors

Selected range

Filename D:\Downloads\Philip Glass - Etudes For Piano (CD2).wav

Peak level 94.0 %
Extraction speed 1.9 X
Range quality 100.0 %
Test CRC 451A1FF8
Copy CRC 451A1FF8
Copy OK

No errors occurred


AccurateRip summary

Track 1 accurately ripped (confidence 2) [589C77A3] (AR v2)
Track 2 accurately ripped (confidence 2) [775498BD] (AR v2)
Track 3 accurately ripped (confidence 2) [1286BE58] (AR v2)
Track 4 accurately ripped (confidence 2) [712A8849] (AR v2)
Track 5 accurately ripped (confidence 2) [ADA3CCDA] (AR v2)
Track 6 accurately ripped (confidence 2) [5EA51384] (AR v2)
Track 7 accurately ripped (confidence 2) [F2C70FE8] (AR v2)
Track 8 accurately ripped (confidence 2) [3BA2685A] (AR v2)
Track 9 accurately ripped (confidence 2) [CFC1FB24] (AR v2)
Track 10 accurately ripped (confidence 2) [15AA8A59] (AR v2)

All tracks accurately ripped

End of status report

==== Log checksum 94FE1A70F3A5315161678A38CFC3CC5A483D0F47D44100A56003A99908585AB5 ====

foobar2000 1.2 / Dynamic Range Meter 1.1.1
log date: 2018-06-24 01:50:09

––––––––––––––––––––––––––––––––––––––––
Analyzed: Bojan Gorisek / Etudes For Piano (CD2)
––––––––––––––––––––––––––––––––––––––––

DR Peak RMS Duration Track
––––––––––––––––––––––––––––––––––––––––
DR13 -0.68 dB -18.34 dB 7:15 01-Etude No. 11
DR11 -4.12 dB -20.54 dB 6:26 02-Etude No. 12
DR12 -2.49 dB -18.14 dB 3:58 03-Etude No. 13
DR14 -2.26 dB -21.43 dB 5:59 04-Etude No. 14
DR13 -0.75 dB -18.51 dB 7:31 05-Etude No. 15
DR17 -1.67 dB -23.69 dB 5:39 06-Etude No. 16
DR14 -1.93 dB -21.04 dB 8:12 07-Etude No. 17
DR12 -3.49 dB -20.27 dB 4:51 08-Etude No. 18
DR15 -1.55 dB -21.89 dB 6:18 09-Etude No. 19
DR15 -0.54 dB -21.90 dB 9:19 10-Etude No. 20
––––––––––––––––––––––––––––––––––––––––

Number of tracks: 10
Official DR value: DR13

Samplerate: 44100 Hz
Channels: 2
Bits per sample: 16
Bitrate: 444 kbps
Codec: FLAC
================================================================================

Bojan Gorisek - Philip Glass: The Complete Piano Etudes (2017) 2CDs