Subcategories

Bootsy Collins - World Wide Funk (2017)

Posted By: Pisulik
Bootsy Collins - World Wide Funk (2017)

Bootsy Collins - World Wide Funk (2017)
EAC Rip | FLAC (Tracks) +cue, log, m3u, artworks - 524 MB | 01:11:32
Funk, Soul, RnB | Label: Mascot Records

The funk runs deep and rich on "World Wide Funk," Bootsy Collins' first studio album since 2011's "Tha Funk Capital of the World". Populated with musical friends old and new, and recorded in his Cincinnati home's Bootzilla Re-hab studio, "World Wide Funk" marks both a reckoning and significant reboot, if you will, for the Rhinestone Rock Star Monster of a doll baby baba! Blue-chip rappers like Doug E. Fresh, Big Daddy Kane, DJ Quik, Dru Down, and Chuck D, along with guitar shedder Buckethead join a Bootsy-curated posse of fresh new artists on a record that embraces everything from the classic P-Funk sound Bootsy pioneered to the closest Collins has ever come to radio-active, boots on the ground friendly fire in a musical-P-rated-adventure.

TRACKLIST

01. World Wide Funk (feat. Doug E. Fresh, Buckethead & Alissia Benveniste)
02. Bass-Rigged-System (feat. Victor Wooten, Stanley Clarke, Manou Gallo, Alissia Benveniste & World-Wide-Funkdrive)
03. Pusherman (feat. Dru Down, BlvckSeeds & Mr. Talkbox)
04. Thera-P (feat. Tyshawn Colquitt & Alissia Benveniste)
05. Hot Saucer (feat. Musiq Soulchild & Big Daddy Kane)
06. Heaven Yes
07. Ladies Nite (feat. MC Eiht & BlvckSeeds)
08. Candy Coated Lover (feat. X-Zact, Kali Uchis & World-Wide-Funkdrive)
09. Snow Bunny (feat. Tyshawn Colquitt, Snowbunny & World-Wide-Funkdrive)
10. Hi-On-Heels (feat. October London)
11. A Salute to Bernie (feat. Dr. G. & Bernie Worrell)
12. Boomerang (feat. Justin Johnson)
13. Worth My While (feat. Kali Uchis)
14. Come Back Bootsy (feat. Eric Gales, Dennis Chambers & World-Wide-Funkdrive)
15. Illusions (feat. Chuck D., Buckethead & BlvckSeeds)

Exact Audio Copy V1.3 from 2. September 2016

EAC extraction logfile from 23. November 2017, 3:00

Bootsy Collins / World Wide Funk

Used drive : PHILIPS DVD+-RW DVD8881 Adapter: 1 ID: 0

Read mode : Secure
Utilize accurate stream : Yes
Defeat audio cache : Yes
Make use of C2 pointers : No

Read offset correction : 618
Overread into Lead-In and Lead-Out : No
Fill up missing offset samples with silence : Yes
Delete leading and trailing silent blocks : No
Null samples used in CRC calculations : Yes
Used interface : Native Win32 interface for Win NT & 2000
Gap handling : Appended to previous track

Used output format : User Defined Encoder
Selected bitrate : 1024 kBit/s
Quality : High
Add ID3 tag : No
Command line compressor : C:\Program Files (x86)\Exact Audio Copy\Flac\flac.exe
Additional command line options : -8 -V -T "ARTIST=%artist%" -T "TITLE=%title%" -T "ALBUM=%albumtitle%" -T "DATE=%year%" -T "TRACKNUMBER=%tracknr%" -T "GENRE=%genre%" -T "PERFORMER=%albuminterpret%" -T "COMPOSER=%composer%" %haslyrics%–tag-from-file=LYRICS="%lyricsfile%"%haslyrics% -T "ALBUMARTIST=%albumartist%" -T "DISCNUMBER=%cdnumber%" -T "TOTALDISCS=%totalcds%" -T "TOTALTRACKS=%numtracks%" -T "COMMENT=%comment%" %source% -o %dest%


TOC of the extracted CD

Track | Start | Length | Start sector | End sector
––––––––––––––––––––––––––––-
1 | 0:00.00 | 5:19.72 | 0 | 23996
2 | 5:19.72 | 4:17.32 | 23997 | 43303
3 | 9:37.29 | 6:30.39 | 43304 | 72592
4 | 16:07.68 | 3:45.58 | 72593 | 89525
5 | 19:53.51 | 4:54.30 | 89526 | 111605
6 | 24:48.06 | 4:21.70 | 111606 | 131250
7 | 29:10.01 | 4:05.09 | 131251 | 149634
8 | 33:15.10 | 3:47.27 | 149635 | 166686
9 | 37:02.37 | 4:13.24 | 166687 | 185685
10 | 41:15.61 | 3:02.04 | 185686 | 199339
11 | 44:17.65 | 5:15.04 | 199340 | 222968
12 | 49:32.69 | 3:04.48 | 222969 | 236816
13 | 52:37.42 | 5:27.19 | 236817 | 261360
14 | 58:04.61 | 7:20.39 | 261361 | 294399
15 | 65:25.25 | 6:06.60 | 294400 | 321909


Track 1

Filename C:\EACrips\01 - World Wide Funk.wav

Pre-gap length 0:00:02.00

Peak level 96.6 %
Extraction speed 5.4 X
Track quality 100.0 %
Test CRC 5F9B05E9
Copy CRC 5F9B05E9
Track not present in AccurateRip database
Copy OK

Track 2

Filename C:\EACrips\02 - Bass-Rigged-System.wav

Peak level 96.7 %
Extraction speed 5.8 X
Track quality 100.0 %
Test CRC 8ED56FAA
Copy CRC 8ED56FAA
Track not present in AccurateRip database
Copy OK

Track 3

Filename C:\EACrips\03 - Pusherman.wav

Peak level 96.6 %
Extraction speed 6.5 X
Track quality 100.0 %
Test CRC 78212C49
Copy CRC 78212C49
Track not present in AccurateRip database
Copy OK

Track 4

Filename C:\EACrips\04 - Thera-P.wav

Peak level 96.8 %
Extraction speed 5.0 X
Track quality 99.9 %
Test CRC B23AD001
Copy CRC B23AD001
Track not present in AccurateRip database
Copy OK

Track 5

Filename C:\EACrips\05 - Hot Saucer.wav

Peak level 96.6 %
Extraction speed 6.4 X
Track quality 100.0 %
Test CRC CFCFCD94
Copy CRC CFCFCD94
Track not present in AccurateRip database
Copy OK

Track 6

Filename C:\EACrips\06 - Heaven Yes.wav

Peak level 96.6 %
Extraction speed 5.7 X
Track quality 99.9 %
Test CRC 936B0A10
Copy CRC 936B0A10
Track not present in AccurateRip database
Copy OK

Track 7

Filename C:\EACrips\07 - Ladies Nite.wav

Peak level 96.6 %
Extraction speed 6.8 X
Track quality 100.0 %
Test CRC 9C4845C3
Copy CRC 9C4845C3
Track not present in AccurateRip database
Copy OK

Track 8

Filename C:\EACrips\08 - Candy Coated Lover.wav

Peak level 96.6 %
Extraction speed 7.0 X
Track quality 100.0 %
Test CRC 8FF058D1
Copy CRC 8FF058D1
Track not present in AccurateRip database
Copy OK

Track 9

Filename C:\EACrips\09 - Snow Bunny.wav

Peak level 96.6 %
Extraction speed 6.3 X
Track quality 99.9 %
Test CRC 33930ABD
Copy CRC 33930ABD
Track not present in AccurateRip database
Copy OK

Track 10

Filename C:\EACrips\10 - Hi-On-Heels.wav

Peak level 96.6 %
Extraction speed 7.1 X
Track quality 100.0 %
Test CRC F1F8EFC2
Copy CRC F1F8EFC2
Track not present in AccurateRip database
Copy OK

Track 11

Filename C:\EACrips\11 - A Salute To Bernie.wav

Peak level 96.6 %
Extraction speed 7.0 X
Track quality 99.9 %
Test CRC 3ED08076
Copy CRC 3ED08076
Track not present in AccurateRip database
Copy OK

Track 12

Filename C:\EACrips\12 - Boomerang.wav

Peak level 96.6 %
Extraction speed 7.6 X
Track quality 100.0 %
Test CRC 0A1D8456
Copy CRC 0A1D8456
Track not present in AccurateRip database
Copy OK

Track 13

Filename C:\EACrips\13 - Worth My While.wav

Peak level 96.6 %
Extraction speed 8.4 X
Track quality 100.0 %
Test CRC 3616600F
Copy CRC 3616600F
Track not present in AccurateRip database
Copy OK

Track 14

Filename C:\EACrips\14 - Come Back Bootsy.wav

Peak level 96.6 %
Extraction speed 8.2 X
Track quality 99.9 %
Test CRC B66FB1CD
Copy CRC B66FB1CD
Track not present in AccurateRip database
Copy OK

Track 15

Filename C:\EACrips\15 - Illusions.wav

Peak level 96.6 %
Extraction speed 4.3 X
Track quality 100.0 %
Test CRC F120AF3C
Copy CRC F120AF3C
Track not present in AccurateRip database
Copy OK


None of the tracks are present in the AccurateRip database

No errors occurred

End of status report

–– CUETools DB Plugin V2.1.6

[CTDB TOCID: .hbRguaIzpDE9jnYyDyJwJ1GiEM-] found
Submit result: .hbRguaIzpDE9jnYyDyJwJ1GiEM- has been confirmed
Track | CTDB Status
1 | (18/18) Accurately ripped
2 | (18/18) Accurately ripped
3 | (18/18) Accurately ripped
4 | (18/18) Accurately ripped
5 | (18/18) Accurately ripped
6 | (18/18) Accurately ripped
7 | (18/18) Accurately ripped
8 | (18/18) Accurately ripped
9 | (18/18) Accurately ripped
10 | (18/18) Accurately ripped
11 | (18/18) Accurately ripped
12 | (18/18) Accurately ripped
13 | (18/18) Accurately ripped
14 | (18/18) Accurately ripped
15 | (18/18) Accurately ripped


==== Log checksum E8FE29C8CE360C3CBB12D44756BBDB3AF32CD582AA8EA3DB11B51EA3C0B67CBE ====


All thanks go to the original releaser