Tags
Language
Tags

Brass Construction - Something For The Weekend (2006) {EMI}

Posted By: tiburon
Brass Construction - Something For The Weekend (2006) {EMI}

Brass Construction - Something For The Weekend (2006) {EMI}
EAC 0.99pb5 | FLAC tracks level 8 | Cue+Log+M3U | Full Scans 300dpi | 465MB + 5% Recovery
MP3 CBR 320 Kbps | 156MB + 5% Recovery
Genre: Funk, Soul

Issued in 2006, Something for the Weekend is a unique Brass Construction compilation. Rather than cram as many single edits of A-sides as possible, it selects ten of the band's songs in either full album or extended 12" form. Its scope covers the earliest single, 1976's number one R&B hit "Movin'," through the last one to chart, 1985's "Give and Take." There's not enough room for each significant Brass Construction recording, but it's a satisfying alternative for those who are typically frustrated by edit-heavy anthologies. This was released by Stateside, a catalog subsidiary of Capitol in the U.K.
Track List
1. Changin'
2. Movin'
3. Ha Cha Cha (Funktion)
4. Give & Take
5. Partyline (Party mix)
6. We Can Work It Out
7. Walkin' The Line
8. Music Makes You Feel Like Dancing
9. International (Special mix)
10. Shakit

Produced by Jeff Lane


Exact Audio Copy V0.99 prebeta 5 from 4. May 2009

EAC extraction logfile from 15. May 2009, 14:46

Brass Construction / Something for the Weekend

Used drive : PIONEER DVD-RW DVR-112D Adapter: 4 ID: 0

Read mode : Secure
Utilize accurate stream : Yes
Defeat audio cache : Yes
Make use of C2 pointers : No

Read offset correction : 48
Overread into Lead-In and Lead-Out : No
Fill up missing offset samples with silence : Yes
Delete leading and trailing silent blocks : No
Null samples used in CRC calculations : Yes
Used interface : Installed external ASPI interface
Gap handling : Appended to previous track

Used output format : User Defined Encoder
Selected bitrate : 192 kBit/s
Quality : High
Add ID3 tag : No
Command line compressor : D:\Program Files\Exact Audio Copy\flac-1.1.4-win\bin\flac.exe
Additional command line options : -8 -A tukey(0.25) -A gauss(0.1875) -b 4096 -V -T "artist=%a" -T "title=%t" -T "album=%g" -T "date=%y" -T "tracknumber=%n" -T "genre=%m" %s –sector-align


TOC of the extracted CD

Track | Start | Length | Start sector | End sector
––––––––––––––––––––––––––––-
1 | 0:00.00 | 8:15.27 | 0 | 37151
2 | 8:15.27 | 8:40.58 | 37152 | 76209
3 | 16:56.10 | 5:53.03 | 76210 | 102687
4 | 22:49.13 | 6:01.61 | 102688 | 129823
5 | 28:50.74 | 6:08.41 | 129824 | 157464
6 | 34:59.40 | 5:14.66 | 157465 | 181080
7 | 40:14.31 | 5:46.49 | 181081 | 207079
8 | 46:01.05 | 6:31.21 | 207080 | 236425
9 | 52:32.26 | 7:27.13 | 236426 | 269963
10 | 59:59.39 | 6:34.31 | 269964 | 299544


Track 1

Filename E:\EAC\Brass Construction - Something for the Weekend - CD - 2006 - FLAC\01. Brass Construction - Changin'.wav

Pre-gap length 0:00:02.00

Peak level 99.8 %
Track quality 100.0 %
Test CRC 73A5777D
Copy CRC 73A5777D
Accurately ripped (confidence 1) [EF6465D6]
Copy OK

Track 2

Filename E:\EAC\Brass Construction - Something for the Weekend - CD - 2006 - FLAC\02. Brass Construction - Movin'.wav

Pre-gap length 0:00:00.26

Peak level 99.8 %
Track quality 100.0 %
Test CRC B64EF1B1
Copy CRC B64EF1B1
Accurately ripped (confidence 1) [D83811D2]
Copy OK

Track 3

Filename E:\EAC\Brass Construction - Something for the Weekend - CD - 2006 - FLAC\03. Brass Construction - Ha Cha Cha (Funktion).wav

Pre-gap length 0:00:00.54

Peak level 99.8 %
Track quality 100.0 %
Test CRC BCAB586C
Copy CRC BCAB586C
Accurately ripped (confidence 1) [10C1E8DD]
Copy OK

Track 4

Filename E:\EAC\Brass Construction - Something for the Weekend - CD - 2006 - FLAC\04. Brass Construction - Give & Take.wav

Pre-gap length 0:00:00.84

Peak level 99.8 %
Track quality 100.0 %
Test CRC EA336D04
Copy CRC EA336D04
Accurately ripped (confidence 1) [2C01BDA4]
Copy OK

Track 5

Filename E:\EAC\Brass Construction - Something for the Weekend - CD - 2006 - FLAC\05. Brass Construction - Partyline (Party mix).wav

Pre-gap length 0:00:00.73

Peak level 99.8 %
Track quality 100.0 %
Test CRC D73F14C4
Copy CRC D73F14C4
Accurately ripped (confidence 1) [05AC8930]
Copy OK

Track 6

Filename E:\EAC\Brass Construction - Something for the Weekend - CD - 2006 - FLAC\06. Brass Construction - We Can Work It Out.wav

Pre-gap length 0:00:00.69

Peak level 99.8 %
Track quality 100.0 %
Test CRC 5B115C06
Copy CRC 5B115C06
Accurately ripped (confidence 1) [9528737C]
Copy OK

Track 7

Filename E:\EAC\Brass Construction - Something for the Weekend - CD - 2006 - FLAC\07. Brass Construction - Walkin' The Line.wav

Pre-gap length 0:00:01.06

Peak level 99.8 %
Track quality 99.9 %
Test CRC 830AD9BD
Copy CRC 830AD9BD
Accurately ripped (confidence 1) [2F2C8A20]
Copy OK

Track 8

Filename E:\EAC\Brass Construction - Something for the Weekend - CD - 2006 - FLAC\08. Brass Construction - Music Makes You Feel Like Dancing.wav

Pre-gap length 0:00:01.33

Peak level 99.8 %
Track quality 100.0 %
Test CRC 0D5F1392
Copy CRC 0D5F1392
Accurately ripped (confidence 1) [E3DBB5E3]
Copy OK

Track 9

Filename E:\EAC\Brass Construction - Something for the Weekend - CD - 2006 - FLAC\09. Brass Construction - International (Special mix).wav

Pre-gap length 0:00:01.33

Peak level 99.8 %
Track quality 100.0 %
Test CRC D7677F95
Copy CRC D7677F95
Accurately ripped (confidence 1) [584CE513]
Copy OK

Track 10

Filename E:\EAC\Brass Construction - Something for the Weekend - CD - 2006 - FLAC\10. Brass Construction - Shakit.wav

Pre-gap length 0:00:01.33

Peak level 99.8 %
Track quality 100.0 %
Test CRC DB743AB6
Copy CRC DB743AB6
Accurately ripped (confidence 1) [09D7BCAF]
Copy OK


All tracks accurately ripped

No errors occurred

End of status report

Brass Construction - Something For The Weekend (2006) {EMI}
Brass Construction - Something For The Weekend (2006) {EMI}


Thanks to the original ripper