Tags
Language
Tags

Brass Construction - The Best of Brass Construction: Movin' & Changin' (1993)

Posted By: JET 1
Brass Construction - The Best of Brass Construction: Movin' & Changin' (1993)

Brass Construction - The Best of Brass Construction (1993)
EAC Rip | FLAC (Tracks) +CUE, LOG | 468 MB | No Scans
Genre: Soul, Funk, Disco | Label: EMI Records | Catalog Number: E2 27591

The best of the Brooklyn based funk band formed by Randy Mueller in 1968 as Dynamic Soul. It wasn't until 1975 when the group recorded their first album changed their name to Brass Construction. That album helped change the sound of dance music and began their ascent on both the pop and R&B charts in a career that extended well into the next decade. With hits like "Movin'", "Changin'", "Wake Up" and "Ha Cha Cha (Funktion)", the band certainly made their mark on the world of popular music. Brass Construction's unique take on jazz, funk, and even disco (which would come to full fruition with vocalist Randy Muller's project, Skyy) are revisited on The Best of Brass Construction: Movin' & Changin'. All of the hits are included, with some lesser-known early career tracks thrown in for a fair sense of historical perspective. While these earlier tracks are somewhat of a nuisance to trudge through (especially as there are a few obscure earlier numbers that could have been equally effective on the compilation), they are pardoned by hearing their signature anthems in their full remastered glory. If this is your first time exploring the magical funk of Brass Construction, your best bet would be to seek out Get Up to Get Down: Brass Construction's Funky Feeling.

Exact Audio Copy V1.3 from 2. September 2016

EAC extraction logfile from 3. November 2018, 17:36

Brass Construction / The best of Brass Construction: Movin' & changin'

Used drive : TSSTcorpCDDVDW TS-L633C Adapter: 1 ID: 1

Read mode : Secure
Utilize accurate stream : Yes
Defeat audio cache : Yes
Make use of C2 pointers : No

Read offset correction : 6
Overread into Lead-In and Lead-Out : No
Fill up missing offset samples with silence : Yes
Delete leading and trailing silent blocks : No
Null samples used in CRC calculations : Yes
Used interface : Native Win32 interface for Win NT & 2000
Gap handling : Appended to previous track

Used output format : User Defined Encoder
Selected bitrate : 1024 kBit/s
Quality : High
Add ID3 tag : No
Command line compressor : C:\Program Files (x86)\Exact Audio Copy\Flac\flac.exe
Additional command line options : -8 -e -p -V -T "ARTIST=%artist%" -T "TITLE=%title%" -T "ALBUM=%albumtitle%" -T "DATE=%year%" -T "TRACKNUMBER=%tracknr%" -T "GENRE=%genre%" -T "PERFORMER=%albuminterpret%" -T "COMPOSER=%composer%" %haslyrics%–tag-from-file=LYRICS="%lyricsfile%"%haslyrics% -T "ALBUMARTIST=%albumartist%" -T "DISCNUMBER=%cdnumber%" -T "TOTALDISCS=%totalcds%" -T "TOTALTRACKS=%numtracks%" -T "COMMENT=%comment%" %source% -o %dest%


TOC of the extracted CD

Track | Start | Length | Start sector | End sector
––––––––––––––––––––––––––––-
1 | 0:00.00 | 5:21.27 | 0 | 24101
2 | 5:21.27 | 8:13.45 | 24102 | 61121
3 | 13:34.72 | 2:53.10 | 61122 | 74106
4 | 16:28.07 | 6:35.68 | 74107 | 103799
5 | 23:04.00 | 3:57.52 | 103800 | 121626
6 | 27:01.52 | 8:39.28 | 121627 | 160579
7 | 35:41.05 | 4:47.00 | 160580 | 182104
8 | 40:28.05 | 3:40.20 | 182105 | 198624
9 | 44:08.25 | 3:41.02 | 198625 | 215201
10 | 47:49.27 | 4:05.53 | 215202 | 233629
11 | 51:55.05 | 3:48.25 | 233630 | 250754
12 | 55:43.30 | 6:27.60 | 250755 | 279839
13 | 62:11.15 | 3:33.37 | 279840 | 295851
14 | 65:44.52 | 5:45.10 | 295852 | 321736
15 | 71:29.62 | 4:19.35 | 321737 | 341196


Track 1

Filename H:\Flacs\Brass Construction - The best of Brass Construction- Movin' & changin'\01 Good news.wav

Pre-gap length 0:00:02.00

Peak level 99.0 %
Extraction speed 1.2 X
Track quality 99.9 %
Test CRC C3ADFFD7
Copy CRC C3ADFFD7
Accurately ripped (confidence 5) [62B8BB56] (AR v2)
Copy OK

Track 2

Filename H:\Flacs\Brass Construction - The best of Brass Construction- Movin' & changin'\02 Changin'.wav

Pre-gap length 0:00:00.29

Peak level 100.0 %
Extraction speed 1.5 X
Track quality 100.0 %
Test CRC 56A4D4D3
Copy CRC 56A4D4D3
Accurately ripped (confidence 4) [CD2B5CD8] (AR v2)
Copy OK

Track 3

Filename H:\Flacs\Brass Construction - The best of Brass Construction- Movin' & changin'\03 What's on your mind (expression).wav

Pre-gap length 0:00:00.66

Peak level 97.9 %
Extraction speed 1.5 X
Track quality 100.0 %
Test CRC ED788756
Copy CRC ED788756
Accurately ripped (confidence 5) [A0FDB6D4] (AR v2)
Copy OK

Track 4

Filename H:\Flacs\Brass Construction - The best of Brass Construction- Movin' & changin'\04 Love.wav

Peak level 84.2 %
Extraction speed 1.8 X
Track quality 100.0 %
Test CRC C820CB54
Copy CRC C820CB54
Accurately ripped (confidence 5) [7AA595CA] (AR v2)
Copy OK

Track 5

Filename H:\Flacs\Brass Construction - The best of Brass Construction- Movin' & changin'\05 Ha cha cha (funktion).wav

Pre-gap length 0:00:00.50

Peak level 73.7 %
Extraction speed 1.6 X
Track quality 99.9 %
Test CRC F7FE3591
Copy CRC F7FE3591
Accurately ripped (confidence 4) [7B8A111E] (AR v2)
Copy OK

Track 6

Filename H:\Flacs\Brass Construction - The best of Brass Construction- Movin' & changin'\06 Movin'.wav

Peak level 92.8 %
Extraction speed 2.1 X
Track quality 100.0 %
Test CRC A189EB53
Copy CRC A189EB53
Accurately ripped (confidence 6) [6BB4502C] (AR v2)
Copy OK

Track 7

Filename H:\Flacs\Brass Construction - The best of Brass Construction- Movin' & changin'\07 Wake up.wav

Peak level 72.7 %
Extraction speed 2.1 X
Track quality 100.0 %
Test CRC 0C168154
Copy CRC 0C168154
Accurately ripped (confidence 4) [C42CAC31] (AR v2)
Copy OK

Track 8

Filename H:\Flacs\Brass Construction - The best of Brass Construction- Movin' & changin'\08 The message (inspiration).wav

Pre-gap length 0:00:00.06

Peak level 80.8 %
Extraction speed 2.1 X
Track quality 100.0 %
Test CRC A4E133F7
Copy CRC A4E133F7
Accurately ripped (confidence 4) [E0158782] (AR v2)
Copy OK

Track 9

Filename H:\Flacs\Brass Construction - The best of Brass Construction- Movin' & changin'\09 L-O-V-E-U.wav

Pre-gap length 0:00:00.60

Peak level 91.2 %
Extraction speed 2.1 X
Track quality 100.0 %
Test CRC B3B8E07C
Copy CRC B3B8E07C
Accurately ripped (confidence 4) [E5547AF2] (AR v2)
Copy OK

Track 10

Filename H:\Flacs\Brass Construction - The best of Brass Construction- Movin' & changin'\10 Help yourself.wav

Peak level 78.1 %
Extraction speed 2.3 X
Track quality 100.0 %
Test CRC BC42CE8C
Copy CRC BC42CE8C
Accurately ripped (confidence 5) [FC66965A] (AR v2)
Copy OK

Track 11

Filename H:\Flacs\Brass Construction - The best of Brass Construction- Movin' & changin'\11 Perceptions (what's the right direction).wav

Peak level 87.2 %
Extraction speed 2.3 X
Track quality 100.0 %
Test CRC DEE96C14
Copy CRC DEE96C14
Accurately ripped (confidence 5) [70F5F938] (AR v2)
Copy OK

Track 12

Filename H:\Flacs\Brass Construction - The best of Brass Construction- Movin' & changin'\12 Get up to get down.wav

Pre-gap length 0:00:00.60

Peak level 82.9 %
Extraction speed 2.5 X
Track quality 100.0 %
Test CRC CD79DF31
Copy CRC CD79DF31
Accurately ripped (confidence 5) [4E74EA13] (AR v2)
Copy OK

Track 13

Filename H:\Flacs\Brass Construction - The best of Brass Construction- Movin' & changin'\13 Can you see the light.wav

Pre-gap length 0:00:00.33

Peak level 82.4 %
Extraction speed 1.6 X
Track quality 99.8 %
Test CRC 0E74A6E2
Copy CRC 0E74A6E2
Cannot be verified as accurate (confidence 7) [206CCFEB], AccurateRip returned [F758AA0F] (AR v2)
Copy OK

Track 14

Filename H:\Flacs\Brass Construction - The best of Brass Construction- Movin' & changin'\14 Walkin' the line.wav

Peak level 89.9 %
Extraction speed 2.6 X
Track quality 100.0 %
Test CRC 27ABCCD8
Copy CRC 27ABCCD8
Accurately ripped (confidence 4) [4D771474] (AR v2)
Copy OK

Track 15

Filename H:\Flacs\Brass Construction - The best of Brass Construction- Movin' & changin'\15 Give and take.wav

Pre-gap length 0:00:00.46

Peak level 94.0 %
Extraction speed 2.5 X
Track quality 100.0 %
Test CRC 9D45CE9B
Copy CRC 9D45CE9B
Accurately ripped (confidence 4) [B670E88D] (AR v2)
Copy OK


14 track(s) accurately ripped
1 track(s) could not be verified as accurate

Some tracks could not be verified as accurate

No errors occurred

End of status report

–– CUETools DB Plugin V2.1.6

[CTDB TOCID: ituH3gX1Pw2Or1FfoDs0hzSR7gk-] found
Submit result: ituH3gX1Pw2Or1FfoDs0hzSR7gk- has been submitted
Track | CTDB Status
1 | (3/3) Accurately ripped
2 | (3/3) Accurately ripped
3 | (3/3) Accurately ripped
4 | (3/3) Accurately ripped
5 | (3/3) Accurately ripped
6 | (3/3) Accurately ripped
7 | (3/3) Accurately ripped
8 | (3/3) Accurately ripped
9 | (3/3) Accurately ripped
10 | (3/3) Accurately ripped
11 | (3/3) Accurately ripped
12 | (3/3) Accurately ripped
13 | (3/3) Differs in 1453 samples @02:11:53-02:11:54,02:11:73-02:11:74,02:12:19-02:12:20,02:12:40-02:12:41,02:12:61-02:12:62,02:13:07-02:13:08,02:13:28-02:13:29,02:14:16,02:14:58
14 | (3/3) Accurately ripped
15 | (3/3) Accurately ripped
If you are sure that your rip contains errors, you can use CUETools to repair it.


==== Log checksum 5E1D7033AB275E3023C9C63F5EC9AAD94BF38ABFDD79062A5C3C6C76973D8DEC ====


Tracklist ::
1. Goodnews (05:20)
2. Changin' (08:12)
3. What's On Your Mind (Expression) (02:52)
4. Love (06:35)
5. Ha Cha Cha (Funktion) (03:57)
6. Movin' (08:38)
7. Wake Up (04:46)
8. The Message (Inspiration) (03:39)
9. L-O-V-E-U (03:40)
10. Help Yourself (04:05)
11. Perceptions (What's The Right Direction) (03:47)
12. Get Up To Get Down (06:26)
13. Can You See The Light (03:32)
14. Walkin' The Line (05:43)
15. Give And Take (04:18)