Subcategories

Brian Culbertson - Secrets (1997) {BlueMoon}

Posted By: tiburon
Brian Culbertson - Secrets (1997) {BlueMoon}

Brian Culbertson - Secrets (1997) {BlueMoon}
EAC 0.99pb5 | FLAC tracks level 8 | Cue+Log+M3U | Full Scans 200dpi | 264MB + 5% Recovery
MP3 CBR 320 Kbps | 103MB + 5% Recovery
Genre: Jazz-Funk, Smooth Jazz

One of smooth jazz's brightest young keyboardists seems to be caught in the same marketing trap as his contemporaries – aiming to please radio programmers first, and waiting till very late in the running order of the disc to challenge himself – and listeners who have many other new and similarly likeable keyboard releases to choose from. When he finally blows his lid on Secrets and goes for broke, it's a joyous affair, as the eight-minute closing track "At the Backroom" finds Brian Culbertson jamming hardcore blues/funk and bouncing off the inspirations of older cats like Jeff Golub (guitar) and Ricky Peterson (wicked on the Hammond B-3).
Track List
01. So Good 4:12
02. On My Mind 4:29
03. Backstreet 4:02
04. Straight To The Heart 3:53
05. Secrets 5:04
06. You'll Never Find 4:34
07. One More Day (feat. Gerald Albright) 4:47
08. You're The One 6:00
09. At The Backroom (feat. Jeff Golub of Avenue Blue) 7:55

musicians
Brian Culbertson - piano, keyboards, synthesizer, drum programming, trombone
Paul Jackson, Jr.- guitar
Gerald Albright - alto saxophone
Lenny Castro - congas, percussion
Jeff Golub - guitar
Nanette Frank - vocals, background vocals
Richie Davis - guitar, wah-wah guitar
Dwight Sills - guitar
Steve Finckle - soprano saxophone, tenor saxophone, keyboards
Tim Gant - keyboards, synthesizer, drum programming
Paul Brown - keyboards, programming, drum programming
Tim Redfield - keyboards, drum programming
Oscar Seaton - drums, hi-hat
Todd Sucherman (cymbals, hi-hat);
Dee Alexander, Diane Madison, Michelle Buss, Steve Grisette, Teresa Davis, Larry King - background vocals


Exact Audio Copy V0.99 prebeta 5 from 4. May 2009

EAC extraction logfile from 22. August 2011, 19:15

Brian Culbertson / Secrets

Used drive : Optiarc DVD RW AD-5200A Adapter: 0 ID: 0

Read mode : Secure
Utilize accurate stream : Yes
Defeat audio cache : Yes
Make use of C2 pointers : No

Read offset correction : 48
Overread into Lead-In and Lead-Out : No
Fill up missing offset samples with silence : Yes
Delete leading and trailing silent blocks : No
Null samples used in CRC calculations : Yes
Used interface : Native Win32 interface for Win NT & 2000
Gap handling : Appended to previous track

Used output format : User Defined Encoder
Selected bitrate : 1024 kBit/s
Quality : High
Add ID3 tag : No
Command line compressor : C:\Program Files\Exact Audio Copy\FLAC\FLAC.EXE
Additional command line options : -8 -V -T "ARTIST=%a" -T "TITLE=%t" -T "ALBUM=%g" -T "DATE=%y" -T "TRACKNUMBER=%n" -T "GENRE=%m" -T "COMMENT=EAC FLAC -8" %s


TOC of the extracted CD

Track | Start | Length | Start sector | End sector
––––––––––––––––––––––––––––-
1 | 0:00.00 | 4:12.70 | 0 | 18969
2 | 4:12.70 | 4:29.13 | 18970 | 39157
3 | 8:42.08 | 4:02.07 | 39158 | 57314
4 | 12:44.15 | 3:53.50 | 57315 | 74839
5 | 16:37.65 | 5:04.38 | 74840 | 97677
6 | 21:42.28 | 4:34.05 | 97678 | 118232
7 | 26:16.33 | 4:47.45 | 118233 | 139802
8 | 31:04.03 | 6:00.22 | 139803 | 166824
9 | 37:04.25 | 7:55.54 | 166825 | 202503


Track 1

Filename E:\MUSIC\WAV\01. So Good.wav

Pre-gap length 0:00:02.00

Peak level 98.6 %
Track quality 100.0 %
Test CRC 7C038AE5
Copy CRC 7C038AE5
Track not present in AccurateRip database
Copy OK

Track 2

Filename E:\MUSIC\WAV\02. On My Mind.wav

Peak level 93.3 %
Track quality 100.0 %
Test CRC 1BD51C48
Copy CRC 1BD51C48
Track not present in AccurateRip database
Copy OK

Track 3

Filename E:\MUSIC\WAV\03. Backstreet.wav

Peak level 91.7 %
Track quality 99.9 %
Test CRC AC2F31A4
Copy CRC AC2F31A4
Track not present in AccurateRip database
Copy OK

Track 4

Filename E:\MUSIC\WAV\04. Straight To The Heart.wav

Peak level 96.0 %
Track quality 100.0 %
Test CRC F4AAF15A
Copy CRC F4AAF15A
Track not present in AccurateRip database
Copy OK

Track 5

Filename E:\MUSIC\WAV\05. Secrets.wav

Peak level 95.2 %
Track quality 99.9 %
Test CRC 2089DF71
Copy CRC 2089DF71
Track not present in AccurateRip database
Copy OK

Track 6

Filename E:\MUSIC\WAV\06. You'll Never Find.wav

Peak level 80.0 %
Track quality 100.0 %
Test CRC F4AEBB94
Copy CRC F4AEBB94
Track not present in AccurateRip database
Copy OK

Track 7

Filename E:\MUSIC\WAV\07. One More Day (feat. Gerald Albright).wav

Peak level 96.3 %
Track quality 100.0 %
Test CRC 293A3EF4
Copy CRC 293A3EF4
Track not present in AccurateRip database
Copy OK

Track 8

Filename E:\MUSIC\WAV\08. You're The One.wav

Peak level 100.0 %
Track quality 99.9 %
Test CRC 79D2524F
Copy CRC 79D2524F
Track not present in AccurateRip database
Copy OK

Track 9

Filename E:\MUSIC\WAV\09. At The Backroom (feat. Jeff Golub of Avenue Blue).wav

Peak level 100.0 %
Track quality 100.0 %
Test CRC 0E83DABC
Copy CRC 0E83DABC
Track not present in AccurateRip database
Copy OK


None of the tracks are present in the AccurateRip database

No errors occurred

End of status report


––––––––––––––––––––––––––––––––––––––––
Analyzed: Brian Culbertson / Secrets
––––––––––––––––––––––––––––––––––––––––

DR Peak RMS Duration Track
––––––––––––––––––––––––––––––––––––––––
DR10 -0.12 dB -11.54 dB 4:13 01-So Good
DR10 -0.60 dB -12.54 dB 4:29 02-On My Mind
DR9 -0.75 dB -11.29 dB 4:02 03-Backstreet
DR11 -0.35 dB -12.90 dB 3:54 04-Straight To The Heart
DR9 -0.43 dB -12.70 dB 5:05 05-Secrets
DR8 -1.94 dB -11.91 dB 4:34 06-You'll Never Find
DR8 -0.32 dB -11.60 dB 4:48 07-One More Day (feat. Gerald Albright)
DR9 0.00 dB -11.91 dB 6:00 08-You're The One
DR11 0.00 dB -13.05 dB 7:56 09-At The Backroom (feat. Jeff Golub of Avenue Blue)
––––––––––––––––––––––––––––––––––––––––

Number of tracks: 9
Official DR value: DR9

Samplerate: 44100 Hz
Channels: 2
Bits per sample: 16
Bitrate: 826 kbps
Codec: FLAC
================================================================================

Brian Culbertson - Secrets (1997) {BlueMoon}
Brian Culbertson - Secrets (1997) {BlueMoon}
Brian Culbertson - Secrets (1997) {BlueMoon}


Thanks to the original ripper