Subcategories

Bridges & Chris Cheek - South Lamar Boulevard (2013) {Petit Indie}

Posted By: tiburon
Bridges & Chris Cheek - South Lamar Boulevard (2013) {Petit Indie}

Bridges & Chris Cheek - South Lamar Boulevard (2013) {Petit Indie}
EAC 1.0b3 | FLAC tracks level 8 | Cue+Log+M3U | Full Scans 300dpi | 378MB + 5% Recovery
Genre: Jazz
Bridges & Chris Cheek - South Lamar Boulevard (2013) {Petit Indie}

This trio is a rarity in the world of jazz Catalan. Much closer to American or slow core that any trace of swing, the music wanders Bridges moorlands in slow motion with their own freedom of improvised music. A quiet, leisurely, well nuanced musical concept where less is more: less notes, more silence and more time to savor… This sound concept, original, organic, requires direct participation of the listener.

Track List
01. Smoked Eggplant Ravioli
02. Furn Esh Shebbak
03. Banter
04. Free Improvisation
05. Anedònia
06. January 11th
07. Serendipia
08. Loser’s Cafe
09. Snails
10. Pau
11. Artlessness
12. The Album
13. South Lamar Boulevard

All songs by Bridges

musicians
Chris Cheek - tenor sax
Guillem Callejón - guitar
David Soler - guitar, pedal steel guitar
Dimas Corbera - bass
Alfons Bertran - drums

Produced by Alfons Bertran, Guillem Callejón and Dimas Corbera


Exact Audio Copy V1.0 beta 3 from 29. August 2011

EAC extraction logfile from 24. June 2014, 21:46

Bridges & Chris Cheek / South Lamar Boulevard

Used drive : PLEXTOR DVDR PX-L890SA Adapter: 2 ID: 1

Read mode : Secure
Utilize accurate stream : Yes
Defeat audio cache : Yes
Make use of C2 pointers : No

Read offset correction : 6
Overread into Lead-In and Lead-Out : No
Fill up missing offset samples with silence : Yes
Delete leading and trailing silent blocks : No
Null samples used in CRC calculations : Yes
Used interface : Native Win32 interface for Win NT & 2000
Gap handling : Appended to previous track

Used output format : User Defined Encoder
Selected bitrate : 768 kBit/s
Quality : High
Add ID3 tag : No
Command line compressor : C:\Program Files (x86)\Exact Audio Copy\FLAC\FLAC.EXE
Additional command line options : -8 -V -T "ARTIST=%artist%" -T "TITLE=%title%" -T "ALBUM=%albumtitle%" -T "DATE=%year%" -T "TRACKNUMBER=%tracknr%" -T "TOTALTRACKS=%numtracks%" -T "GENRE=%genre%" -T "ALBUMARTIST=%albumartist%" -T "ALBUM ARTIST=%albumartist%" -T "COMMENT=EAC Secure Mode, Test & Copy, AccurateRip, FLAC -8" %source%


TOC of the extracted CD

Track | Start | Length | Start sector | End sector
––––––––––––––––––––––––––––-
1 | 0:00.00 | 1:46.27 | 0 | 7976
2 | 1:46.27 | 4:38.15 | 7977 | 28841
3 | 6:24.42 | 4:48.01 | 28842 | 50442
4 | 11:12.43 | 1:49.13 | 50443 | 58630
5 | 13:01.56 | 5:50.66 | 58631 | 84946
6 | 18:52.47 | 3:22.49 | 84947 | 100145
7 | 22:15.21 | 5:21.01 | 100146 | 124221
8 | 27:36.22 | 5:37.58 | 124222 | 149554
9 | 33:14.05 | 5:15.68 | 149555 | 173247
10 | 38:29.73 | 5:31.60 | 173248 | 198132
11 | 44:01.58 | 5:02.03 | 198133 | 220785
12 | 49:03.61 | 3:21.05 | 220786 | 235865
13 | 52:24.66 | 5:15.12 | 235866 | 259502


Track 1

Filename H:\Flac Rips\01 - Smoked Eggplant Ravioli.wav

Pre-gap length 0:00:02.00

Peak level 86.2 %
Extraction speed 2.9 X
Track quality 100.0 %
Test CRC 446BC973
Copy CRC 446BC973
Accurately ripped (confidence 1) [C103AA12] (AR v2)
Copy OK

Track 2

Filename H:\Flac Rips\02 - Furn Esh Shebbak.wav

Pre-gap length 0:00:02.00

Peak level 98.8 %
Extraction speed 3.3 X
Track quality 99.9 %
Test CRC 007D5236
Copy CRC 007D5236
Accurately ripped (confidence 1) [0E33E42B] (AR v2)
Copy OK

Track 3

Filename H:\Flac Rips\03 - Banter.wav

Pre-gap length 0:00:02.00

Peak level 98.8 %
Extraction speed 4.4 X
Track quality 100.0 %
Test CRC 8D62E1B5
Copy CRC 8D62E1B5
Accurately ripped (confidence 1) [4C4FD545] (AR v2)
Copy OK

Track 4

Filename H:\Flac Rips\04 - Free Improvisation.wav

Pre-gap length 0:00:02.00

Peak level 98.8 %
Extraction speed 3.9 X
Track quality 100.0 %
Test CRC 2B016398
Copy CRC 2B016398
Accurately ripped (confidence 1) [58971EA7] (AR v2)
Copy OK

Track 5

Filename H:\Flac Rips\05 - Anedonia.wav

Pre-gap length 0:00:02.00

Peak level 98.8 %
Extraction speed 5.1 X
Track quality 100.0 %
Test CRC 434278B5
Copy CRC 434278B5
Accurately ripped (confidence 1) [DAA7D88F] (AR v2)
Copy OK

Track 6

Filename H:\Flac Rips\06 - January 11th.wav

Pre-gap length 0:00:02.00

Peak level 98.8 %
Extraction speed 5.1 X
Track quality 100.0 %
Test CRC 904AE40F
Copy CRC 904AE40F
Accurately ripped (confidence 1) [1CA6920A] (AR v2)
Copy OK

Track 7

Filename H:\Flac Rips\07 - Serendipia.wav

Pre-gap length 0:00:02.00

Peak level 98.8 %
Extraction speed 4.3 X
Track quality 99.9 %
Test CRC 67796C69
Copy CRC 67796C69
Accurately ripped (confidence 1) [1C15164D] (AR v2)
Copy OK

Track 8

Filename H:\Flac Rips\08 - Loser's Cafe.wav

Pre-gap length 0:00:02.00

Peak level 98.8 %
Extraction speed 6.1 X
Track quality 100.0 %
Test CRC 7C8BA50D
Copy CRC 7C8BA50D
Accurately ripped (confidence 1) [4284834B] (AR v2)
Copy OK

Track 9

Filename H:\Flac Rips\09 - Snails.wav

Pre-gap length 0:00:02.00

Peak level 98.8 %
Extraction speed 6.3 X
Track quality 100.0 %
Test CRC A3B2BAF5
Copy CRC A3B2BAF5
Accurately ripped (confidence 1) [1D25C293] (AR v2)
Copy OK

Track 10

Filename H:\Flac Rips\10 - Pau.wav

Pre-gap length 0:00:02.00

Peak level 98.8 %
Extraction speed 6.7 X
Track quality 100.0 %
Test CRC E611B54C
Copy CRC E611B54C
Accurately ripped (confidence 1) [0AF6420F] (AR v2)
Copy OK

Track 11

Filename H:\Flac Rips\11 - Artlessness.wav

Pre-gap length 0:00:02.00

Peak level 98.8 %
Extraction speed 6.9 X
Track quality 100.0 %
Test CRC 4235500F
Copy CRC 4235500F
Accurately ripped (confidence 1) [D9A3DA59] (AR v2)
Copy OK

Track 12

Filename H:\Flac Rips\12 - The Album.wav

Pre-gap length 0:00:02.00

Peak level 98.8 %
Extraction speed 6.7 X
Track quality 100.0 %
Test CRC 0854115A
Copy CRC 0854115A
Accurately ripped (confidence 1) [C11EE343] (AR v2)
Copy OK

Track 13

Filename H:\Flac Rips\13 - South Lamar Boulevard.wav

Pre-gap length 0:00:02.00

Peak level 98.8 %
Extraction speed 7.4 X
Track quality 100.0 %
Test CRC B0A7BD17
Copy CRC B0A7BD17
Accurately ripped (confidence 1) [7E431F83] (AR v2)
Copy OK


All tracks accurately ripped

No errors occurred

End of status report

==== Log checksum F9C1C21F7DA63A1232BA5B7E64FC5F9DBAA39D32AB7F87B16A08019CAF659A35 ====


––––––––––––––––––––––––––––––––––––––––
Analyzed: Bridges & Chris Cheek / South Lamar Boulevard
––––––––––––––––––––––––––––––––––––––––

DR Peak RMS Duration Track
––––––––––––––––––––––––––––––––––––––––
DR10 -1.28 dB -15.36 dB 1:46 01-Smoked Eggplant Ravioli
DR8 -0.10 dB -10.74 dB 4:38 02-Furn Esh Shebbak
DR9 -0.10 dB -11.47 dB 4:48 03-Banter
DR13 -0.10 dB -17.58 dB 1:49 04-Free Improvisation
DR8 -0.10 dB -11.03 dB 5:51 05-Anedonia
DR9 -0.10 dB -12.37 dB 3:23 06-January 11th
DR10 -0.10 dB -12.66 dB 5:21 07-Serendipia
DR12 -0.10 dB -16.13 dB 5:38 08-Loser's Cafe
DR7 -0.10 dB -9.24 dB 5:16 09-Snails
DR11 -0.10 dB -16.04 dB 5:32 10-Pau
DR8 -0.10 dB -10.16 dB 5:02 11-Artlessness
DR9 -0.10 dB -12.09 dB 3:21 12-The Album
DR10 -0.10 dB -13.15 dB 5:15 13-South Lamar Boulevard
––––––––––––––––––––––––––––––––––––––––

Number of tracks: 13
Official DR value: DR10

Samplerate: 44100 Hz
Channels: 2
Bits per sample: 16
Bitrate: 793 kbps
Codec: FLAC
================================================================================

Bridges & Chris Cheek - South Lamar Boulevard (2013) {Petit Indie}
Bridges & Chris Cheek - South Lamar Boulevard (2013) {Petit Indie}
Bridges & Chris Cheek - South Lamar Boulevard (2013) {Petit Indie}


Rip by jlgt