Tags
Language
Tags

Briggs Piano Trio - Gál, Shostakovich: Piano Trios (2018)

Posted By: tirexiss
Briggs Piano Trio - Gál, Shostakovich: Piano Trios (2018)

Briggs Piano Trio - Gál, Shostakovich: Piano Trios (2018)
EAC | FLAC (image+.cue, log) | Covers Included | 63:05 | 315 MB
Genre: Classical | Label: Avie | Catalog: AV2390

Continuing AVIE’s acclaimed and influential series of recordings of the music of Austrian émigré Hans Gál, this latest release brings together two of today’s most eminent Gál interpreters, Sarah Beth Briggs and Kenneth Woods with violin virtuoso David Juritz for a recording of Gál’s breathtakingly lyrical Piano Trio in E major and his witty Variations on a Popular Viennese Tune. Gál’s music and destiny was shaped by war and political upheaval, as was that of Dmitri Shostakovich, whose Piano Trio in E minor, one of the monuments of 20th century chamber music, is a harrowing souvenir of the times in which it was written.

Briggs Piano Trio - Gál, Shostakovich: Piano Trios (2018)

Track List:

Hans Gál
[1]-[3] Piano Trio in E major, Op.18
[4] Variations on a Viennese ‘Heurigen’ Melody

Dmitri Shostakovich
[5]-[8] Piano Trio No.2 in E minor, Op.67

Performers:
Briggs Piano Trio
Sarah Beth Briggs piano
David Juritz violin
Kenneth Woods cello

Exact Audio Copy V1.3 from 2. September 2016

EAC extraction logfile from 6. February 2019, 22:45

Briggs Piano Trio / Gál, Shostakovich - Piano Trios

Used drive : ASUS SDRW-08U7M-U Adapter: 1 ID: 0

Read mode : Secure
Utilize accurate stream : Yes
Defeat audio cache : Yes
Make use of C2 pointers : No

Read offset correction : 6
Overread into Lead-In and Lead-Out : No
Fill up missing offset samples with silence : Yes
Delete leading and trailing silent blocks : No
Null samples used in CRC calculations : Yes
Used interface : Native Win32 interface for Win NT & 2000

Used output format : User Defined Encoder
Selected bitrate : 128 kBit/s
Quality : High
Add ID3 tag : No
Command line compressor : C:\Program Files (x86)\Exact Audio Copy\Flac\flac.exe
Additional command line options : -V -8 -T "Date=%year%" -T "Genre=%genre%" %source%


TOC of the extracted CD

Track | Start | Length | Start sector | End sector
––––––––––––––––––––––––––––-
1 | 0:00.00 | 11:58.17 | 0 | 53866
2 | 11:58.17 | 5:42.18 | 53867 | 79534
3 | 17:40.35 | 11:01.34 | 79535 | 129143
4 | 28:41.69 | 7:10.53 | 129144 | 161446
5 | 35:52.47 | 7:36.17 | 161447 | 195663
6 | 43:28.64 | 3:06.05 | 195664 | 209618
7 | 46:34.69 | 5:15.26 | 209619 | 233269
8 | 51:50.20 | 11:12.70 | 233270 | 283739


Range status and errors

Selected range

Filename C:\temp\Gal, Shostakovich - Piano Trios - Briggs Piano Trio - 2018\Gal, Shostakovich - Piano Trios.wav

Peak level 95.7 %
Extraction speed 4.7 X
Range quality 100.0 %
Test CRC 3F8E80CA
Copy CRC 3F8E80CA
Copy OK

No errors occurred


AccurateRip summary

Track 1 not present in database
Track 2 not present in database
Track 3 not present in database
Track 4 not present in database
Track 5 not present in database
Track 6 not present in database
Track 7 not present in database
Track 8 not present in database

None of the tracks are present in the AccurateRip database

End of status report

==== Log checksum 0E84BD21FF351F664035FD2EB4B610D620B2AA6B5997A3C4A453F7C621A43A62 ====

Thanks to the Original ripper (A-Z)!

Welcome to my blog!

Download: