Tags
Language
Tags

Bruno Weil, Cappella Coloniensis - Johann Christian Bach: Endimione (1999)

Posted By: ArlegZ
Bruno Weil, Cappella Coloniensis - Johann Christian Bach: Endimione (1999)

Bruno Weil, Cappella Coloniensis - Johann Christian Bach: Endimione (1999)
EAC | FLAC | Image (Cue & Log) ~ 499 Mb | Total time: 61:34+44:31 | Scans included
Classical | Label: Deutsche Harmonia Mundi | 05472 77525 2 | Recorded: 1999

A beguiling rarity. Johann Sebastian’s youngest and most cosmopolitan son composed this serenata in London in 1772. The plot revolves around the triangular relationship between Diana, her nymph Nice and Endymion, slyly manipulated by Cupid and culminating in the obligatory paean to love. In the booklet, Bruno Weil dubs Endimione ‘one of the first operettas’; but though there are touches of cruel humour, usually at Nice’s expense, the musical idiom and structure, based on a sequence of elaborate arias, are essentially those of opera seria. Bach’s suave, mellifluous style often sounds like Mozart minus the master’s dynamic impulse and control of long-range tensions. But there are memorable numbers here, above all in the slow cavatinas for Endymion and Diana, with their delicate, Watteau-esque sensuality. Virtually everything depends on the four principals, who all rise to their challenges. Chief honours go to Ann Monoyios, a graceful, sweet-toned Nice, and Vasiljka Jezovšek as Diana, stylish and shapely in her concerto-like aria with flute obbligato. As Cupid, Jörg Waschinski deploys that rare phenomenon, a falsetto soprano, with some panache, while Jörg Hering is personable, if faintly bland, as Endymion. Direction and orchestral playing are highly capable, with the wind relishing the lavish opportunities Bach offers them.
–Richard Wigmore

Performer:
Diana - Vasiljka Jezovšek
Nice - Ann Monoyios
Amore - Jörg Waschinski
Endimione - Jörg Hering
VolakEnsemble Köln
Cappella Coloniensis
Conductor - Bruno Weil

Track List:
CD1:
01. Parte I. Sinfonia
02. Recitativo: Nice, Nice che fai? (Diana)
03. Aria: Non temer, o Dea felice (Nice)
04. Recitativo: Bella Diva di Cinto (Amore)
05. Aria: Semplicetto, ancor non sai (Diana)
06. Recitativo: Care selve romite (Nice)
07. Coro: Dea de’boschi
08. Recitativo: Leggiadra Nice! (Endimione)
09. Aria: Dimmi, che vaga sei (Endimione)
10. Recitativo: Dunque tanto abborrisce (Nice)
11. Aria: Quell’alma severa (Amore)
12. Recitativo: Lode al ciel (Endimione)
13. Cavatina: Grato sonno (Endimione)
14. Recitativo: Di queste antiche piante (Amore)
15. Duetto: Non so dir se sono (Endimione, Diana)
CD2:
01. Parte II. Cavatina: Or al prato (Diana)
02. Recitativo: Oh quanta maraviglia (Diana)
03. Aria: Se s’accende in fiamme ardenti (Amore)
04. Coro: Se fra queste amene selve
05. Recitativo: Nice, amante tu sei (Diana)
06. Recitativo: O Dei! Qual freddo (Diana)
07. Aria: Se tiranni, oh Dei (Diana)
08. Recitativo: Nice, tu sei di sasso (Nice)
09. Aria: O fa che m’ami (Nice)
10. Recitativo: Dunque Alceste menti? (Diana)
11. Aria: Vado per un momento (Endimione)
12. Recitativo: Ha vinto Amor! (Diana)
13. Coro: Viva Amor, che dolce e lento


Exact Audio Copy V1.3 from 2. September 2016

EAC extraction logfile from 6. December 2017, 16:57

Bach, J.C. / Endimione - Weil - Jezovsek, Monoyios, Waschinski - CD1

Used drive : HL-DT-STDVDRAM GSA-4081B Adapter: 1 ID: 1

Read mode : Secure
Utilize accurate stream : Yes
Defeat audio cache : Yes
Make use of C2 pointers : No

Read offset correction : 667
Overread into Lead-In and Lead-Out : No
Fill up missing offset samples with silence : Yes
Delete leading and trailing silent blocks : No
Null samples used in CRC calculations : Yes
Used interface : Native Win32 interface for Win NT & 2000

Used output format : User Defined Encoder
Selected bitrate : 768 kBit/s
Quality : High
Add ID3 tag : No
Command line compressor : C:\Program Files\Exact Audio Copy\FLAC\FLAC.EXE
Additional command line options : -6 -V -T "ARTIST=%artist%" -T "TITLE=%title%" -T "ALBUM=%albumtitle%" -T "DATE=%year%" -T "TRACKNUMBER=%tracknr%" -T "GENRE=%genre%" -T "COMMENT=%comment%" -T "BAND=%albuminterpret%" -T "ALBUMARTIST=%albuminterpret%" -T "COMPOSER=%composer%" %haslyrics%–tag-from-file=LYRICS="%lyricsfile%"%haslyrics% -T "DISCNUMBER=%cdnumber%" -T "TOTALDISCS=%totalcds%" -T "TOTALTRACKS=%numtracks%" %hascover%–picture="%coverfile%"%hascover% %source% -o %dest%


TOC of the extracted CD

Track | Start | Length | Start sector | End sector
––––––––––––––––––––––––––––-
1 | 0:00.00 | 10:28.15 | 0 | 47114
2 | 10:28.15 | 1:34.40 | 47115 | 54204
3 | 12:02.55 | 4:07.60 | 54205 | 72789
4 | 16:10.40 | 1:38.65 | 72790 | 80204
5 | 17:49.30 | 10:31.65 | 80205 | 127594
6 | 28:21.20 | 2:18.60 | 127595 | 138004
7 | 30:40.05 | 2:18.10 | 138005 | 148364
8 | 32:58.15 | 0:59.45 | 148365 | 152834
9 | 33:57.60 | 7:52.00 | 152835 | 188234
10 | 41:49.60 | 1:15.55 | 188235 | 193914
11 | 43:05.40 | 5:01.69 | 193915 | 216558
12 | 48:07.34 | 1:28.38 | 216559 | 223196
13 | 49:35.72 | 3:49.58 | 223197 | 240429
14 | 53:25.55 | 2:55.30 | 240430 | 253584
15 | 56:21.10 | 5:10.55 | 253585 | 276889


Range status and errors

Selected range

Filename C:\Users\Miguel Angel\Downloads\Endimione CD1\Bach, J.C. - Endimione - Weil - Jezovsek, Monoyios, Waschinski - CD1.wav

Peak level 98.1 %
Extraction speed 4.3 X
Range quality 99.9 %
Test CRC B8AC7FB5
Copy CRC B8AC7FB5
Copy OK

No errors occurred


AccurateRip summary

Track 1 accurately ripped (confidence 13) [F12DCF61] (AR v2)
Track 2 accurately ripped (confidence 13) [60C55FB6] (AR v2)
Track 3 accurately ripped (confidence 13) [9ED86E3E] (AR v2)
Track 4 accurately ripped (confidence 13) [500DEB92] (AR v2)
Track 5 accurately ripped (confidence 13) [6A8A01FE] (AR v2)
Track 6 accurately ripped (confidence 13) [69687FCF] (AR v2)
Track 7 accurately ripped (confidence 13) [AEADFF42] (AR v2)
Track 8 accurately ripped (confidence 13) [3262F1DF] (AR v2)
Track 9 accurately ripped (confidence 13) [BCA983BA] (AR v2)
Track 10 accurately ripped (confidence 13) [E5845EA9] (AR v2)
Track 11 accurately ripped (confidence 13) [68AA2875] (AR v2)
Track 12 accurately ripped (confidence 13) [3BA03997] (AR v2)
Track 13 accurately ripped (confidence 13) [D82A76D0] (AR v2)
Track 14 accurately ripped (confidence 13) [A60F5B46] (AR v2)
Track 15 accurately ripped (confidence 13) [ABAB112A] (AR v2)

All tracks accurately ripped

End of status report

–– CUETools DB Plugin V2.1.6

[CTDB TOCID: Hj6P6zPVbvKpJyljnVmVjsc5RP8-] found
Submit result: Hj6P6zPVbvKpJyljnVmVjsc5RP8- has been confirmed
Track | CTDB Status
1 | (18/18) Accurately ripped
2 | (18/18) Accurately ripped
3 | (18/18) Accurately ripped
4 | (18/18) Accurately ripped
5 | (18/18) Accurately ripped
6 | (18/18) Accurately ripped
7 | (18/18) Accurately ripped
8 | (18/18) Accurately ripped
9 | (18/18) Accurately ripped
10 | (18/18) Accurately ripped
11 | (18/18) Accurately ripped
12 | (18/18) Accurately ripped
13 | (18/18) Accurately ripped
14 | (18/18) Accurately ripped
15 | (18/18) Accurately ripped


==== Log checksum E9A01E7AA33012ED231701D8EF8CCFD9503182887A72D4601189F5B688C79C69 ====


Exact Audio Copy V1.3 from 2. September 2016

EAC extraction logfile from 6. December 2017, 17:34

Bach, J.C. / Endimione - Weil - Jezovsek, Monoyios, Waschinski - CD2

Used drive : HL-DT-STDVDRAM GSA-4081B Adapter: 1 ID: 1

Read mode : Secure
Utilize accurate stream : Yes
Defeat audio cache : Yes
Make use of C2 pointers : No

Read offset correction : 667
Overread into Lead-In and Lead-Out : No
Fill up missing offset samples with silence : Yes
Delete leading and trailing silent blocks : No
Null samples used in CRC calculations : Yes
Used interface : Native Win32 interface for Win NT & 2000

Used output format : User Defined Encoder
Selected bitrate : 768 kBit/s
Quality : High
Add ID3 tag : No
Command line compressor : C:\Program Files\Exact Audio Copy\FLAC\FLAC.EXE
Additional command line options : -6 -V -T "ARTIST=%artist%" -T "TITLE=%title%" -T "ALBUM=%albumtitle%" -T "DATE=%year%" -T "TRACKNUMBER=%tracknr%" -T "GENRE=%genre%" -T "COMMENT=%comment%" -T "BAND=%albuminterpret%" -T "ALBUMARTIST=%albuminterpret%" -T "COMPOSER=%composer%" %haslyrics%–tag-from-file=LYRICS="%lyricsfile%"%haslyrics% -T "DISCNUMBER=%cdnumber%" -T "TOTALDISCS=%totalcds%" -T "TOTALTRACKS=%numtracks%" %hascover%–picture="%coverfile%"%hascover% %source% -o %dest%


TOC of the extracted CD

Track | Start | Length | Start sector | End sector
––––––––––––––––––––––––––––-
1 | 0:00.00 | 3:47.30 | 0 | 17054
2 | 3:47.30 | 1:14.70 | 17055 | 22674
3 | 5:02.25 | 4:19.22 | 22675 | 42121
4 | 9:21.47 | 3:29.13 | 42122 | 57809
5 | 12:50.60 | 0:56.65 | 57810 | 62074
6 | 13:47.50 | 2:56.57 | 62075 | 75331
7 | 16:44.32 | 5:49.28 | 75332 | 101534
8 | 22:33.60 | 1:04.12 | 101535 | 106346
9 | 23:37.72 | 4:48.53 | 106347 | 127999
10 | 28:26.50 | 0:38.55 | 128000 | 130904
11 | 29:05.30 | 8:18.32 | 130905 | 168286
12 | 37:23.62 | 2:11.10 | 168287 | 178121
13 | 39:34.72 | 4:54.10 | 178122 | 200181


Range status and errors

Selected range

Filename C:\Users\Miguel Angel\Downloads\Endimione CD2\Bach, J.C. - Endimione - Weil - Jezovsek, Monoyios, Waschinski - CD2.wav

Peak level 92.6 %
Extraction speed 4.2 X
Range quality 100.0 %
Test CRC 9619991A
Copy CRC 9619991A
Copy OK

No errors occurred


AccurateRip summary

Track 1 accurately ripped (confidence 13) [BF1A1DFE] (AR v2)
Track 2 accurately ripped (confidence 13) [6F0CB054] (AR v2)
Track 3 accurately ripped (confidence 13) [A55491B5] (AR v2)
Track 4 accurately ripped (confidence 13) [F22B3D8D] (AR v2)
Track 5 accurately ripped (confidence 13) [187AB665] (AR v2)
Track 6 accurately ripped (confidence 13) [618BE3A7] (AR v2)
Track 7 accurately ripped (confidence 13) [2F1BE90C] (AR v2)
Track 8 accurately ripped (confidence 13) [50DF9DC0] (AR v2)
Track 9 accurately ripped (confidence 13) [F8E55C04] (AR v2)
Track 10 accurately ripped (confidence 13) [0CC267BB] (AR v2)
Track 11 accurately ripped (confidence 12) [45657462] (AR v2)
Track 12 accurately ripped (confidence 12) [8EC40A0A] (AR v2)
Track 13 accurately ripped (confidence 12) [E01D2AE4] (AR v2)

All tracks accurately ripped

End of status report

–– CUETools DB Plugin V2.1.6

[CTDB TOCID: wh33Hy288CasQA2otthuqtEFUro-] found
Submit result: wh33Hy288CasQA2otthuqtEFUro- has been confirmed
Track | CTDB Status
1 | (19/19) Accurately ripped
2 | (19/19) Accurately ripped
3 | (19/19) Accurately ripped
4 | (19/19) Accurately ripped
5 | (19/19) Accurately ripped
6 | (19/19) Accurately ripped
7 | (19/19) Accurately ripped
8 | (19/19) Accurately ripped
9 | (19/19) Accurately ripped
10 | (19/19) Accurately ripped
11 | (19/19) Accurately ripped
12 | (19/19) Accurately ripped
13 | (19/19) Accurately ripped


==== Log checksum 3723CB26AFE119A028F80BE941C62D11B20A411133EDA487400EAFEAD15AC313 ====

Bruno Weil, Cappella Coloniensis - Johann Christian Bach: Endimione (1999)

Thanks to the original releaser