Tags
Language
Tags
July 2024
Su Mo Tu We Th Fr Sa
30 1 2 3 4 5 6
7 8 9 10 11 12 13
14 15 16 17 18 19 20
21 22 23 24 25 26 27
28 29 30 31 1 2 3

Bryan Adams - Into The Fire (1987)

Posted By: BlondStyle
Bryan Adams - Into The Fire (1987)

Bryan Adams - Into The Fire (1987)
Rock, Pop Rock, Singer-Songwriter | EAC Rip | FLAC, Img+CUE+LOG+Scans (JPEG) | 45:18 Min | 336,94 Mb
Label: A&M Records (Canada) | Cat.# A&M-CD-3907 (DX1369) | Released: 1987-03-30

"Into the Fire" is the 5th studio album by the Canadian rock singer Bryan Adams. It was released on 30 March 1987 by A&M Records, and the follow up album to the chart topping "Reckless" (1984). "Into the Fire" peaked at #7 on the US Billboard 200 chart and reached equally high positions in charts worldwide. The album was recorded at Adams' home in Vancouver, British Columbia, Canada. Six singles were released from the album: "Heat of the Night", "Hearts on Fire", "Victim of Love", "Only the Strong Survive", "Into the Fire" and "Another Day". The cover photographs were taken by the Dutch photographer/director Anton Corbijn on the river Thames in East London, England.
~Wikipedia

Bryan Adams - Into The Fire (1987)

By the time he returned to the studio after almost two years of touring behind the remarkable success of 1984's Reckless, Bryan Adams' once fruitful collaboration with producer Jim Vallance had obviously staled. Most of the duo's songs for 1987's Into the Fire were lifeless and dull, and the album yielded only one successful single in "Heat of the Night." The arena rock of "Hearts on Fire" injects it with at least a little spark, but things quickly get ugly with the depressing title track and the truly awful "Only the Strong Survive." Not surprisingly, the album was Adams' last with Vallance, and his new partnership with producer John "Mutt" Lange (Def Leppard, AC/DC) would lead to his greatest success yet.
~Review by Eduardo Rivadavia

Bryan Adams - Into The Fire (1987)

Bryan Adams - Into The Fire (1987)




Release of the album: 1987, March, 30 [LP A&M Records, Cat.# SP-3907, Canada]
Release of this CD: 1987 [CD A&M Records (Canada), Cat.# A&M-CD-3907 (DX1369) / UPC: 07502139072]
℗© 1987 A&M Records Inc.
Printed in U.S.A. (Artwork)
Made in Canada (CD)


Credits:

Art Direction – Jeffrey Gold, John Warwicker
Band [The Band] – Bryan Adams, Dave Taylor, Keith Scott, Mickey Curry
Bass – Dave Taylor
Design – Platform
Drums – Mickey Curry
Engineer [Second] – Richard Moakes
Engineer [Technical] – Ron Obvious
Guitar – Bryan Adams
Keyboards – Bryan Adams, Dave Pickell (Pick), Ian Stanley, Tom Mandel
Keyboards [Tour Keyboards] – John Hannah
Lead Guitar, Backing Vocals – Keith Scott
Management – Bruce Allen
Mastered By – Bob Ludwig
Mixed By – Bob Clearmountain
Organ – Robbie King, Tom Mandel
Photography By – Anton Corbijn
Piano – Bryan Adams, Jim Vallance
Producer – Bob Clearmountain, Bryan Adams
Producer [Associate], Percussion, Sequenced By [Sequencer] – Jim Vallance
Recorded By – Bob Clearmountain, Tim Crich
Typography [Front Cover] – Jeremy Pearce
Written-By – Bryan Adams, Jim Vallance


Tracklist:

01. Heat Of The Night (05:07)
02. Into The Fire (04:42)
03. Victim Of Love (04:07)
04. Another Day (03:41)
05. Native Son (06:04)
06. Only The Strong Survive (03:45)
07. Rebel (04:02)
08. Remembrance Day (06:00)
09. Hearts On Fire (03:31)
10. Home Again (04:18)

Exact Audio Copy V0.99 prebeta 4 from 23. January 2008

EAC extraction logfile from 6. December 2008, 14:38

Bryan Adams / Into The Fire

Used drive : HL-DT-STDVD-RAM GSA-H22N Adapter: 1 ID: 0

Read mode : Secure
Utilize accurate stream : Yes
Defeat audio cache : Yes
Make use of C2 pointers : No

Read offset correction : 102
Overread into Lead-In and Lead-Out : Yes
Fill up missing offset samples with silence : Yes
Delete leading and trailing silent blocks : No
Null samples used in CRC calculations : Yes
Used interface : Installed external ASPI interface

Used output format : Internal WAV Routines
Sample format : 44.100 Hz; 16 Bit; Stereo


TOC of the extracted CD

Track | Start | Length | Start sector | End sector
––––––––––––––––––––––––––––-
1 | 0:00.00 | 5:07.10 | 0 | 23034
2 | 5:07.10 | 4:41.60 | 23035 | 44169
3 | 9:48.70 | 4:06.72 | 44170 | 62691
4 | 13:55.67 | 3:41.05 | 62692 | 79271
5 | 17:36.72 | 6:04.13 | 79272 | 106584
6 | 23:41.10 | 3:45.22 | 106585 | 123481
7 | 27:26.32 | 4:02.13 | 123482 | 141644
8 | 31:28.45 | 5:59.72 | 141645 | 168641
9 | 37:28.42 | 3:30.43 | 168642 | 184434
10 | 40:59.10 | 4:18.30 | 184435 | 203814


Range status and errors

Selected range

Filename C:\Music\OUT Record\Br\BA-ITF\Bryan Adams - Into The Fire.wav

Peak level 100.0 %
Range quality 100.0 %
Copy CRC 5645A173
Copy OK

No errors occurred


End of status report

––––––––––––––––––––––––––––––––––––––––
Analyzed: Bryan Adams / Into The Fire
––––––––––––––––––––––––––––––––––––––––

DR Peak RMS Duration Track
––––––––––––––––––––––––––––––––––––––––
DR16 0.00 dB -17.03 dB 5:07 01-Heat Of The Night
DR15 -0.05 dB -17.04 dB 4:42 02-Into The Fire
DR16 0.00 dB -17.30 dB 4:07 03-Victim Of Love
DR16 0.00 dB -17.80 dB 3:41 04-Another Day
DR16 0.00 dB -18.66 dB 6:04 05-Native Son
DR14 -0.10 dB -15.67 dB 3:45 06-Only The Strong Survive
DR13 -1.81 dB -16.86 dB 4:02 07-Rebel
DR16 0.00 dB -17.35 dB 6:00 08-Remembrance Day
DR16 0.00 dB -17.07 dB 3:31 09-Hearts On Fire
DR15 0.00 dB -17.02 dB 4:18 10-Home Again
––––––––––––––––––––––––––––––––––––––––

Number of tracks: 10
Official DR value: DR15

Samplerate: 44100 Hz
Channels: 2
Bits per sample: 16
Bitrate: 899 kbps
Codec: FLAC
================================================================================

Thanks to Alex ZAM

♫~Welcome To My Blog~♫

password: BlondStyle