Subcategories

Buddy Guy & Junior Wells - Last Time Around: Live At Legends (1998)

Posted By: Designol
Buddy Guy & Junior Wells - Last Time Around: Live At Legends (1998)

Buddy Guy & Junior Wells - Last Time Around: Live At Legends (1998)
EAC | FLAC | Image (Cue&Log) ~ 324 Mb (incl 5%) | Mp3 (CBR320) ~ 152 Mb (incl 5%) | Scans included
Genre: Chicago Blues, Electric Blues | Label: Silvertone | # 01241-41629-2 | Time: 00:53:05

Last Time Around – Live At Legends is a fitting farewell to the late, great Junior Wells and his partnership, friendship and kinship with Buddy Guy that lasted decades. The album is a historic release in many ways. It reunites two blues legends who began their unique association in the 1950s. The album was recorded live in March 1993 at Buddy Guy's world-famous Chicago blues mecca Legends, and it's an acoustic document of many classic songs that made both Wells and Guy legends in their own right, such as "She's Alright" and "I've Been There," along with other classic blues standards such as "Hoochie Coochie Man" and "Key to the Highway," all delivered with a looseness and power that define both Guy and Wells. It also marks the last time the two ever played together.

Review by Matthew Greenwald, Allmusic.com

Buddy Guy & Junior Wells - Last Time Around: Live At Legends (1998)



Tracklist:

01. Seeds Of Reed (04:25)
02. That's All Right (03:50)
03. She's All Right - Still A Fool (05:41)
04. Hoochie Coochie Man (05:42)
05. What I'd Say (It's All Right) (06:17)
06. Key To The Highway (04:35)
07. I've Been There (08:41)
08. Feelin' Good - What I'd Say (04:03)
09. Oh Baby - You Better Watch Yourself (03:13)
10. Hoodoo Man Blues (06:33)


Exact Audio Copy V1.0 beta 4 from 7. December 2014

Отчёт EAC об извлечении, выполненном 5. января 2015, 17:10

Buddy Guy & Junior Wells / Last Time Around-Live At Legends

Дисковод: SONY CD-RW CRX230ED Adapter: 1 ID: 0

Режим чтения : Достоверность
Использование точного потока : Да
Отключение кэша аудио : Да
Использование указателей C2 : Нет

Коррекция смещения при чтении : 6
Способность читать области Lead-in и Lead-out : Нет
Заполнение пропущенных сэмплов тишиной : Да
Удаление блоков с тишиной в начале и конце : Нет
При вычислениях CRC использовались нулевые сэмплы : Да
Интерфейс : Встроенный Win32-интерфейс для Win NT/2000

Выходной формат : Внутренние WAV-операции
Формат сэмплов : 44.100 Гц; 16 бит; стерео


TOC извлечённого CD

Трек | Старт | Длительность | Начальный сектор | Конечный сектор
––––––––––––––––––––––––––––––––––-
1 | 0:00.00 | 4:25.17 | 0 | 19891
2 | 4:25.17 | 3:50.53 | 19892 | 37194
3 | 8:15.70 | 5:41.27 | 37195 | 62796
4 | 13:57.22 | 5:42.45 | 62797 | 88491
5 | 19:39.67 | 6:17.08 | 88492 | 116774
6 | 25:57.00 | 4:35.37 | 116775 | 137436
7 | 30:32.37 | 8:41.30 | 137437 | 176541
8 | 39:13.67 | 4:03.30 | 176542 | 194796
9 | 43:17.22 | 3:13.68 | 194797 | 209339
10 | 46:31.15 | 6:33.45 | 209340 | 238859


Характеристики диапазона извлечения и сообщения об ошибках

Выбранный диапазон

Имя файла F:\MusicCD\Torrent\Buddy Guy & Junior Wells - Last Time Around-Live At Legends\Buddy Guy & Junior Wells - Last Time Around-Live At Legends.wav

Пиковый уровень 100.0 %
Скорость извлечения 7.3 X
Качество диапазона 100.0 %
CRC теста 25A1E6DC
CRC копии 25A1E6DC
Копирование… OK

Ошибок не произошло


AccurateRip: сводка

Трек 1 : извлечено точно (доверие 21) [04CC6DA1] (AR v2)
Трек 2 : извлечено точно (доверие 21) [8183C8FC] (AR v2)
Трек 3 : извлечено точно (доверие 21) [7F0CE66B] (AR v2)
Трек 4 : извлечено точно (доверие 20) [FF8DCA2F] (AR v2)
Трек 5 : извлечено точно (доверие 21) [AC0C2E0E] (AR v2)
Трек 6 : извлечено точно (доверие 21) [0E46D24F] (AR v2)
Трек 7 : извлечено точно (доверие 21) [2DF9EE0B] (AR v2)
Трек 8 : извлечено точно (доверие 21) [72CB37FA] (AR v2)
Трек 9 : извлечено точно (доверие 22) [AE9CCF47] (AR v2)
Трек 10 : извлечено точно (доверие 21) [F52CD4CC] (AR v2)

Все треки извлечены точно

Конец отчёта

–– CUETools DB Plugin V2.1.4

[CTDB TOCID: JGvImrRbAI4h09y9kEhU5MbHp28-] found
Submit result: JGvImrRbAI4h09y9kEhU5MbHp28- has been confirmed
Track | CTDB Status
1 | (8/8) Accurately ripped
2 | (8/8) Accurately ripped
3 | (8/8) Accurately ripped
4 | (8/8) Accurately ripped
5 | (8/8) Accurately ripped
6 | (8/8) Accurately ripped
7 | (8/8) Accurately ripped
8 | (8/8) Accurately ripped
9 | (8/8) Accurately ripped
10 | (8/8) Accurately ripped


==== Контрольная сумма отчёта ADF31EDC88346A9A00B5B5D80B7DD21289535A885E3A92CE3071ED2142336B0B ====

foobar2000 1.2 / Dynamic Range Meter 1.1.1
log date: 2015-01-09 13:26:26

––––––––––––––––––––––––––––––––––––––––
Analyzed: Buddy Guy & Junior Wells / Last Time Around-Live At Legends
––––––––––––––––––––––––––––––––––––––––

DR Peak RMS Duration Track
––––––––––––––––––––––––––––––––––––––––
DR11 0.00 dB -14.78 dB 4:25 01-Seeds Of Reed
DR12 0.00 dB -15.88 dB 3:51 02-That's All Right
DR13 0.00 dB -17.26 dB 5:41 03-She's All Right - Still A Fool
DR14 0.00 dB -18.28 dB 5:43 04-Hoochie Coochie Man
DR10 0.00 dB -13.89 dB 6:17 05-What I'd Say (It's All Right)
DR15 0.00 dB -18.06 dB 4:35 06-Key To The Highway
DR13 0.00 dB -17.83 dB 8:41 07-I've Been There
DR12 0.00 dB -16.09 dB 4:03 08-Feelin' Good - What I'd Say
DR10 0.00 dB -12.74 dB 3:14 09-Oh Baby - You Better Watch Yourself
DR11 0.00 dB -15.15 dB 6:34 10-Hoodoo Man Blues
––––––––––––––––––––––––––––––––––––––––

Number of tracks: 10
Official DR value: DR12

Samplerate: 44100 Hz
Channels: 2
Bits per sample: 16
Bitrate: 751 kbps
Codec: FLAC
================================================================================

Buddy Guy & Junior Wells - Last Time Around: Live At Legends (1998)

Buddy Guy & Junior Wells - Last Time Around: Live At Legends (1998)

All thanks to original releaser - squirr

More interesting music in My Blog