Tags
Language
Tags

Coughs - Secret Passage (2006) {Load} **[RE-UP]**

Posted By: TestTickles
Coughs - Secret Passage (2006) {Load} **[RE-UP]**

Coughs - Secret Passage (2006) {Load}
EAC Rip | FLAC with CUE and log | scans | 271 mb
MP3 CBR 320kbps | RAR | 106 mb
Genre: indie rock, noise rock

Secret Passage is the 2006 album by Coughs. A melange of noisy ass rock, this was released by the Load label.

Coughs - Secret Passage (2006) {Load} **[RE-UP]**

01. Quagmire
02. Happy Harvest
03. Dark Powers
04. Life Of Acne
05. Fencing
06. Bunny Slope
07. Colors And The Way They Make You Feel
08. Ditch That Zero
09. Quinze Trout (15 Holes)
10. Intentional Community
11. The Horse, He's Sick

Anya Davidson-vocals
Seth Sher-percussion
Jail Flanagan-saxophone, keyboards
Vanessa Harris-guitar
Carrie Binarsky-bass
Jon Ziemba-percussion

Recorded by Bill Skibbe & Jessica Ruffins
Mixed by Jessica Ruffins, Bill Skibbe & Coughs
Mastered by Golden Mastering

Exact Audio Copy V1.1 from 23. June 2015

EAC extraction logfile from 4. May 2017, 23:20

Coughs / Secret Passage

Used drive : TEAC DVD-ROM DV-28SW Adapter: 1 ID: 0

Read mode : Secure
Utilize accurate stream : Yes
Defeat audio cache : Yes
Make use of C2 pointers : No

Read offset correction : 6
Overread into Lead-In and Lead-Out : No
Fill up missing offset samples with silence : Yes
Delete leading and trailing silent blocks : No
Null samples used in CRC calculations : Yes
Used interface : Native Win32 interface for Win NT & 2000
Gap handling : Appended to previous track

Used output format : Internal WAV Routines
Sample format : 44.100 Hz; 16 Bit; Stereo


TOC of the extracted CD

Track | Start | Length | Start sector | End sector
––––––––––––––––––––––––––––-
1 | 0:00.00 | 3:35.66 | 0 | 16190
2 | 3:35.66 | 4:29.74 | 16191 | 36439
3 | 8:05.65 | 3:14.07 | 36440 | 50996
4 | 11:19.72 | 3:52.17 | 50997 | 68413
5 | 15:12.14 | 3:07.69 | 68414 | 82507
6 | 18:20.08 | 3:44.13 | 82508 | 99320
7 | 22:04.21 | 4:14.03 | 99321 | 118373
8 | 26:18.24 | 2:25.25 | 118374 | 129273
9 | 28:43.49 | 3:55.67 | 129274 | 146965
10 | 32:39.41 | 3:17.73 | 146966 | 161813
11 | 35:57.39 | 2:07.05 | 161814 | 171343


Track 1

Filename C:\My Documents\My FLAC\Coughs - Secret Passage (2006) [FLAC] {Load}\01 - Quagmire.wav

Pre-gap length 0:00:02.00

Peak level 98.8 %
Extraction speed 2.7 X
Track quality 100.0 %
Test CRC 6436B8CC
Copy CRC 6436B8CC
Track not present in AccurateRip database
Copy OK

Track 2

Filename C:\My Documents\My FLAC\Coughs - Secret Passage (2006) [FLAC] {Load}\02 - Happy Harvest.wav

Peak level 98.8 %
Extraction speed 3.2 X
Track quality 100.0 %
Test CRC FCFBB71A
Copy CRC FCFBB71A
Track not present in AccurateRip database
Copy OK

Track 3

Filename C:\My Documents\My FLAC\Coughs - Secret Passage (2006) [FLAC] {Load}\03 - Dark Powers.wav

Peak level 98.8 %
Extraction speed 3.3 X
Track quality 100.0 %
Test CRC 20D7E482
Copy CRC 20D7E482
Track not present in AccurateRip database
Copy OK

Track 4

Filename C:\My Documents\My FLAC\Coughs - Secret Passage (2006) [FLAC] {Load}\04 - Life Of Acne.wav

Peak level 98.8 %
Extraction speed 3.6 X
Track quality 100.0 %
Test CRC 85CEEF3C
Copy CRC 85CEEF3C
Track not present in AccurateRip database
Copy OK

Track 5

Filename C:\My Documents\My FLAC\Coughs - Secret Passage (2006) [FLAC] {Load}\05 - Fencing.wav

Peak level 98.8 %
Extraction speed 3.0 X
Track quality 99.9 %
Test CRC 76881DA5
Copy CRC 76881DA5
Track not present in AccurateRip database
Copy OK

Track 6

Filename C:\My Documents\My FLAC\Coughs - Secret Passage (2006) [FLAC] {Load}\06 - Bunny Slope.wav

Peak level 98.8 %
Extraction speed 4.0 X
Track quality 100.0 %
Test CRC 57C27E30
Copy CRC 57C27E30
Track not present in AccurateRip database
Copy OK

Track 7

Filename C:\My Documents\My FLAC\Coughs - Secret Passage (2006) [FLAC] {Load}\07 - Colors And The Way They Make You Feel.wav

Peak level 98.8 %
Extraction speed 4.2 X
Track quality 100.0 %
Test CRC 8C91EE1F
Copy CRC 8C91EE1F
Track not present in AccurateRip database
Copy OK

Track 8

Filename C:\My Documents\My FLAC\Coughs - Secret Passage (2006) [FLAC] {Load}\08 - Ditch That Zero.wav

Peak level 98.8 %
Extraction speed 4.0 X
Track quality 100.0 %
Test CRC 8B4099D3
Copy CRC 8B4099D3
Track not present in AccurateRip database
Copy OK

Track 9

Filename C:\My Documents\My FLAC\Coughs - Secret Passage (2006) [FLAC] {Load}\09 - Quinze Trout (15 Holes).wav

Peak level 98.8 %
Extraction speed 4.5 X
Track quality 100.0 %
Test CRC BE2986F5
Copy CRC BE2986F5
Track not present in AccurateRip database
Copy OK

Track 10

Filename C:\My Documents\My FLAC\Coughs - Secret Passage (2006) [FLAC] {Load}\10 - Intentional Community.wav

Peak level 98.8 %
Extraction speed 4.4 X
Track quality 100.0 %
Test CRC FCADFD0A
Copy CRC FCADFD0A
Track not present in AccurateRip database
Copy OK

Track 11

Filename C:\My Documents\My FLAC\Coughs - Secret Passage (2006) [FLAC] {Load}\11 - The Horse, He's Sick.wav

Peak level 98.8 %
Extraction speed 4.0 X
Track quality 100.0 %
Test CRC D316DD27
Copy CRC D316DD27
Track not present in AccurateRip database
Copy OK


None of the tracks are present in the AccurateRip database

No errors occurred

End of status report

–– CUETools DB Plugin V2.1.6

[CTDB TOCID: D3J_4.bxuM8kfkTlrgMKtq6GKBA-] disk not present in database
Submit result: D3J_4.bxuM8kfkTlrgMKtq6GKBA- has been uploaded


==== Log checksum 36C0699A2743661225AC767A5023E0067BDBA4C4A7B8FD4A3CAE928D92541902 ====


Coughs - Secret Passage (2006) {Load} **[RE-UP]**