Subcategories
Tags
Language
Tags

Chuck Lange - The Natural Guitar (1993) {NorthSound}

Posted By: TestTickles
Chuck Lange - The Natural Guitar (1993) {NorthSound}

Chuck Lange - The Natural Guitar (1993) {NorthSound}
EAC Rip | FLAC with CUE and log | scans | 316 mb
MP3 CBR 320kbps | RAR | 141 mb
Genre: new age, acoustic

The Natural Guitar is the 1993 album by guitarist Chick Lange. This was released on NorthSound.

Chuck Lange - The Natural Guitar (1993) {NorthSound}

01. Call Of The Wild
02. Nature's Guitar
03. The Brook
04. Lady
05. Good-Bye
06. Time
07. Stormy Weather
08. Lazy Afternoon
09. String Strum
10. Chucky's Song
11. Alpine Memory
12. Time Passes On By

Exact Audio Copy V1.0 beta 6 from 9. April 2015

EAC extraction logfile from 15. August 2018, 9:47

Chuck Lange / The Natural Guitar

Used drive : TSSTcorpDVD+-RW TS-L633C Adapter: 1 ID: 0

Read mode : Secure
Utilize accurate stream : Yes
Defeat audio cache : Yes
Make use of C2 pointers : No

Read offset correction : 6
Overread into Lead-In and Lead-Out : No
Fill up missing offset samples with silence : Yes
Delete leading and trailing silent blocks : No
Null samples used in CRC calculations : Yes
Used interface : Native Win32 interface for Win NT & 2000
Gap handling : Appended to previous track

Used output format : Internal WAV Routines
Sample format : 44.100 Hz; 16 Bit; Stereo


TOC of the extracted CD

Track | Start | Length | Start sector | End sector
––––––––––––––––––––––––––––-
1 | 0:00.00 | 5:50.57 | 0 | 26306
2 | 5:50.57 | 5:53.00 | 26307 | 52781
3 | 11:43.57 | 3:45.30 | 52782 | 69686
4 | 15:29.12 | 3:35.53 | 69687 | 85864
5 | 19:04.65 | 5:55.35 | 85865 | 112524
6 | 25:00.25 | 4:55.27 | 112525 | 134676
7 | 29:55.52 | 3:55.23 | 134677 | 152324
8 | 33:51.00 | 4:05.30 | 152325 | 170729
9 | 37:56.30 | 5:42.32 | 170730 | 196411
10 | 43:38.62 | 5:05.35 | 196412 | 219321
11 | 48:44.22 | 6:27.38 | 219322 | 248384
12 | 55:11.60 | 4:55.02 | 248385 | 270511


Track 1

Filename C:\My Documents\My FLAC\Chuck Lange - The Natural Guitar (1993) [FLAC] {NorthSound}\01 - Call Of The Wild.wav

Pre-gap length 0:00:02.00

Peak level 72.7 %
Extraction speed 2.8 X
Track quality 100.0 %
Test CRC 82B69092
Copy CRC 82B69092
Accurately ripped (confidence 3) [E6444D04] (AR v2)
Copy OK

Track 2

Filename C:\My Documents\My FLAC\Chuck Lange - The Natural Guitar (1993) [FLAC] {NorthSound}\02 - Nature's Guitar.wav

Pre-gap length 0:00:04.47

Peak level 63.1 %
Extraction speed 3.2 X
Track quality 100.0 %
Test CRC D098A446
Copy CRC D098A446
Accurately ripped (confidence 3) [714CA935] (AR v2)
Copy OK

Track 3

Filename C:\My Documents\My FLAC\Chuck Lange - The Natural Guitar (1993) [FLAC] {NorthSound}\03 - The Brook.wav

Pre-gap length 0:00:04.47

Peak level 62.5 %
Extraction speed 2.7 X
Track quality 99.9 %
Test CRC 66D346BC
Copy CRC 66D346BC
Accurately ripped (confidence 3) [ED362B2F] (AR v2)
Copy OK

Track 4

Filename C:\My Documents\My FLAC\Chuck Lange - The Natural Guitar (1993) [FLAC] {NorthSound}\04 - Lady.wav

Pre-gap length 0:00:04.45

Peak level 63.5 %
Extraction speed 3.4 X
Track quality 100.0 %
Test CRC 053126F0
Copy CRC 053126F0
Accurately ripped (confidence 3) [1189EA78] (AR v2)
Copy OK

Track 5

Filename C:\My Documents\My FLAC\Chuck Lange - The Natural Guitar (1993) [FLAC] {NorthSound}\05 - Good-Bye.wav

Pre-gap length 0:00:04.48

Peak level 68.9 %
Extraction speed 3.9 X
Track quality 100.0 %
Test CRC 73E24BB5
Copy CRC 73E24BB5
Accurately ripped (confidence 3) [7583BFA5] (AR v2)
Copy OK

Track 6

Filename C:\My Documents\My FLAC\Chuck Lange - The Natural Guitar (1993) [FLAC] {NorthSound}\06 - Time.wav

Pre-gap length 0:00:04.48

Peak level 61.3 %
Extraction speed 4.1 X
Track quality 100.0 %
Test CRC BD94E109
Copy CRC BD94E109
Accurately ripped (confidence 3) [A5BBF1A9] (AR v2)
Copy OK

Track 7

Filename C:\My Documents\My FLAC\Chuck Lange - The Natural Guitar (1993) [FLAC] {NorthSound}\07 - Stormy Weather.wav

Pre-gap length 0:00:04.65

Peak level 76.0 %
Extraction speed 4.1 X
Track quality 100.0 %
Test CRC 65204BA6
Copy CRC 65204BA6
Accurately ripped (confidence 3) [F6330ED9] (AR v2)
Copy OK

Track 8

Filename C:\My Documents\My FLAC\Chuck Lange - The Natural Guitar (1993) [FLAC] {NorthSound}\08 - Lazy Afternoon.wav

Pre-gap length 0:00:04.50

Peak level 79.8 %
Extraction speed 4.3 X
Track quality 100.0 %
Test CRC D89B3A34
Copy CRC D89B3A34
Accurately ripped (confidence 3) [05494B7D] (AR v2)
Copy OK

Track 9

Filename C:\My Documents\My FLAC\Chuck Lange - The Natural Guitar (1993) [FLAC] {NorthSound}\09 - String Strum.wav

Pre-gap length 0:00:04.45

Peak level 72.5 %
Extraction speed 4.7 X
Track quality 100.0 %
Test CRC 4FBC2EF8
Copy CRC 4FBC2EF8
Accurately ripped (confidence 3) [D5141E96] (AR v2)
Copy OK

Track 10

Filename C:\My Documents\My FLAC\Chuck Lange - The Natural Guitar (1993) [FLAC] {NorthSound}\10 - Chucky's Song.wav

Pre-gap length 0:00:04.45

Peak level 45.9 %
Extraction speed 4.8 X
Track quality 100.0 %
Test CRC F7E93DDC
Copy CRC F7E93DDC
Accurately ripped (confidence 3) [5E3253AD] (AR v2)
Copy OK

Track 11

Filename C:\My Documents\My FLAC\Chuck Lange - The Natural Guitar (1993) [FLAC] {NorthSound}\11 - Alpine Memory.wav

Pre-gap length 0:00:04.45

Peak level 69.2 %
Extraction speed 5.1 X
Track quality 100.0 %
Test CRC 66DF8164
Copy CRC 66DF8164
Accurately ripped (confidence 3) [1721FCC9] (AR v2)
Copy OK

Track 12

Filename C:\My Documents\My FLAC\Chuck Lange - The Natural Guitar (1993) [FLAC] {NorthSound}\12 - Time Passes On By.wav

Pre-gap length 0:00:04.45

Peak level 71.6 %
Extraction speed 0.6 X
Track quality 99.7 %
Test CRC 2436ECBE
Copy CRC 2436ECBE
Accurately ripped (confidence 2) [84C211B4] (AR v2)
Copy OK


All tracks accurately ripped

No errors occurred

End of status report

–– CUETools DB Plugin V2.1.6

[CTDB TOCID: AFN8s1cmrDiFqHOXMU39oWTijNM-] found
Submit result: AFN8s1cmrDiFqHOXMU39oWTijNM- has been confirmed
Track | CTDB Status
1 | (14/16) Accurately ripped
2 | (16/16) Accurately ripped
3 | (16/16) Accurately ripped
4 | (16/16) Accurately ripped
5 | (16/16) Accurately ripped
6 | (12/16) Accurately ripped, or (4/16) differs in 13 samples @00:40:37-00:40:38,00:42:04
7 | (16/16) Accurately ripped
8 | (16/16) Accurately ripped
9 | (16/16) Accurately ripped
10 | (16/16) Accurately ripped
11 | (16/16) Accurately ripped
12 | (15/16) Accurately ripped


==== Log checksum B903C5D4282CF4755E52D61C018C8200CD04C34D4EF395BB88BE9A1FA8D59B83 ====


Chuck Lange - The Natural Guitar (1993) {NorthSound}