Subcategories

Chicane - Far From The Maddening Crowds (1997) {Xtravaganza/Edel}

Posted By: TestTickles
Chicane - Far From The Maddening Crowds (1997) {Xtravaganza/Edel}

Chicane - Far From The Maddening Crowds (1997) {Xtravaganza/Edel}
EAC Rip | FLAC with CUE and log | scans | 439 mb
MP3 CBR 320 kbps | RAR | 161 mb
Genre: electronic, trance, breaks

Far From The Maddening Crowds is the 1997 album by Nick Bracegirdle, who works under a number of names including Andreas Van Hoog and Disco Citizens but is primarily known as Chicane. This was released by Xtravaganza in collaboration with Edel.

Chicane - Far From The Maddening Crowds (1997) {Xtravaganza/Edel}

01. Early (4:17)
02. Already There (2:56)
03. Offshore (Original) (6:45)
04. Lost You Somewhere (8:25)
05. From Blue To Green (5:51)
06. Sunstroke (Disco Citizens) (9:05)
07. Leaving Town (5:56)
08. Red Skies (7:34)
09. Sunstroke (Original) (6:17)
10. Offshore '97 (9:13)
11. The Drive Home (6:07)

Exact Audio Copy V1.0 beta 3 from 29. August 2011

Отчёт EAC об извлечении, выполненном 10. августейший 2013, 22:18

Chicane / Far From The Maddening Crowds

Дисковод: HL-DT-STDVD-RAM GH22NP20 Adapter: 0 ID: 0

Режим чтения : Достоверность
Использование точного потока : Да
Отключение кэша аудио : Да
Использование указателей C2 : Нет

Коррекция смещения при чтении : 102
Способность читать области Lead-in и Lead-out : Да
Заполнение пропущенных сэмплов тишиной : Да
Удаление блоков с тишиной в начале и конце : Нет
При вычислениях CRC использовались нулевые сэмплы : Да
Интерфейс : Встроенный Win32-интерфейс для Win NT/2000
Обработка зазоров : Добавлено к предыдущему треку

Выходной формат : Пользовательский кодировщик
Выбранный битрейт : 1024 kBit/s
Качество : Высокий
Добавление ID3-тега : Да
Утилита сжатия : C:\Program Files\Exact Audio Copy\FLAC\flac.exe
Дополнительные параметры : -V -8 -T "Genre=%genre%" -T "Artist=%artist%" -T "Title=%title%" -T "Album=%albumtitle%" -T "Date=%year%" -T "Tracknumber=%tracknr%" -T "Comment=%comment%" %source%

TOC извлечённого CD

Трек | Старт | Длительность | Начальный сектор | Конечный сектор
––––––––––––––––––––––––––––––––––-
1 | 0:00.00 | 4:20.40 | 0 | 19539
2 | 4:20.40 | 2:57.72 | 19540 | 32886
3 | 7:18.37 | 6:50.18 | 32887 | 63654
4 | 14:08.55 | 8:29.65 | 63655 | 101894
5 | 22:38.45 | 5:53.32 | 101895 | 128401
6 | 28:32.02 | 9:10.43 | 128402 | 169694
7 | 37:42.45 | 5:59.57 | 169695 | 196676
8 | 43:42.27 | 7:40.45 | 196677 | 231221
9 | 51:22.72 | 6:18.55 | 231222 | 259626
10 | 57:41.52 | 9:14.70 | 259627 | 301246
11 | 66:56.47 | 6:07.18 | 301247 | 328789

Трек 1

Имя файла C:\cuntfist\FLAC\Chicane - Far From The Maddening Crowds (1997) [FLAC] {Xtravaganza, Edel}\01 - Early.wav

Длина предзазора 0:00:02.00

Пиковый уровень 90.2 %
Скорость извлечения 1.7 X
Качество трека 100.0 %
CRC теста 6B260E5B
CRC копии 6B260E5B
Трек не обнаружен в базе AccurateRip
Копирование… OK

Трек 2

Имя файла C:\cuntfist\FLAC\Chicane - Far From The Maddening Crowds (1997) [FLAC] {Xtravaganza, Edel}\02 - Alredy There.wav

Длина предзазора 0:00:01.45

Пиковый уровень 97.8 %
Скорость извлечения 1.5 X
Качество трека 99.9 %
CRC теста 4B807540
CRC копии 4B807540
Трек не обнаружен в базе AccurateRip
Копирование… OK

Трек 3

Имя файла C:\cuntfist\FLAC\Chicane - Far From The Maddening Crowds (1997) [FLAC] {Xtravaganza, Edel}\03 - Offshore (Original).wav

Длина предзазора 0:00:01.47

Пиковый уровень 100.0 %
Скорость извлечения 2.3 X
Качество трека 100.0 %
CRC теста 621D0572
CRC копии 621D0572
Трек не обнаружен в базе AccurateRip
Копирование… OK

Трек 4

Имя файла C:\cuntfist\FLAC\Chicane - Far From The Maddening Crowds (1997) [FLAC] {Xtravaganza, Edel}\04 - Lost You Somewhere.wav

Длина предзазора 0:00:04.58

Пиковый уровень 100.0 %
Скорость извлечения 2.6 X
Качество трека 100.0 %
CRC теста 042EAD47
CRC копии 042EAD47
Трек не обнаружен в базе AccurateRip
Копирование… OK

Трек 5

Имя файла C:\cuntfist\FLAC\Chicane - Far From The Maddening Crowds (1997) [FLAC] {Xtravaganza, Edel}\05 - From Blue To Green.wav

Длина предзазора 0:00:03.73

Пиковый уровень 100.0 %
Скорость извлечения 2.7 X
Качество трека 100.0 %
CRC теста 0B7ED992
CRC копии 0B7ED992
Трек не обнаружен в базе AccurateRip
Копирование… OK

Трек 6

Имя файла C:\cuntfist\FLAC\Chicane - Far From The Maddening Crowds (1997) [FLAC] {Xtravaganza, Edel}\06 - Sunstroke (Disco Citizens).wav

Длина предзазора 0:00:01.47

Пиковый уровень 100.0 %
Скорость извлечения 3.0 X
Качество трека 100.0 %
CRC теста C66D30F9
CRC копии C66D30F9
Трек не обнаружен в базе AccurateRip
Копирование… OK

Трек 7

Имя файла C:\cuntfist\FLAC\Chicane - Far From The Maddening Crowds (1997) [FLAC] {Xtravaganza, Edel}\07 - Leaving Town.wav

Длина предзазора 0:00:04.70

Пиковый уровень 100.0 %
Скорость извлечения 3.1 X
Качество трека 100.0 %
CRC теста DB75BF96
CRC копии DB75BF96
Трек не обнаружен в базе AccurateRip
Копирование… OK

Трек 8

Имя файла C:\cuntfist\FLAC\Chicane - Far From The Maddening Crowds (1997) [FLAC] {Xtravaganza, Edel}\08 - Red Skies.wav

Длина предзазора 0:00:02.65

Пиковый уровень 100.0 %
Скорость извлечения 3.4 X
Качество трека 100.0 %
CRC теста 940C5C29
CRC копии 940C5C29
Трек не обнаружен в базе AccurateRip
Копирование… OK

Трек 9

Имя файла C:\cuntfist\FLAC\Chicane - Far From The Maddening Crowds (1997) [FLAC] {Xtravaganza, Edel}\09 - Sunstroke (Original).wav

Длина предзазора 0:00:05.47

Пиковый уровень 99.9 %
Скорость извлечения 3.5 X
Качество трека 100.0 %
CRC теста 603A614F
CRC копии 603A614F
Трек не обнаружен в базе AccurateRip
Копирование… OK

Трек 10

Имя файла C:\cuntfist\FLAC\Chicane - Far From The Maddening Crowds (1997) [FLAC] {Xtravaganza, Edel}\10 - Offshore '97.wav

Длина предзазора 0:00:01.45

Пиковый уровень 100.0 %
Скорость извлечения 3.8 X
Качество трека 100.0 %
CRC теста 22BEEB25
CRC копии 22BEEB25
Трек не обнаружен в базе AccurateRip
Копирование… OK

Трек 11

Имя файла C:\cuntfist\FLAC\Chicane - Far From The Maddening Crowds (1997) [FLAC] {Xtravaganza, Edel}\11 - The Drive Home.wav

Длина предзазора 0:00:01.57

Пиковый уровень 100.0 %
Скорость извлечения 4.2 X
Качество трека 100.0 %
CRC теста F6FA04B5
CRC копии F6FA04B5
Трек не обнаружен в базе AccurateRip
Копирование… OK

Ни одного трека нет в базе AccurateRip

Ошибок не произошло

Конец отчёта

–– CUETools DB Plugin V2.1.4

[CTDB TOCID: PRwn5F9gV33GBWyRNNliqqdkz9o-] found
Submit result: already submitted
Track | CTDB Status
1 | (1/1) Accurately ripped
2 | (1/1) Accurately ripped
3 | (1/1) Accurately ripped
4 | (1/1) Accurately ripped
5 | (1/1) Accurately ripped
6 | (1/1) Accurately ripped
7 | (1/1) Accurately ripped
8 | (1/1) Accurately ripped
9 | (1/1) Accurately ripped
10 | (1/1) Accurately ripped
11 | (1/1) Accurately ripped

==== Контрольная сумма отчёта 52891D5C8FFE6EE3A4B900536383DBA71760985673941E1253857FB0678C2F76 ====


Chicane - Far From The Maddening Crowds (1997) {Xtravaganza/Edel}


Thank you to the original uploader.