Subcategories

CUEPEEDOG - Beginning (2017) {coreKrave}

Posted By: TestTickles
CUEPEEDOG - Beginning (2017) {coreKrave}

CUEPEEDOG - Beginning (2017) {coreKrave}
EAC Rip | FLAC with CUE and LOG | scans | 321 mb
MP3 CBR 320 kbps | RAR | 144 mb
Genre: electronica, breakcore, jungle, drum n bass, juke

Beginning is the 2017 compact disc by Japanese electronica artist CUEPEEDOG. This was released by coreKrave.

CUEPEEDOG - Beginning (2017) {coreKrave}

01. Beginning (1:48)
02. 5AM (4:05)
03. Lost (3:15)
04. Do It (2:51)
05. Wasureta (1:26)
06. You (2:25)
07. Sax (2:24)
08. CUEPEEDOG & DJ.DAI - 5 (Blow Me) (3:48)
09. 5AM (*-Teris. Remix) (3:17)
10. 5AM (Monolith Slip Remix) (3:56)
11. 5AM (Captain Raveman Remix) (4:01)
12. 5AM (DJ.DAI Remix) (6:00)

All songs by CUEPEEDOG except track 8, done by CUEPEEDOG & DJ DAI

Track 9 remixed by *-Teris
Track 10 remixed by Monolith Slip
Track 11 remixed by Captain Raveman
Track 11 remixed by DJ DAI

Exact Audio Copy V1.3 from 2. September 2016

EAC extraction logfile from 20. May 2018, 7:24

CUEPEEDOG / Beginning

Used drive : ASUS DRW-24B1ST j Adapter: 1 ID: 0

Read mode : Secure
Utilize accurate stream : Yes
Defeat audio cache : Yes
Make use of C2 pointers : No

Read offset correction : 6
Overread into Lead-In and Lead-Out : No
Fill up missing offset samples with silence : Yes
Delete leading and trailing silent blocks : No
Null samples used in CRC calculations : Yes
Used interface : Native Win32 interface for Win NT & 2000
Gap handling : Appended to previous track

Used output format : User Defined Encoder
Selected bitrate : 32 kBit/s
Quality : High
Add ID3 tag : No
Command line compressor : C:\Program Files (x86)\Exact Audio Copy\Flac\flac.exe
Additional command line options : -8 -V -T "ARTIST=%artist%" -T "TITLE=%title%" -T "ALBUM=%albumtitle%" -T "DATE=%year%" -T "TRACKNUMBER=%tracknr%" -T "GENRE=%genre%" -T "PERFORMER=%composer%" -T "COMPOSER=%composer%" %haslyrics%–tag-from-file=LYRICS="%lyricsfile%"%haslyrics% -T "ALBUMARTIST=%albumartist%" -T "DISCNUMBER=%cdnumber%" -T "TOTALDISCS=%totalcds%" -T "TOTALTRACKS=%numtracks%" -T "COMMENT=%comment%" %source% -o %dest%

TOC of the extracted CD

Track | Start | Length | Start sector | End sector
––––––––––––––––––––––––––––-
1 | 0:00.00 | 1:48.00 | 0 | 8099
2 | 1:48.00 | 4:05.25 | 8100 | 26499
3 | 5:53.25 | 3:14.39 | 26500 | 41088
4 | 9:07.64 | 2:51.00 | 41089 | 53913
5 | 11:58.64 | 1:25.53 | 53914 | 60341
6 | 13:24.42 | 2:25.37 | 60342 | 71253
7 | 15:50.04 | 2:24.00 | 71254 | 82053
8 | 18:14.04 | 3:48.00 | 82054 | 99153
9 | 22:02.04 | 3:16.60 | 99154 | 113913
10 | 25:18.64 | 3:56.23 | 113914 | 131636
11 | 29:15.12 | 4:01.37 | 131637 | 149748
12 | 33:16.49 | 6:00.00 | 149749 | 176748


Track 1

Filename C:\cuntfist\FLAC\CUEPEEDOG - Beginning (2017) [FLAC] {coreKrave}\01 - Beginning.wav

Pre-gap length 0:00:02.00

Peak level 98.8 %
Extraction speed 4.5 X
Track quality 100.0 %
Test CRC 167D477E
Copy CRC 167D477E
Track not present in AccurateRip database
Copy OK

Track 2

Filename C:\cuntfist\FLAC\CUEPEEDOG - Beginning (2017) [FLAC] {coreKrave}\02 - 5AM.wav

Peak level 98.8 %
Extraction speed 4.8 X
Track quality 99.9 %
Test CRC C3B63CF5
Copy CRC C3B63CF5
Track not present in AccurateRip database
Copy OK

Track 3

Filename C:\cuntfist\FLAC\CUEPEEDOG - Beginning (2017) [FLAC] {coreKrave}\03 - Lost.wav

Peak level 98.8 %
Extraction speed 4.8 X
Track quality 99.9 %
Test CRC 9AC940DA
Copy CRC 9AC940DA
Track not present in AccurateRip database
Copy OK

Track 4

Filename C:\cuntfist\FLAC\CUEPEEDOG - Beginning (2017) [FLAC] {coreKrave}\04 - Do It.wav

Peak level 98.8 %
Extraction speed 4.9 X
Track quality 99.9 %
Test CRC 261BD615
Copy CRC 261BD615
Track not present in AccurateRip database
Copy OK

Track 5

Filename C:\cuntfist\FLAC\CUEPEEDOG - Beginning (2017) [FLAC] {coreKrave}\05 - Wasureta.wav

Peak level 98.8 %
Extraction speed 5.5 X
Track quality 100.0 %
Test CRC 2265A6D1
Copy CRC 2265A6D1
Track not present in AccurateRip database
Copy OK

Track 6

Filename C:\cuntfist\FLAC\CUEPEEDOG - Beginning (2017) [FLAC] {coreKrave}\06 - You.wav

Peak level 98.8 %
Extraction speed 6.6 X
Track quality 100.0 %
Test CRC 4B478CBA
Copy CRC 4B478CBA
Track not present in AccurateRip database
Copy OK

Track 7

Filename C:\cuntfist\FLAC\CUEPEEDOG - Beginning (2017) [FLAC] {coreKrave}\07 - Sax.wav

Peak level 98.8 %
Extraction speed 6.8 X
Track quality 100.0 %
Test CRC 154D6068
Copy CRC 154D6068
Track not present in AccurateRip database
Copy OK

Track 8

Filename C:\cuntfist\FLAC\CUEPEEDOG - Beginning (2017) [FLAC] {coreKrave}\08 - 5 (Blow Me).wav

Peak level 100.0 %
Extraction speed 7.6 X
Track quality 100.0 %
Test CRC E72F96EA
Copy CRC E72F96EA
Track not present in AccurateRip database
Copy OK

Track 9

Filename C:\cuntfist\FLAC\CUEPEEDOG - Beginning (2017) [FLAC] {coreKrave}\09 - 5AM (*-Teris - Remix).wav

Peak level 98.8 %
Extraction speed 7.8 X
Track quality 100.0 %
Test CRC 4E9AF29E
Copy CRC 4E9AF29E
Track not present in AccurateRip database
Copy OK

Track 10

Filename C:\cuntfist\FLAC\CUEPEEDOG - Beginning (2017) [FLAC] {coreKrave}\10 - 5AM (Monolith Slip Remix).wav

Peak level 97.1 %
Extraction speed 8.4 X
Track quality 100.0 %
Test CRC 8C33FD81
Copy CRC 8C33FD81
Track not present in AccurateRip database
Copy OK

Track 11

Filename C:\cuntfist\FLAC\CUEPEEDOG - Beginning (2017) [FLAC] {coreKrave}\11 - 5AM (Captain Raveman Remix).wav

Peak level 98.8 %
Extraction speed 8.8 X
Track quality 100.0 %
Test CRC D9FB1CAA
Copy CRC D9FB1CAA
Track not present in AccurateRip database
Copy OK

Track 12

Filename C:\cuntfist\FLAC\CUEPEEDOG - Beginning (2017) [FLAC] {coreKrave}\12 - 5AM (DJ.DAI Remix).wav

Peak level 95.3 %
Extraction speed 9.6 X
Track quality 100.0 %
Test CRC 6A62385B
Copy CRC 6A62385B
Track not present in AccurateRip database
Copy OK


None of the tracks are present in the AccurateRip database

No errors occurred

End of status report

–– CUETools DB Plugin V2.1.6

[CTDB TOCID: 696eTPwkjC5epkBrdvXgplexfB4-] found
Submit result: 696eTPwkjC5epkBrdvXgplexfB4- has been confirmed
Track | CTDB Status
1 | (2/2) Accurately ripped
2 | (2/2) Accurately ripped
3 | (2/2) Accurately ripped
4 | (2/2) Accurately ripped
5 | (2/2) Accurately ripped
6 | (2/2) Accurately ripped
7 | (2/2) Accurately ripped
8 | (2/2) Accurately ripped
9 | (2/2) Accurately ripped
10 | (2/2) Accurately ripped
11 | (2/2) Accurately ripped
12 | (2/2) Accurately ripped


==== Log checksum 7E4C3B55A7DCC5909729D5D61D297A7B68DBD7022FDB4E895810FF2FC9DE0E63 ====


CUEPEEDOG - Beginning (2017) {coreKrave}


Thank you to the original uploader.