Tags
Language
Tags

Cal Tjader - Soul Sauce (1965) [Reissue 1994]

Posted By: gribovar
Cal Tjader - Soul Sauce (1965) [Reissue 1994]

Cal Tjader - Soul Sauce (1965) [Reissue 1994]
EAC Rip | WavPack (image+.cue+log) - 327 MB | Covers - 21 MB
Genre: Latin Jazz | RAR 3% Rec. | Label: Verve (314 521 668-2)

Soul Sauce is one of the highlights from Tjader's catalog with its appealing mixture of mambo, samba, bolero, and boogaloo styles. Tjader's core band - long-time piano player Lonnie Hewitt, drummer Johnny Rae and percussionist's Willie Bobo and Armando Peraza - starts things off with a cooled down version of Dizzy Gillespie and Chano Pozo's latin jazz classic "Guachi Guaro (Soul Sauce)". With the help of guitarist Kenny Burrell, trumpeter Donald Byrd, and tenor saxophonist Jimmy Heath they offer up a lively version of Mongo Santamaria's "Afro Blue." Sticking to his music's "Mambo Without a Migraine" reputation, though, Tjader's musicians keep things fairly calm, especially on Latinized ballads such as Billy May's "Somewhere In the Night" and on midtempo swingers like "Tanya." On Soul Sauce Tjader had perfected a middle ground between the brisk, collegiate mambo of his early Fantasy records and the mood-heavy sound of Asian themed albums like Breeze From the East. In the process, he dodged the "Latin lounge" label with an album full of smart arrangements, subtly provocative vibe solos, and intricate percussion backing.
Tracklist:
01. Soul Sauce (Guachi Guaro)
02. Afro Blue
03. Pantano
04. Somewhere In The Night
05. Maramoor Mambo
06. Tanya
07. Leyte
08. Spring Is Here
09. Joao
10. Soul Sauce (Guachi Guaro) (rough mix)
11. Monkey Beams
12. Ming
13. Mamblues

Total time: 58:30

Exact Audio Copy V0.99 prebeta 4 from 23. January 2008

EAC extraction logfile from 26. August 2009, 15:10

Cal Tjader / Soul Sauce

Used drive : HL-DT-STDVD-RAM GH22NP20 Adapter: 1 ID: 1

Read mode : Secure
Utilize accurate stream : Yes
Defeat audio cache : Yes
Make use of C2 pointers : No

Read offset correction : 102
Overread into Lead-In and Lead-Out : No
Fill up missing offset samples with silence : Yes
Delete leading and trailing silent blocks : No
Null samples used in CRC calculations : Yes
Used interface : Installed external ASPI interface

Used output format : Internal WAV Routines
Sample format : 44.100 Hz; 16 Bit; Stereo
Use compression offset : 102


TOC of the extracted CD

Track | Start | Length | Start sector | End sector
––––––––––––––––––––––––––––-
1 | 0:00.00 | 2:27.20 | 0 | 11044
2 | 2:27.20 | 4:30.08 | 11045 | 31302
3 | 6:57.28 | 3:38.17 | 31303 | 47669
4 | 10:35.45 | 3:16.43 | 47670 | 62412
5 | 13:52.13 | 4:03.17 | 62413 | 80654
6 | 17:55.30 | 5:30.70 | 80655 | 105474
7 | 23:26.25 | 5:21.18 | 105475 | 129567
8 | 28:47.43 | 4:03.20 | 129568 | 147812
9 | 32:50.63 | 4:52.47 | 147813 | 169759
10 | 37:43.35 | 2:32.53 | 169760 | 181212
11 | 40:16.13 | 5:42.47 | 181213 | 206909
12 | 45:58.60 | 8:42.33 | 206910 | 246092
13 | 54:41.18 | 3:48.65 | 246093 | 263257


Range status and errors

Selected range

Filename C:\Documents and Settings\Proprietario.RT\Desktop\R\AAAA TO EAC\Cal Tjader - Soul Sauce\Cal Tjader - Soul Sauce.wav

Peak level 93.7 %
Range quality 100.0 %
Test CRC 775C1774
Copy CRC 775C1774
Copy OK

No errors occurred

End of status report

[CUETools log; Date: 31.01.2019 21:50:44; Version: 2.1.4]
[CTDB TOCID: FegfHo.dmp8N1n7VY_DCKKmycek-] found.
Track | CTDB Status
1 | (10/12) Accurately ripped
2 | (10/12) Accurately ripped
3 | (10/12) Accurately ripped
4 | (10/12) Accurately ripped
5 | (10/12) Accurately ripped
6 | (12/12) Accurately ripped
7 | (12/12) Accurately ripped
8 | (12/12) Accurately ripped
9 | (12/12) Accurately ripped
10 | (10/12) Accurately ripped
11 | (10/12) Accurately ripped
12 | (10/12) Accurately ripped
13 | (10/12) Accurately ripped
[AccurateRip ID: 0019aee8-01077771-bc0db60d] found.
Track [ CRC | V2 ] Status
01 [0a821495|c4637b9e] (05+04/13) Accurately ripped
02 [be508c21|46743934] (06+04/14) Accurately ripped
03 [18a53a84|29de46e3] (06+04/14) Accurately ripped
04 [1f539d00|5186dddb] (06+04/14) Accurately ripped
05 [d87b1d58|54e92cdd] (06+04/14) Accurately ripped
06 [38230ca5|f65715a1] (06+04/14) Accurately ripped
07 [3c280b69|2404b55f] (06+04/14) Accurately ripped
08 [90c71b8a|7fd56f46] (06+04/14) Accurately ripped
09 [26bd4a78|49b64f7e] (06+04/14) Accurately ripped
10 [ba303147|61f5bdbd] (06+04/14) Accurately ripped
11 [5191ace4|00a57417] (06+04/14) Accurately ripped
12 [c059ba4f|28972e60] (06+04/14) Accurately ripped
13 [02975489|b97c2fc7] (06+04/15) Accurately ripped
Offsetted by -1098:
01 [32e12e41] (00/13) No match (V2 was not tested)
02 [67d1bff1] (00/14) No match (V2 was not tested)
03 [86dc9e54] (00/14) No match (V2 was not tested)
04 [f6169976] (00/14) No match (V2 was not tested)
05 [919d51e6] (00/14) No match (V2 was not tested)
06 [54df2f93] (00/14) No match (V2 was not tested)
07 [ce51a1fb] (00/14) No match (V2 was not tested)
08 [9b95c77a] (00/14) No match (V2 was not tested)
09 [89657d78] (00/14) No match (V2 was not tested)
10 [2e46d1eb] (00/14) No match (V2 was not tested)
11 [93c1062c] (00/14) No match (V2 was not tested)
12 [d82abd0f] (00/14) No match (V2 was not tested)
13 [3bdefa33] (00/15) No match (V2 was not tested)

Track Peak [ CRC32 ] [W/O NULL] [ LOG ]
– 93,7 [775C1774] [A29A7B79] CRC32
01 93,7 [B1203FD4] [64F0E868]
02 73,6 [21B752C4] [69FB246D]
03 78,2 [6304D84D] [70B749C5]
04 89,3 [8B79B855] [7DED3823]
05 68,7 [8B5AFA39] [8BA01411]
06 87,6 [E810CE17] [BBB0579A]
07 83,4 [8255F207] [F6467EAA]
08 92,6 [313E39BA] [B28606E5]
09 85,8 [171E40F7] [64B03FAF]
10 65,1 [F371D80C] [AC20DF65]
11 65,7 [59D6B091] [F9170860]
12 92,6 [1199E074] [311888C2]
13 91,5 [FAA01E36] [40593B41]

Thanks to bINkI

See also:
Cal Tjader - Cal Tjader Plays ...d Brazil (1962) [Reissue 2008]
Cal Tjader - Solar Heat (1968) [Reissue 1994]