Tags
Language
Tags

Camel - The Snow Goose (Re-Recorded) (SHM-CD, Japan Reissue, 2014)

Posted By: JET 1
Camel - The Snow Goose (Re-Recorded) (SHM-CD, Japan Reissue, 2014)

Camel - The Snow Goose (Re-Recorded) (SHM-CD, Japan Reissue, 2014)
EAC Rip | FLAC (Image) +CUE, LOG | 653 MB | Scans
Genre: Art-Rock | Label: Belle Antique | Catalog Number: BELLE 142285-6

Camel's classic period started with The Snow Goose, an instrumental concept album based on a novella by Paul Gallico. Although there are no lyrics on the album – two songs feature wordless vocals – the music follows the emotional arc of the novella's story, which is about a lonely man named Rhayader who helps nurse a wounded snow goose back to health with the help of a young girl called Fritha he recently befriended. Once the goose is healed, it is set free, but Fritha no longer visits the man because the goose is gone. Later, Rhayader is killed in battle during the evacuation of Dunkirk. The goose returned during the battle, and it is then named La Princesse Perdue, symbolizing the hopes that can still survive even during the evils of war. With such a complex fable to tell, it is no surprise that Camel keep their improvisational tendencies reined in, deciding to concentrate on surging, intricate soundscapes that telegraph the emotion of the piece without a single word. And even though The Snow Goose is an instrumental album, it is far more accessible than some of Camel's later work, since it relies on beautiful sonic textures instead of musical experimentation.

Exact Audio Copy V1.0 beta 3 from 29. August 2011

EAC extraction logfile from 2. August 2015, 23:37

Camel / The Snow Goose 2013 (Japan Reissue 2014) CD 1

Used drive : Optiarc DVD RW AD-7260S Adapter: 1 ID: 1

Read mode : Secure
Utilize accurate stream : Yes
Defeat audio cache : Yes
Make use of C2 pointers : No

Read offset correction : 48
Overread into Lead-In and Lead-Out : No
Fill up missing offset samples with silence : Yes
Delete leading and trailing silent blocks : No
Null samples used in CRC calculations : Yes
Used interface : Native Win32 interface for Win NT & 2000

Used output format : Internal WAV Routines
Sample format : 44.100 Hz; 16 Bit; Stereo


TOC of the extracted CD

Track | Start | Length | Start sector | End sector
––––––––––––––––––––––––––––-
1 | 0:00.00 | 2:08.67 | 0 | 9666
2 | 2:08.67 | 3:06.36 | 9667 | 23652
3 | 5:15.28 | 5:27.58 | 23653 | 48235
4 | 10:43.11 | 2:57.01 | 48236 | 61511
5 | 13:40.12 | 1:27.05 | 61512 | 68041
6 | 15:07.17 | 3:02.15 | 68042 | 81706
7 | 18:09.32 | 1:49.56 | 81707 | 89937
8 | 19:59.13 | 4:29.37 | 89938 | 110149
9 | 24:28.50 | 3:24.20 | 110150 | 125469
10 | 27:52.70 | 2:26.50 | 125470 | 136469
11 | 30:19.45 | 3:54.12 | 136470 | 154031
12 | 34:13.57 | 5:39.19 | 154032 | 179475
13 | 39:53.01 | 1:32.37 | 179476 | 186412
14 | 41:25.38 | 1:47.02 | 186413 | 194439
15 | 43:12.40 | 5:18.28 | 194440 | 218317
16 | 48:30.68 | 1:34.50 | 218318 | 225417


Range status and errors

Selected range

Filename C:\Мои документы\Camel - 2013 - The Snow Goose 2013 (Japan Reissue 2014) CD 1.wav

Peak level 100.0 %
Extraction speed 1.4 X
Range quality 99.9 %
Test CRC 17680EA7
Copy CRC 17680EA7
Copy OK

No errors occurred


AccurateRip summary

Track 1 accurately ripped (confidence 4) [18465352] (AR v2)
Track 2 accurately ripped (confidence 4) [A4BD064C] (AR v2)
Track 3 accurately ripped (confidence 4) [7AD57FA3] (AR v2)
Track 4 accurately ripped (confidence 4) [BEAE8E6F] (AR v2)
Track 5 accurately ripped (confidence 4) [27DFA86D] (AR v2)
Track 6 accurately ripped (confidence 4) [164ED355] (AR v2)
Track 7 accurately ripped (confidence 4) [EB5C2893] (AR v2)
Track 8 accurately ripped (confidence 4) [94995E32] (AR v2)
Track 9 accurately ripped (confidence 4) [6B143E56] (AR v2)
Track 10 accurately ripped (confidence 4) [3D62694E] (AR v2)
Track 11 accurately ripped (confidence 4) [61359854] (AR v2)
Track 12 accurately ripped (confidence 4) [C7A70B57] (AR v2)
Track 13 accurately ripped (confidence 4) [BA6B201B] (AR v2)
Track 14 accurately ripped (confidence 4) [182FE6C7] (AR v2)
Track 15 accurately ripped (confidence 4) [9DC3CEB6] (AR v2)
Track 16 accurately ripped (confidence 4) [0759B37F] (AR v2)

All tracks accurately ripped

End of status report

–– CUETools DB Plugin V2.1.4

[CTDB TOCID: xEpO2BUc.zNggOxZf8nDFOKJKtg-] found
Submit result: xEpO2BUc.zNggOxZf8nDFOKJKtg- has been confirmed
Track | CTDB Status
1 | (26/26) Accurately ripped
2 | (26/26) Accurately ripped
3 | (26/26) Accurately ripped
4 | (26/26) Accurately ripped
5 | (26/26) Accurately ripped
6 | (26/26) Accurately ripped
7 | (26/26) Accurately ripped
8 | (26/26) Accurately ripped
9 | (26/26) Accurately ripped
10 | (26/26) Accurately ripped
11 | (26/26) Accurately ripped
12 | (26/26) Accurately ripped
13 | (26/26) Accurately ripped
14 | (26/26) Accurately ripped
15 | (26/26) Accurately ripped
16 | (26/26) Accurately ripped


==== Log checksum 06DD04BB3970EA027063A97AF568CE2947519FAF35D5FCC66DD4629EDD7CEE53 ====

Exact Audio Copy V1.0 beta 3 from 29. August 2011

EAC extraction logfile from 3. August 2015, 0:56

Camel / The Snow Goose 2013 (Japan Reissue 2014) CD 2

Used drive : Optiarc DVD RW AD-7260S Adapter: 1 ID: 1

Read mode : Secure
Utilize accurate stream : Yes
Defeat audio cache : Yes
Make use of C2 pointers : No

Read offset correction : 48
Overread into Lead-In and Lead-Out : No
Fill up missing offset samples with silence : Yes
Delete leading and trailing silent blocks : No
Null samples used in CRC calculations : Yes
Used interface : Native Win32 interface for Win NT & 2000

Used output format : Internal WAV Routines
Sample format : 44.100 Hz; 16 Bit; Stereo


TOC of the extracted CD

Track | Start | Length | Start sector | End sector
––––––––––––––––––––––––––––-
1 | 0:00.00 | 1:59.02 | 0 | 8926
2 | 1:59.02 | 3:05.15 | 8927 | 22816
3 | 5:04.17 | 5:14.58 | 22817 | 46424
4 | 10:19.00 | 3:04.04 | 46425 | 60228
5 | 13:23.04 | 1:33.26 | 60229 | 67229
6 | 14:56.30 | 3:07.20 | 67230 | 81274
7 | 18:03.50 | 1:54.18 | 81275 | 89842
8 | 19:57.68 | 3:28.57 | 89843 | 105499
9 | 23:26.50 | 4:01.17 | 105500 | 123591
10 | 27:27.67 | 2:09.30 | 123592 | 133296
11 | 29:37.22 | 3:40.22 | 133297 | 149818
12 | 33:17.44 | 5:59.07 | 149819 | 176750
13 | 39:16.51 | 1:28.30 | 176751 | 183380
14 | 40:45.06 | 1:41.10 | 183381 | 190965
15 | 42:26.16 | 4:55.52 | 190966 | 213142
16 | 47:21.68 | 2:36.68 | 213143 | 224910


Range status and errors

Selected range

Filename C:\Мои документы\Camel - 2013 - The Snow Goose 2013 (Japan Reissue 2014) CD 2.wav

Peak level 100.0 %
Extraction speed 1.1 X
Range quality 100.0 %
Test CRC D782AF32
Copy CRC D782AF32
Copy OK

No errors occurred


AccurateRip summary

Track 1 cannot be verified as accurate (confidence 3) [99FC8664], AccurateRip returned [EBB348CA] (AR v2)
Track 2 cannot be verified as accurate (confidence 3) [9639F641], AccurateRip returned [979046CE] (AR v2)
Track 3 cannot be verified as accurate (confidence 3) [D83482CC], AccurateRip returned [B4777F2B] (AR v2)
Track 4 cannot be verified as accurate (confidence 3) [3FBCC95B], AccurateRip returned [4338BBC1] (AR v2)
Track 5 cannot be verified as accurate (confidence 3) [F841C8FA], AccurateRip returned [A757B689] (AR v2)
Track 6 cannot be verified as accurate (confidence 3) [052C9D43], AccurateRip returned [4DEC4A86] (AR v2)
Track 7 cannot be verified as accurate (confidence 3) [C3CF162D], AccurateRip returned [6B3A051A] (AR v2)
Track 8 cannot be verified as accurate (confidence 3) [822728C4], AccurateRip returned [F4DDA625] (AR v2)
Track 9 cannot be verified as accurate (confidence 3) [CA298397], AccurateRip returned [B580B2E6] (AR v2)
Track 10 cannot be verified as accurate (confidence 3) [57CF91E3], AccurateRip returned [E0D1343D] (AR v2)
Track 11 cannot be verified as accurate (confidence 3) [A441102A], AccurateRip returned [0D185138] (AR v2)
Track 12 cannot be verified as accurate (confidence 3) [18952B24], AccurateRip returned [1534F5B4] (AR v2)
Track 13 cannot be verified as accurate (confidence 3) [DB10F90D], AccurateRip returned [6DA78658] (AR v2)
Track 14 cannot be verified as accurate (confidence 3) [45E31273], AccurateRip returned [A538FF7D] (AR v2)
Track 15 cannot be verified as accurate (confidence 3) [AF535C23], AccurateRip returned [22C0CF65] (AR v2)
Track 16 cannot be verified as accurate (confidence 3) [DAB3A7F8], AccurateRip returned [E37FC6B8] (AR v2)

No tracks could be verified as accurate
You may have a different pressing from the one(s) in the database

End of status report

–– CUETools DB Plugin V2.1.4

[CTDB TOCID: eGh2DJ3rhRnxrzVc9C1JlQH3AO0-] found
Submit result: eGh2DJ3rhRnxrzVc9C1JlQH3AO0- has been confirmed
Track | CTDB Status
1 | (5/5) Accurately ripped
2 | (5/5) Accurately ripped
3 | (5/5) Accurately ripped
4 | (5/5) Accurately ripped
5 | (5/5) Accurately ripped
6 | (5/5) Accurately ripped
7 | (5/5) Accurately ripped
8 | (5/5) Accurately ripped
9 | (5/5) Accurately ripped
10 | (5/5) Accurately ripped
11 | (5/5) Accurately ripped
12 | (5/5) Accurately ripped
13 | (5/5) Accurately ripped
14 | (5/5) Accurately ripped
15 | (5/5) Accurately ripped
16 | (5/5) Accurately ripped


==== Log checksum 0A761C1622266DDC2F2F8E23F62776A2EDFFF2C39AB2A2AF69731736FB6A3747 ====

Tracklist :::
CD 1 - 2013 Re-recorded Studio Version
01. The Great Marsh
02. Rhayadar
03. Rhayadar Goes To Town
04. Sanctuary [revised edition])
05. Fritha
06. Snow Goose
07. Friendship
08. Migration [revised edition]
09. Rhayadar Alone [revised edition]
10. Flight Of The Snow Goose
11. Preparation
12. Dunkirk
13. Epitaph [revised edition]
14. Fritha Alone
15. Princesse Perdue
16. The Great Marsh

CD 2 - Live Version October 28, 2013
01. The Great Marsh
02. Rhayadar
03. Rhayadar Goes To Town
04. Sanctuary [revised edition])
05. Fritha
06. Snow Goose
07. Friendship
08. Migration [revised edition]
09. Rhayadar Alone [revised edition]
10. Flight Of The Snow Goose
11. Preparation
12. Dunkirk
13. Epitaph [revised edition]
14. Fritha Alone
15. Princesse Perdue
16. The Great Marshklist

Thanks to Original Re-leaser.