Tags
Language
Tags
June 2024
Su Mo Tu We Th Fr Sa
26 27 28 29 30 31 1
2 3 4 5 6 7 8
9 10 11 12 13 14 15
16 17 18 19 20 21 22
23 24 25 26 27 28 29
30 1 2 3 4 5 6

Camera Soul - Dress Code (2015)

Posted By: popsakov
Camera Soul - Dress Code (2015)

Camera Soul - Dress Code (2015)
EAC Rip | FLAC (Img) + Cue + Log ~ 405 Mb | MP3 CBR320 ~ 130 Mb
Full Scans ~ 70 Mb | 00:53:56 | RAR 5% Recovery
Jazz-Funk, R&B | Azzurra Music #TRI1211

Camera Soul continues to thrill fans of jazz-funk and neo-soul with their third stellar studio album, 'Dress Code'! Maria Enrica Lotesoriere, lead vocalist and co-composer of Camera Soul: "To receive the call of the Lombardo Brothers with the request to become the new voice of Camera Soul was like touching the realization of a dream I had always; to make the music that I've always loved [and] to work with some of the best jazz-soul musicians on the Italian scene. It is from this life-long dream, shared with great artists, but especially great souls, that 'Dress Code' was born. We worked hard and long to put in this, our third album, every single part of us, our path, and our maturity. Because the songs are like clothes, tailored for those who compose, but also for the listener. These songs today are our best clothes, those we have chosen to wear. This is our way of dressing the soul of our listeners."

About Camera Soul:

Camera Soul is a powerful jazz-funk ensemble, produced by Mr. Marco Rossi of Azzurra Music (Verona) and released in the United States and Canada by Kathryn Ballard Shut of TIMKAT Entertainment (Denver, Colorado). Inspired by legendary horn line, soul, R&B, and jazz-fusion artists such as Earth, Wind and Fire, The Commodores, Tower of Power, and Stevie Wonder, as well as neo-soul grooves by Erykah Badu and Jamiroquai, the group is based out of southern Italy (Bari), and led by veteran composer-arrangers, brothers Piero and Pippo Lombardo. Camera Soul’s distinctive sound was first defined by the smoky and soulful voices of lead vocalist, Serena Brancale, on the group's first two albums ('Words Don't Speak' in 2011 and 'Not For Ordinary People' in 2013), and currently by Maria Enrica Lotesoriere (live concerts & new album 'Dress Code' in 2014).

The group features a world-class lineup of studio and live performance musicians, including Pippo Lombardo (piano), Beppe Sequestro (bass), Francesco Palmitessa (lead guitar), Gianluca Cardellichio (rhythm guitar), Liviana Ferri (percussion), Fabio Delle Foglie (drums, 2014) / Mimmo Campanale (drums, 2011-2013), Daniele Scannapieco and Bruno Tassone (saxes), Gianfranco Campagnoli (trumpet and flugelhorn); Elio Arcieri and Piero Dotti (background vocals). On album 'Not For Ordinary People', the Brothers Lombardo also led a stellar global songwriting team; together with their compositions, they welcomed original music and lyrics from Serena Brancale and Denver-based jazz pianist and ASCAP composer, Kathryn Ballard Shut.

Camera Soul has released three albums – Words Don’t Speak (2011), Not For Ordinary People (2013), and now, Dress Code (2015). Each album delivers powerful jazz-funk, neo-soul, progressive Jazz, and a mixture of genres that have earned the group critical acclaim.

In 2013, "Not For Ordinary People" was submitted in a stunning 11 categories in 4 major fields to the prestigious Recording Academy ("Grammy") and several selections from the album topped several United Kingdom radio show countdowns as one of the "Best of 2013". The album also reached #2 on the UK Soul Chart and remained there for two weeks, unable to top the legendary Earth, Wind, and Fire, who had just released 'Now, Then, and Forever' during the same period. 'Not For Ordinary People' nevertheless remained on the Top 30 for 15 weeks and continues in rotation on quality Internet radio stations worldwide.

About the Brothers Lombardo:

Lifelong lovers of jazz, R&B and soul, the Brothers Lombardo are the fuel behind Camera Soul’s tremendous sound. Prior to writing for Camera Soul, both Piero (guitarist) and Pippo (pianist/horn arranger) created masterpieces on several albums over the course of a decade for Latin Jazz group Marchio Bossa. With the formation of Camera Soul in 2011, the brothers refined their writing style to reflect original songs that recall the Golden Age of 1970s and 1980s soul and funk.

In addition to writing for Camera Soul, pianist Pippo is extremely active on the worldwide live music circuit. Most recently, in 2013, Pippo toured Thailand and collaborated with House Music mixmaster Loris Conte to lend his excellent soloistic ideas to Conte’s hit, The Jazz Pianist (Ibiza 2013).

~ reverbnation.com
Camera Soul - Dress Code (2015)

Track List:

01. The Purpose [03:10]
02. Bring Me Back [03:13]
03. More and More [04:01]
04. This Rain [04:19]
05. Dress Code [03:51]
06. Push Play [04:01]
07. Glow [03:24]
08. You Think You Know About Love [04:27]
09. Eu Quero Sambar [04:01]
10. A Day With You [02:55]
11. The Colours of Music [03:55]
12. Around the World [04:52]
13. Scent of Wisteria [03:27]
14. Imperfect Rose [04:27]

Exact Audio Copy V1.0 beta 3 from 29. August 2011

Отчёт EAC об извлечении, выполненном 29. марта 2015, 19:05

Camera Soul / Dress Code

Дисковод: PLEXTOR DVDR PX-880SA Adapter: 1 ID: 0

Режим чтения : Достоверность
Использование точного потока : Да
Отключение кэша аудио : Да
Использование указателей C2 : Нет

Коррекция смещения при чтении : 6
Способность читать области Lead-in и Lead-out : Нет
Заполнение пропущенных сэмплов тишиной : Да
Удаление блоков с тишиной в начале и конце : Нет
При вычислениях CRC использовались нулевые сэмплы : Да
Интерфейс : Установленный внешний ASPI-интерфейс

Выходной формат : Пользовательский кодировщик
Выбранный битрейт : 1024 kBit/s
Качество : Высокий
Добавление ID3-тега : Нет
Утилита сжатия : C:\Program Files\Exact Audio Copy\FLAC\FLAC.EXE
Дополнительные параметры : -10 -V -T "ARTIST=%artist%" -T "ALBUM=%albumtitle%" -T "DATE=%year%" -T "GENRE=%genre%" -T "COMMENT=ripped by izia1956" %source%


TOC извлечённого CD

Трек | Старт | Длительность | Начальный сектор | Конечный сектор
––––––––––––––––––––––––––––––––––-
1 | 0:00.00 | 3:09.60 | 0 | 14234
2 | 3:09.60 | 3:12.45 | 14235 | 28679
3 | 6:22.30 | 4:00.22 | 28680 | 46701
4 | 10:22.52 | 4:18.05 | 46702 | 66056
5 | 14:40.57 | 3:50.71 | 66057 | 83377
6 | 18:31.53 | 4:00.01 | 83378 | 101378
7 | 22:31.54 | 3:23.12 | 101379 | 116615
8 | 25:54.66 | 4:26.56 | 116616 | 136621
9 | 30:21.47 | 4:00.56 | 136622 | 154677
10 | 34:22.28 | 2:54.42 | 154678 | 167769
11 | 37:16.70 | 3:54.16 | 167770 | 185335
12 | 41:11.11 | 4:51.66 | 185336 | 207226
13 | 46:03.02 | 3:26.43 | 207227 | 222719
14 | 49:29.45 | 4:26.16 | 222720 | 242685


Характеристики диапазона извлечения и сообщения об ошибках

Выбранный диапазон

Имя файла D:\BitComet\Camera Soul - Dress Code(2015)(flac)\Camera Soul - Dress Code.wav

Пиковый уровень 97.7 %
Скорость извлечения 2.9 X
Качество диапазона 100.0 %
CRC теста 3E2381B6
CRC копии 3E2381B6
Копирование… OK

Ошибок не произошло


AccurateRip: сводка

Трек 1 отсутствует в базе данных
Трек 2 отсутствует в базе данных
Трек 3 отсутствует в базе данных
Трек 4 отсутствует в базе данных
Трек 5 отсутствует в базе данных
Трек 6 отсутствует в базе данных
Трек 7 отсутствует в базе данных
Трек 8 отсутствует в базе данных
Трек 9 отсутствует в базе данных
Трек 10 отсутствует в базе данных
Трек 11 отсутствует в базе данных
Трек 12 отсутствует в базе данных
Трек 13 отсутствует в базе данных
Трек 14 отсутствует в базе данных

Ни одного трека нет в базе AccurateRip

Конец отчёта

==== Контрольная сумма отчёта BC7E553E861D5FEB082CEE199CF6744A7686381D890A39265BFCF18493967D89 ====

foobar2000 1.2.6 / Dynamic Range Meter 1.1.1
log date: 2015-04-06 21:20:30

––––––––––––––––––––––––––––––––––––––––
Analyzed: Camera Soul / Dress Code
––––––––––––––––––––––––––––––––––––––––

DR Peak RMS Duration Track
––––––––––––––––––––––––––––––––––––––––
DR9 -0.20 dB -10.64 dB 3:10 01-The Purpose
DR7 -0.20 dB -8.20 dB 3:13 02-Bring Me Back
DR8 -0.20 dB -10.19 dB 4:00 03-More and More
DR8 -0.20 dB -9.95 dB 4:18 04-This Rain
DR9 -0.20 dB -10.68 dB 3:51 05-Dress Code
DR8 -0.20 dB -9.65 dB 4:00 06-Push Play
DR9 -0.20 dB -11.24 dB 3:23 07-Glow
DR10 -0.20 dB -12.04 dB 4:27 08-You Think You Know About Love
DR8 -0.20 dB -9.76 dB 4:01 09-Eu Quero Sambar
DR7 -0.20 dB -8.63 dB 2:55 10-A Day With You
DR10 -0.20 dB -11.72 dB 3:54 11-The Colours of Music
DR7 -0.20 dB -8.89 dB 4:52 12-Around the World
DR8 -0.20 dB -9.82 dB 3:27 13-Scent of Wisteria
DR8 -0.20 dB -10.36 dB 4:26 14-Imperfect Rose
––––––––––––––––––––––––––––––––––––––––

Number of tracks: 14
Official DR value: DR8

Samplerate: 44100 Hz
Channels: 2
Bits per sample: 16
Bitrate: 997 kbps
Codec: FLAC
================================================================================

[CUETools log; Date: 06.04.2015 21:21:20; Version: 2.1.5]
[CTDB TOCID: p1fIRGrtcnUkNdR9I5bAapiWzFs-] disk not present in database.
[AccurateRip ID: 001b1206-0123068e-bd0ca30e] disk not present in database.

Track Peak [ CRC32 ] [W/O NULL] [ LOG ]
– 97,7 [3E2381B6] [67D1E2DF] CRC32
01 97,7 [F503E920] [50F5FAC1]
02 97,7 [F515EB0D] [8149DD96]
03 97,7 [8E85A43D] [24B8AEA2]
04 97,7 [67CF6A00] [EF66978C]
05 97,7 [E34CAD32] [D9924213]
06 97,7 [D77ACF3F] [6E0B1DEE]
07 97,7 [59B3B06B] [636D52B3]
08 97,7 [C2E9B387] [1351F3BC]
09 97,7 [5ED65D1E] [0D30E08C]
10 97,7 [8185EB0C] [16078892]
11 97,7 [8B32557A] [353CBEF6]
12 97,7 [C71A22BB] [63A6317E]
13 97,7 [8BA2FFEE] [83BE9C59]
14 97,7 [22C1B83A] [D411AE54]

Camera Soul - Dress Code (2015)


See also:

Camera Soul - Existence (2019)

All thanks go to izia1956

>>> My Blog <<<

DOWNLOAD: