Tags
Language
Tags

Carly Simon - Film Noir (1997) [Re-Up]

Posted By:
Carly Simon - Film Noir (1997) [Re-Up]

Carly Simon - Film Noir (1997)
EAC | FLAC | Tracks (Cue&Log) ~ 240 Mb | Mp3 (CBR320) ~ 101 Mb | Covers included
Vocal Pop, Vocal Jazz, Standarts | Label: Arista | # 07822-18984-2 | 00:42:48

For Carly Simon, Film Noir is a way to explore traditional pop classics. Using smoky saloon songs like "Ev'rytime We Say Goodbye" as a blueprint, Simon and producer Jimmy Webb create a seductive, intimate atmosphere. Simon's vocals aren't naturally suited to this material, but she acquits herself well, and the two duets – one with Webb and one with John Travolta ("Two Sleepy People") – are charming additions to an ingratiating album.

Review by Stephen Thomas Erlewine, Allmusic.com

Her third project of standards is also her strongest and most appealing. Focusing on songs from the classic "film noir" era of movies, Carly knows just when to make a song her own statement and when to play it straight. The dramatic "You Won't Forget Me" is given a traditional arrangement, but she takes Cole Porter's chestnut "Every Time We Say Goodbye," almost always performed as a ballad, and turns it into a 50's reminiscent, horn-laden gem with an insistent midtempo beat. "Spring Will Be a Little Late This Year," a duet with Jimmy Webb, is given a jolt to its piano and vocal arrangement with a surprising electric guitar solo. "Last Night When We Were Young" offers a perfect dose of sweet nostalgia, and Carly ingeniously weaves elements of her moody ballad "Haunting" (from her 1978 album "Boys in the Trees") into the intro for the ultimate mood piece, Johnny Mercer's "Laura." The project even inspired Carly to write her own classic song, the brilliant title track that gives new meaning to the escapism of the movies. In the wake of so many pop trends and gimmicks, it's refreshing to not only hear someone remember these classic songs, but to breath new and inventive artistic life into them as well.

Review by John Jones, Amazon.com

Carly Simon at Allmusic
Carly Simon Website
Carly Simon at Wiki

Tracklist:

01. You Won't Forget Me (2:53)
02. Ev'ry Time We Say Goodbye (4:36)
03. Lili Marlene (3:42)
04. Last Night When We Were Young (4:43)
05. Spring Will Be A Little Late This Year (3:36) with Jimmy Webb
06. Film Noir (3:36)
07. Laura (4:47)
08. I'm A Fool To Want You (3:34)
09. Fools Coda (1:14)
10. Two Sleepy People (3:39) with John Travolta
11. Don't Smoke In Bed (2:57)
12. Somewhere In The Night (3:30)


Exact Audio Copy V1.0 beta 3 from 29. August 2011

EAC extraction logfile from 12. July 2012, 8:03

Carly Simon / Film Noir

Used drive : HL-DT-STDVDRAM GSA-4163B Adapter: 1 ID: 0

Read mode : Secure
Utilize accurate stream : Yes
Defeat audio cache : Yes
Make use of C2 pointers : No

Read offset correction : 667
Overread into Lead-In and Lead-Out : No
Fill up missing offset samples with silence : Yes
Delete leading and trailing silent blocks : No
Null samples used in CRC calculations : Yes
Used interface : Native Win32 interface for Win NT & 2000
Gap handling : Appended to previous track

Used output format : User Defined Encoder
Selected bitrate : 1024 kBit/s
Quality : High
Add ID3 tag : Yes
Command line compressor : C:\Program Files\Exact Audio Copy\Flac\flac.exe
Additional command line options : -8 -V -T "ARTIST=%artist%" -T "TITLE=%title%" -T "ALBUM=%albumtitle%" -T "DATE=%year%" -T "TRACKNUMBER=%tracknr%" -T "GENRE=%genre%" -T "COMMENT=%comment%" -T "BAND=%albuminterpret%" -T "COMPOSER=%composer%" %haslyrics%–tag-from-file=LYRICS="%lyricsfile%"%haslyrics% -T "DISCNUMBER=%cdnumber%" -T "TOTALDISCS=%totalcds%" -T "TOTALTRACKS=%numtracks%" %hascover%–picture="%coverfile%"%hascover% %source% -o %dest%


TOC of the extracted CD

Track | Start | Length | Start sector | End sector
––––––––––––––––––––––––––––-
1 | 0:00.00 | 2:52.52 | 0 | 12951
2 | 2:52.52 | 4:35.48 | 12952 | 33624
3 | 7:28.25 | 3:42.15 | 33625 | 50289
4 | 11:10.40 | 4:43.37 | 50290 | 71551
5 | 15:54.02 | 3:36.23 | 71552 | 87774
6 | 19:30.25 | 3:36.07 | 87775 | 103981
7 | 23:06.32 | 4:47.05 | 103982 | 125511
8 | 27:53.37 | 3:34.35 | 125512 | 141596
9 | 31:27.72 | 1:14.08 | 141597 | 147154
10 | 32:42.05 | 3:39.17 | 147155 | 163596
11 | 36:21.22 | 2:56.55 | 163597 | 176851
12 | 39:18.02 | 3:29.63 | 176852 | 192589
13 | 45:19.65 | 26:06.57 | 203990 | 321496


Track 1

Filename C:\Exact Audio Copy\Carly Simon\Film Noir\01. You Won't Forget Me.wav

Pre-gap length 0:00:02.00

Peak level 99.8 %
Extraction speed 4.2 X
Track quality 100.0 %
Test CRC 8A5B783B
Copy CRC 8A5B783B
Accurately ripped (confidence 3) [03AC4072] (AR v1)
Copy OK

Track 2

Filename C:\Exact Audio Copy\Carly Simon\Film Noir\02. Ev'ry Time We Say Goodbye.wav

Pre-gap length 0:00:00.01

Peak level 99.8 %
Extraction speed 4.7 X
Track quality 100.0 %
Test CRC 1B6FB853
Copy CRC 1B6FB853
Accurately ripped (confidence 3) [1CCA05EB] (AR v1)
Copy OK

Track 3

Filename C:\Exact Audio Copy\Carly Simon\Film Noir\03. Lili Marlene.wav

Pre-gap length 0:00:00.01

Peak level 99.8 %
Extraction speed 5.2 X
Track quality 100.0 %
Test CRC F3E5891A
Copy CRC F3E5891A
Accurately ripped (confidence 3) [BC358B18] (AR v1)
Copy OK

Track 4

Filename C:\Exact Audio Copy\Carly Simon\Film Noir\04. Last Night When We Were Young.wav

Pre-gap length 0:00:00.01

Peak level 99.8 %
Extraction speed 5.1 X
Track quality 99.9 %
Test CRC BFB0B27B
Copy CRC BFB0B27B
Accurately ripped (confidence 3) [41F754FD] (AR v1)
Copy OK

Track 5

Filename C:\Exact Audio Copy\Carly Simon\Film Noir\05. Spring Will Be A Little Late This Year.wav

Pre-gap length 0:00:00.01

Peak level 93.2 %
Extraction speed 5.7 X
Track quality 100.0 %
Test CRC 6AC56138
Copy CRC 6AC56138
Accurately ripped (confidence 3) [1823861A] (AR v1)
Copy OK

Track 6

Filename C:\Exact Audio Copy\Carly Simon\Film Noir\06. Film Noir.wav

Pre-gap length 0:00:00.01

Peak level 99.8 %
Extraction speed 5.3 X
Track quality 99.9 %
Test CRC A59CBDC6
Copy CRC A59CBDC6
Accurately ripped (confidence 3) [6B8D53F6] (AR v1)
Copy OK

Track 7

Filename C:\Exact Audio Copy\Carly Simon\Film Noir\07. Laura.wav

Pre-gap length 0:00:00.01

Peak level 99.8 %
Extraction speed 6.3 X
Track quality 100.0 %
Test CRC 3C9BE3FA
Copy CRC 3C9BE3FA
Accurately ripped (confidence 3) [47B23040] (AR v1)
Copy OK

Track 8

Filename C:\Exact Audio Copy\Carly Simon\Film Noir\08. I'm A Fool To Want You.wav

Pre-gap length 0:00:00.02

Peak level 99.8 %
Extraction speed 5.1 X
Track quality 99.9 %
Test CRC 0B79D9FB
Copy CRC 0B79D9FB
Accurately ripped (confidence 3) [654617D5] (AR v1)
Copy OK

Track 9

Filename C:\Exact Audio Copy\Carly Simon\Film Noir\09. Fools Coda.wav

Pre-gap length 0:00:00.01

Peak level 99.8 %
Extraction speed 5.2 X
Track quality 100.0 %
Test CRC 1CC46892
Copy CRC 1CC46892
Accurately ripped (confidence 3) [8466B6F5] (AR v1)
Copy OK

Track 10

Filename C:\Exact Audio Copy\Carly Simon\Film Noir\10. Two Sleepy People.wav

Pre-gap length 0:00:00.01

Peak level 99.8 %
Extraction speed 6.5 X
Track quality 100.0 %
Test CRC C8FCA2CA
Copy CRC C8FCA2CA
Accurately ripped (confidence 3) [F3676971] (AR v1)
Copy OK

Track 11

Filename C:\Exact Audio Copy\Carly Simon\Film Noir\11. Don't Smoke In Bed.wav

Pre-gap length 0:00:00.02

Peak level 99.8 %
Extraction speed 6.6 X
Track quality 100.0 %
Test CRC 2C518052
Copy CRC 2C518052
Accurately ripped (confidence 3) [0BA02C57] (AR v1)
Copy OK

Track 12

Filename C:\Exact Audio Copy\Carly Simon\Film Noir\12. Somewhere In The Night.wav

Pre-gap length 0:00:00.01

Peak level 99.8 %
Extraction speed 6.1 X
Track quality 99.9 %
Test CRC D2A8BBB6
Copy CRC D2A8BBB6
Accurately ripped (confidence 3) [95987431] (AR v1)
Copy OK


All tracks accurately ripped

No errors occurred

End of status report

==== Log checksum 05331AFDEA226972E4F73F0531594B403AEF910A14707C5B8FFDF3E86F47E854 ====

[CUETools log; Date: 05.12.2018 12:13:51; Version: 2.1.4]
CD-Extra data track length 26:06:57.
[CTDB TOCID: 6LJYON_Ih68.r.cIUBNTTzbWqGI-] found.
Track | CTDB Status
1 | (116/117) Accurately ripped
2 | (111/117) Accurately ripped
3 | (110/117) Accurately ripped
4 | (103/117) Accurately ripped
5 | (109/117) Accurately ripped
6 | (116/117) Accurately ripped
7 | (115/117) Accurately ripped
8 | (112/117) Accurately ripped
9 | (112/117) Accurately ripped
10 | (108/117) Accurately ripped
11 | (104/117) Accurately ripped
12 | (110/117) Accurately ripped
[AccurateRip ID: 0015eae2-00d27107-bf10be0d] found.
Track [ CRC | V2 ] Status
01 [03ac4072|30eac481] (03+21/24) Accurately ripped
02 [1cca05eb|9a2bb4b0] (03+21/24) Accurately ripped
03 [bc358b18|64b4dfdd] (03+21/24) Accurately ripped
04 [41f754fd|417b3569] (03+21/24) Accurately ripped
05 [1823861a|877f7ed7] (03+21/24) Accurately ripped
06 [6b8d53f6|cc55feac] (03+20/23) Accurately ripped
07 [47b23040|6aa09e49] (03+21/24) Accurately ripped
08 [654617d5|19860352] (03+21/24) Accurately ripped
09 [8466b6f5|9cf7fcde] (03+21/24) Accurately ripped
10 [f3676971|e2048817] (03+21/24) Accurately ripped
11 [0ba02c57|afd295f6] (03+22/25) Accurately ripped
12 [95987431|77cdaa09] (03+22/25) Accurately ripped
Offsetted by -1825:
01 [00658c66] (00/24) No match
02 [f90ca8d5] (00/24) No match (V2 was not tested)
03 [4d099b5f] (00/24) No match
04 [0f2c00d2] (00/24) No match (V2 was not tested)
05 [2baa6a25] (00/24) No match (V2 was not tested)
06 [ee156e7e] (00/23) No match (V2 was not tested)
07 [25daf6d2] (00/24) No match (V2 was not tested)
08 [18cd1f67] (00/24) No match
09 [4e46cc6c] (00/24) No match
10 [efe2a150] (00/24) No match
11 [69f46869] (00/25) No match
12 [80421720] (00/25) No match (V2 was not tested)
Offsetted by -1824:
01 [c5a23e46] (00/24) No match (V2 was not tested)
02 [1e3e5ece] (00/24) No match
03 [3c284655] (00/24) No match
04 [aff69456] (00/24) No match
05 [a31df261] (00/24) No match
06 [fd774359] (00/23) No match
07 [af1726b8] (00/24) No match
08 [4c61e80e] (00/24) No match
09 [92a8a5ba] (00/24) No match (V2 was not tested)
10 [c7d7dbc8] (00/24) No match (V2 was not tested)
11 [c9371bd1] (00/25) No match
12 [a8a05d71] (00/25) No match
Offsetted by -1822:
01 [4fa76ce6] (00/24) No match
02 [695b460f] (00/24) No match
03 [acffb1f0] (00/24) No match (V2 was not tested)
04 [b5b3bb5d] (00/24) No match
05 [917374a5] (00/24) No match
06 [98519e8f] (00/23) No match
07 [e1b18b80] (00/24) No match
08 [b38b795b] (00/24) No match
09 [6079cdb7] (00/24) No match
10 [76f850ff] (00/24) No match
11 [514c2408] (00/25) No match
12 [a9896445] (00/25) No match
Offsetted by -1820:
01 [d9aca702] (00/24) No match
02 [b531a89b] (00/24) No match
03 [1dd61d8b] (00/24) No match
04 [f5ca5a13] (00/24) No match
05 [7fcaf6ea] (00/24) No match
06 [203b4d30] (00/23) No match
07 [d7d7cb54] (00/24) No match
08 [c85a6830] (00/24) No match (V2 was not tested)
09 [2f11175b] (00/24) No match
10 [aa58c688] (00/24) No match
11 [eb5e5216] (00/25) No match
12 [d3306b19] (00/25) No match
Offsetted by -1807:
01 [5a339cb2] (00/24) No match
02 [974e328f] (00/24) No match
03 [9c504e2c] (00/24) No match
04 [6bb81398] (00/24) No match
05 [c8f353c1] (00/24) No match
06 [e46507f4] (00/23) No match
07 [ec0ab750] (00/24) No match
08 [abdc98a5] (00/24) No match
09 [67779c27] (00/24) No match
10 [88cebd2c] (00/24) No match
11 [c393bb3f] (00/25) No match (V2 was not tested)
12 [32b40e91] (00/25) No match

Track Peak [ CRC32 ] [W/O NULL] [ LOG ]
– 99,8 [16857457] [3225A4D0]
01 99,8 [8A5B783B] [A613A707] CRC32
02 99,8 [1B6FB853] [41B86974] CRC32
03 99,8 [F3E5891A] [0A8831FD] CRC32
04 99,8 [BFB0B27B] [D8D10816] CRC32
05 93,2 [6AC56138] [2096EFF9] CRC32
06 99,8 [A59CBDC6] [D9BC29AC] CRC32
07 99,8 [3C9BE3FA] [86457C85] CRC32
08 99,8 [0B79D9FB] [9C8D15FF] CRC32
09 99,8 [1CC46892] [489B0A82] CRC32
10 99,8 [C8FCA2CA] [3F69FD2D] CRC32
11 99,8 [2C518052] [226D976D] CRC32
12 99,8 [D2A8BBB6] [A5AE3F69] CRC32

foobar2000 1.2 / Dynamic Range Meter 1.1.1
log date: 2018-12-05 12:11:28

––––––––––––––––––––––––––––––––––––––––
Analyzed: Carly Simon / Film Noir
––––––––––––––––––––––––––––––––––––––––

DR Peak RMS Duration Track
––––––––––––––––––––––––––––––––––––––––
DR10 -0.01 dB -14.03 dB 2:53 01-You Won't Forget Me
DR8 -0.01 dB -10.53 dB 4:36 02-Ev'ry Time We Say Goodbye
DR11 -0.01 dB -14.30 dB 3:42 03-Lili Marlene
DR10 -0.01 dB -13.12 dB 4:43 04-Last Night When We Were Young
DR12 -0.61 dB -15.82 dB 3:36 05-Spring Will Be A Little Late This Year
DR8 -0.01 dB -12.73 dB 3:36 06-Film Noir
DR9 -0.01 dB -13.77 dB 4:47 07-Laura
DR9 -0.01 dB -13.01 dB 3:34 08-I'm A Fool To Want You
DR9 -0.01 dB -14.04 dB 1:14 09-Fools Coda
DR9 -0.01 dB -14.04 dB 3:39 10-Two Sleepy People
DR9 -0.01 dB -12.77 dB 2:57 11-Don't Smoke In Bed
DR10 -0.01 dB -13.33 dB 3:30 12-Somewhere In The Night
––––––––––––––––––––––––––––––––––––––––

Number of tracks: 12
Official DR value: DR9

Samplerate: 44100 Hz
Channels: 2
Bits per sample: 16
Bitrate: 767 kbps
Codec: FLAC
================================================================================

Carly Simon - Film Noir (1997) [Re-Up]