Tags
Language
Tags

Celtic Frost - Vanity/Nemesis (1990) [Remastered 2017]

Posted By: Andi_Deris
Celtic Frost - Vanity/Nemesis (1990) [Remastered 2017]

Celtic Frost - Vanity/Nemesis (1990) [Remastered 2017]
EAC Rip | FLAC: Image+Cue+Log | 412 Mb | MP3 CBR 320 kbps | 131 Mb | Scans | 95 Mb | Time: 54:02
Noise Records/BMG | NOISECD013
Avant-Garde/Thrash/Gothic Metal

Released in 1990, not only does this feature a twisted cover of David Bowie’s ‘Heroes’, but it saw the band going in a much more thrash oriented direction. The restless energy percolated throughout, as Celtic Frost continued to leave fans aghast at their soundscapes and adventurous perceptions. This release includes tracks from the ‘Wine In My Hand 12” EP’, and the concept and art direction of the release was done by the man behind Celtic Frost, Tom G. Warrior. Both the LP and CD versions include new sleevenotes and extensive booklets.

Celtic Frost - Vanity/Nemesis (1990) [Remastered 2017]




Track Listing

01. The Heart Beneath (03:49)
02. Wine In My Hand (Third From The Sun) (03:29)
03. Wings Of Solitude (04:36)
04. The Name Of My Bride (04:33)
05. This Island Earth (Bryan Ferry cover) (05:52)
06. The Restless Seas (04:41)
07. Phallic Tantrum (03:29)
08. A Kiss Or A Whisper (03:05)
09. Vanity (04:26)
10. Nemesis (07:49)

Bonus Tracks
11. Heroes (David Bowie cover) (Wine In My Hand EP Track) (03:48)
12. A Descent To Babylon (Babylon Asleep) (Wine In My Hand EP Track) (04:25)

Produced by Roli Mosimann & Karl-Ulrich Walterbach

The Band

• Tom Gabriel Warrior - vocals, guitars
• Martin Eric Ain - bass, backing vocals
• Curt Victor Bryant - bass, lead and rhythm guitars, backing vocals
• Stephen Priestly - drums, backing vocals

*****
• Ron Marks - lead and rhythm guitars (except tracks 2, 7), acoustic guitars (track 10)

Exact Audio Copy V1.3 from 2. September 2016

EAC extraction logfile from 6. July 2017, 19:06

Celtic Frost / Vanity/Nemesis (2017)

Used drive : ATAPI iHAS122 W Adapter: 2 ID: 0

Read mode : Secure
Utilize accurate stream : Yes
Defeat audio cache : Yes
Make use of C2 pointers : No

Read offset correction : 48
Overread into Lead-In and Lead-Out : No
Fill up missing offset samples with silence : Yes
Delete leading and trailing silent blocks : No
Null samples used in CRC calculations : Yes
Used interface : Installed external ASPI interface

Used output format : User Defined Encoder
Selected bitrate : 1024 kBit/s
Quality : High
Add ID3 tag : No
Command line compressor : C:\Program Files\FLAC\flac.exe
Additional command line options : -V -8 -T "Date=%year%" -T "Genre=%genre%" -T"COMMENT=Ripped by Ilijan - ilko" -8 -V %source%


TOC of the extracted CD

Track | Start | Length | Start sector | End sector
––––––––––––––––––––––––––––-
1 | 0:00.00 | 3:49.00 | 0 | 17174
2 | 3:49.00 | 3:28.45 | 17175 | 32819
3 | 7:17.45 | 4:36.10 | 32820 | 53529
4 | 11:53.55 | 4:32.40 | 53530 | 73969
5 | 16:26.20 | 5:52.20 | 73970 | 100389
6 | 22:18.40 | 4:40.35 | 100390 | 121424
7 | 26:59.00 | 3:29.22 | 121425 | 137121
8 | 30:28.22 | 3:05.03 | 137122 | 150999
9 | 33:33.25 | 4:25.45 | 151000 | 170919
10 | 37:58.70 | 7:49.10 | 170920 | 206104
11 | 45:48.05 | 3:47.67 | 206105 | 223196
12 | 49:35.72 | 4:25.25 | 223197 | 243096


Range status and errors

Selected range

Filename D:\ilko\Celtic Frost - Vanity,Nemesis (2017).wav

Peak level 97.6 %
Extraction speed 3.8 X
Range quality 99.9 %
Test CRC 487064A7
Copy CRC 487064A7
Copy OK

No errors occurred


AccurateRip summary

Track 1 cannot be verified as accurate (confidence 9) [9653E34E], AccurateRip returned [E6F556F7] (AR v2)
Track 2 cannot be verified as accurate (confidence 9) [39284C1A], AccurateRip returned [6E01A956] (AR v2)
Track 3 cannot be verified as accurate (confidence 9) [4BE5262E], AccurateRip returned [EEE2A42A] (AR v2)
Track 4 cannot be verified as accurate (confidence 9) [08A6060E], AccurateRip returned [DEC15638] (AR v2)
Track 5 cannot be verified as accurate (confidence 9) [C0955BE2], AccurateRip returned [150CDC28] (AR v2)
Track 6 cannot be verified as accurate (confidence 9) [209E1190], AccurateRip returned [D1E89257] (AR v2)
Track 7 cannot be verified as accurate (confidence 9) [5C0C25BE], AccurateRip returned [A7F463C8] (AR v2)
Track 8 cannot be verified as accurate (confidence 9) [D925EBCF], AccurateRip returned [6197B7E6] (AR v2)
Track 9 cannot be verified as accurate (confidence 9) [38588DC0], AccurateRip returned [0A99535D] (AR v2)
Track 10 cannot be verified as accurate (confidence 9) [208E2933], AccurateRip returned [73DC222E] (AR v2)
Track 11 cannot be verified as accurate (confidence 9) [EFCA8B04], AccurateRip returned [248D6772] (AR v2)
Track 12 cannot be verified as accurate (confidence 8) [F88B718C], AccurateRip returned [B599A3C5] (AR v2)

No tracks could be verified as accurate
You may have a different pressing from the one(s) in the database

End of status report

–– CUETools DB Plugin V2.1.6

[CTDB TOCID: gAuMss1Tipa8tk0Zv8hj3iwNu4g-] found
Submit result: gAuMss1Tipa8tk0Zv8hj3iwNu4g- has been confirmed
Track | CTDB Status
1 | ( 2/28) Accurately ripped
2 | ( 2/28) Accurately ripped
3 | ( 2/28) Accurately ripped
4 | ( 2/28) Accurately ripped
5 | ( 2/28) Accurately ripped
6 | ( 2/28) Accurately ripped
7 | ( 2/28) Accurately ripped
8 | ( 2/28) Accurately ripped
9 | ( 2/28) Accurately ripped
10 | ( 2/28) Accurately ripped
11 | ( 2/28) Accurately ripped
12 | ( 2/28) Accurately ripped


==== Log checksum 9406DAFB2D3508AD5C52F55AECD1999A0E4D5822B3D4707E85441F62DC2C5DFC ====


Many thanks to the original uploader: Ilijan

SEE also:
Celtic Frost 1984 Morbid Tales [Remastered 2017]
Celtic Frost 1985 To Mega Therion [Remastered 2017]
Celtic Frost 1987 Into The Pandemonium [Remastered 2017]