Subcategories

Chanticleer - Colors Of Love (1999)

Posted By: Designol
Chanticleer - Colors Of Love (1999)

Chanticleer - Colors Of Love (1999)
EAC | FLAC | Tracks (Cue&Log) ~ 244 Mb | Mp3 (CBR320) ~ 160 Mb | Scans included
Classical, Contemporary, Choral, Vocal | Label: Teldec | # 3984-24570-2 | 01:04:06

Colors of Love is a Grammy Award winning 1999 album of contemporary choral music by Chanticleer to a concept designed by Frank Albinder. The album won Grammy Award for Best Small Ensemble Performance at the 42nd Annual Grammy Awards. On COLORS OF LOVE the versatile 12-voice mail vocal ensemble Chanticleer - exclusive to Teldec - sings eight distinctive works by contemporary composers. Five of the compositions were written specifically for Chanticleer, notably John Tavener's "Village Wedding," a frequent encore and one of the group's favorite works. Prominent composers from both Eastern and Western traditions are represented, including Steven Stucky, Zhou Long, and the young America woman composer, Augusta Read Thomas.

What incredible blend this 12-piece group displays: it’s like a blown-up version of the King’s Singers, with twice the range and four times the sonority. And the tuning is quite exemplary: Steven Stucky’s Cradle Songs (from Brazil, Poland and Tobago) are lush and hypnotic, and use all the harmonic tricks of close-harmony arrangements. The danger could be that the performers can only sing slick, but they manage to find a much simpler style for John Tavener’s ‘Village Wedding’, with its Eastern melismas over a drone bass. They aren’t quite so comfortable in the more contrapuntal moments of Bernard Rands Canti d’Amor, but show that they can hit even the scrunchiest of chords with complete confidence, and, in Augusta Read Thomas’s ‘The Rub of Love’, make light of pitch problems in an atonal context. The two Chinese pieces are the least interesting, with Zhou Long going for dull convention, and Chen Yi using the sort of parallel harmony that would be called Chinoiserie if employed by a Western composer. Perhaps most remarkable is Steven Sametz’s ‘in time of’, which starts out very simply, and then proliferates to cover an enormous range – from sonorous bass to the extraordinary sound of male sopranos in full cry.

Review by Martin Cotton, BBC Music Magazine
Performance: 5 (out of 5) Sound: 5 (out of 5)

The American male vocal ensemble Chanticleer has, over the years since its founding, commissioned and premiered many new vocal works. Several of these are represented on COLORS OF LOVE, which is also an excellent sampling of the ensemble's talents. With twelve male voices–and not just tenors and basses–Chanticleer presents a shining, effortless sound which serves them well in repertoire ranging across five hundred years.

In the Steven Stucky pieces the sounds of the words are as important as the music and the meanings of the words, creating an additional, unusual musical layer in each work. John Tavener's "Village Wedding" blends Byzantine sounds–chant-like melodies over drones–with dancing, madrigalesque sections. And so the program continues, each work a gem of contemporary-yet-tonal 20th-century music. All but one of the pieces on the disc were written in the 1990s, and the program represents a broad range of composers: American, British, Chinese, male, female, young, old. An excellent compilation of "new" music.

Review by Allmusic.com

This compilation of modern-day madrigals, the latest in a fascinating series of discs from the San Francisco-based all-male vocal group Chanticleer, won the Grammy for Best Small Ensemble Performance of 1999. The selections range over a variety of styles and aesthetics, from the haunting, hypnotic sounds of Steven Stucky's Cradle Songs to the archaic, ethereal beauty and Eastern inflections of John Tavener's "Village Wedding." There are the soft (and somewhat affected) asperities of Bernard Rands' Canti d'Amor as well as the gentle, almost English pastoralism of Zhou Long's "Words of the Sun" (beautiful!) and the colorfully exotic Orientalism of Chen Yi's Tang Poems. Other examples of the wide range here are the self-conscious busywork of Augusta Read Thomas's Love Songs to the darkly lush, 12-part weave of Steven Sametz's "In Time Of," with its radiant climax and pulsating chordal sonorites like the tolling of bells. All of this Chanticleer sings with striking freshness and commitment, virtuosic to a fare-thee-well, always sensitive to the emotional cues of the texts. The recording, made at Skywalker Ranch in January of 1999, is vivid and warm, and so is much of the music. Truly a winning disc.

Review by Ted Libbey

Chanticleer - Colors Of Love (1999)



Tracklist:

Steven Stucky (1949-2016)
Cradle songs
01. Rouxinol do pico preto (4:23)
02. Lilajze, Jezuniu (3:35)
03. Buy Baby Ribbon (2:20)

John Tavener (1944-2013)
4. A Village Wedding (9:43)

Bernard Rands (b. 1934)
Canti d'Amor
05. Winds of May, That Dance on the Sea (1:12)
06. O Cool Is the Valley (1:08)
07. This Heart That Flutters Near My Heart (2:18)
08. Silently She's Combing Her Long Hair (1:28)
09. Gentle Lady, Do Not Sing Sad Songs (2:30)
10. Sleep Now, O You Unquiet Heart! (1:38)
11. All Day I Hear the Noise of Waters (2:19)

Zhou Long (b. 1953)
12. Words of the Sun (4:45)

Chen Yi (b. 1953)
13. Written on a Rainy Night (3:31)
14. Wild Grass (2:18)

Augusta Read Thomas (b. 1964)
15. The Rub of Love, for chorus (2:38)

Steven Sametz (b. 1954)
16. In time of, for chorus (9:22)

Augusta Read Thomas
17. Look Out upon the Stars, My Love (1:21)
18. Love Is a Beautiful Dream (2:41)
19. Alas, the Love of Women! (2:41)
20. For Stony Limits Cannot Hold Love Out (1:04)
21. All Mankind Love a Lover


Exact Audio Copy V1.0 beta 1 from 15. November 2010

EAC extraction logfile from 10. March 2013, 15:00

Chanticleer / Chanticleer: Colors of Love

Used drive : TSSTcorpCDDVDW TS-L633A Adapter: 3 ID: 0

Read mode : Secure
Utilize accurate stream : Yes
Defeat audio cache : Yes
Make use of C2 pointers : No

Read offset correction : 6
Overread into Lead-In and Lead-Out : No
Fill up missing offset samples with silence : Yes
Delete leading and trailing silent blocks : No
Null samples used in CRC calculations : Yes
Used interface : Installed external ASPI interface
Gap handling : Appended to previous track

Used output format : User Defined Encoder
Selected bitrate : 896 kBit/s
Quality : High
Add ID3 tag : No
Command line compressor : C:\Program Files\Exact Audio Copy\FLAC\FLAC.EXE
Additional command line options : -8 -V -T "ARTIST=%a" -T "TITLE=%t" -T "ALBUM=%g" -T "DATE=%y" -T "TRACKNUMBER=%n" -T "TOTALTRACKS=%x" -T "GENRE=%m" -T "ALBUMARTIST=%v" -T "ALBUM ARTIST=%v" -T "COMMENT=EAC Secure Mode, Test & Copy, AccurateRip, FLAC -8" %s


TOC of the extracted CD

Track | Start | Length | Start sector | End sector
––––––––––––––––––––––––––––-
1 | 0:00.00 | 4:23.57 | 0 | 19781
2 | 4:23.57 | 3:35.30 | 19782 | 35936
3 | 7:59.12 | 2:20.25 | 35937 | 46461
4 | 10:19.37 | 9:43.25 | 46462 | 90211
5 | 20:02.62 | 1:12.63 | 90212 | 95674
6 | 21:15.50 | 1:08.57 | 95675 | 100831
7 | 22:24.32 | 2:18.20 | 100832 | 111201
8 | 24:42.52 | 1:28.63 | 111202 | 117864
9 | 26:11.40 | 2:30.57 | 117865 | 129171
10 | 28:42.22 | 1:38.48 | 129172 | 136569
11 | 30:20.70 | 2:19.62 | 136570 | 147056
12 | 32:40.57 | 4:45.38 | 147057 | 168469
13 | 37:26.20 | 3:31.05 | 168470 | 184299
14 | 40:57.25 | 2:18.17 | 184300 | 194666
15 | 43:15.42 | 2:38.45 | 194667 | 206561
16 | 45:54.12 | 9:22.33 | 206562 | 248744
17 | 55:16.45 | 1:21.20 | 248745 | 254839
18 | 56:37.65 | 2:41.72 | 254840 | 266986
19 | 59:19.62 | 2:41.53 | 266987 | 279114
20 | 62:01.40 | 1:04.22 | 279115 | 283936
21 | 63:05.62 | 0:59.73 | 283937 | 288434


Track 1

Filename C:\MY RIPS\01 - Steven Stucky- Cradle Songs- Rouxinol do pico preto (Brazil).wav

Pre-gap length 0:00:02.00

Peak level 84.0 %
Extraction speed 1.2 X
Track quality 100.0 %
Test CRC 23E4D217
Copy CRC 23E4D217
Cannot be verified as accurate (confidence 7) [ED61170E], AccurateRip returned [BD7DB5A3]
Copy OK

Track 2

Filename C:\MY RIPS\02 - Steven Stucky- Cradle Songs- Lilajze, Jezuniu (Poland).wav

Pre-gap length 0:00:00.57

Peak level 46.7 %
Extraction speed 1.3 X
Track quality 100.0 %
Test CRC 689C6D5E
Copy CRC 689C6D5E
Cannot be verified as accurate (confidence 7) [539795E1], AccurateRip returned [EC45E2E2]
Copy OK

Track 3

Filename C:\MY RIPS\03 - Steven Stucky- Cradle Songs- Buy Baby Ribbon (Tobago).wav

Pre-gap length 0:00:01.37

Peak level 74.5 %
Extraction speed 1.2 X
Track quality 100.0 %
Test CRC 4281D0AF
Copy CRC 4281D0AF
Cannot be verified as accurate (confidence 7) [CF5421A3], AccurateRip returned [A09C5DE1]
Copy OK

Track 4

Filename C:\MY RIPS\04 - John Tavener- Village Wedding.wav

Pre-gap length 0:00:04.52

Peak level 51.8 %
Extraction speed 1.7 X
Track quality 100.0 %
Test CRC 00AF272D
Copy CRC 00AF272D
Cannot be verified as accurate (confidence 7) [8F77B82C], AccurateRip returned [FE45C2F6]
Copy OK

Track 5

Filename C:\MY RIPS\05 - Bernard Rands- Canti d'Amor- ''Winds of May, that dance on the sea''.wav

Pre-gap length 0:00:05.00

Peak level 72.4 %
Extraction speed 1.2 X
Track quality 100.0 %
Test CRC 254A843F
Copy CRC 254A843F
Cannot be verified as accurate (confidence 7) [CFF7F800], AccurateRip returned [54600FCA]
Copy OK

Track 6

Filename C:\MY RIPS\06 - Bernard Rands- Canti d'Amor- ''O cool is the valley''.wav

Peak level 44.3 %
Extraction speed 0.6 X
Track quality 99.8 %
Test CRC C05A565B
Copy CRC C05A565B
Cannot be verified as accurate (confidence 7) [B106B39B], AccurateRip returned [FB36F54A]
Copy OK

Track 7

Filename C:\MY RIPS\07 - Bernard Rands- Canti d'Amor- ''This heart that flutters near my heart''.wav

Pre-gap length 0:00:01.20

Peak level 27.3 %
Extraction speed 1.5 X
Track quality 100.0 %
Test CRC 3315D32E
Copy CRC 3315D32E
Cannot be verified as accurate (confidence 7) [4027F4D6], AccurateRip returned [78D1BD81]
Copy OK

Track 8

Filename C:\MY RIPS\08 - Bernard Rands- Canti d'Amor- ''Silently she's combing her long hair''.wav

Pre-gap length 0:00:01.10

Peak level 44.3 %
Extraction speed 1.4 X
Track quality 100.0 %
Test CRC 4568F6E4
Copy CRC 4568F6E4
Cannot be verified as accurate (confidence 7) [AF846BC4], AccurateRip returned [81394F4B]
Copy OK

Track 9

Filename C:\MY RIPS\09 - Bernard Rands- Canti d'Amor- ''Gentle lady, do not sing sad songs''.wav

Pre-gap length 0:00:00.68

Peak level 31.8 %
Extraction speed 1.1 X
Track quality 99.9 %
Test CRC B7342C5A
Copy CRC B7342C5A
Cannot be verified as accurate (confidence 7) [60E5492C], AccurateRip returned [3C32FB19]
Copy OK

Track 10

Filename C:\MY RIPS\10 - Bernard Rands- Canti d'Amor- ''Sleep now, O you unquiet heart!''.wav

Pre-gap length 0:00:02.17

Peak level 32.3 %
Extraction speed 1.5 X
Track quality 100.0 %
Test CRC 45B3E758
Copy CRC 45B3E758
Cannot be verified as accurate (confidence 7) [ECA445C3], AccurateRip returned [78BACD28]
Copy OK

Track 11

Filename C:\MY RIPS\11 - Bernard Rands- Canti d'Amor- ''All day I hear the noise of waters''.wav

Pre-gap length 0:00:02.30

Peak level 39.5 %
Extraction speed 1.0 X
Track quality 99.9 %
Test CRC 65331F4B
Copy CRC 65331F4B
Cannot be verified as accurate (confidence 6) [6B5899B1], AccurateRip returned [4126104B]
Copy OK

Track 12

Filename C:\MY RIPS\12 - Zhou Long- Words of the Sun.wav

Pre-gap length 0:00:06.25

Peak level 76.5 %
Extraction speed 2.0 X
Track quality 100.0 %
Test CRC EFDF85E3
Copy CRC EFDF85E3
Cannot be verified as accurate (confidence 7) [8DA5DBC1], AccurateRip returned [60F91E3E]
Copy OK

Track 13

Filename C:\MY RIPS\13 - Chen Yi- Tang Poems- Written on a Rainy Night.wav

Pre-gap length 0:00:02.55

Peak level 50.2 %
Extraction speed 1.9 X
Track quality 100.0 %
Test CRC 286C37DB
Copy CRC 286C37DB
Cannot be verified as accurate (confidence 7) [CA3A947E], AccurateRip returned [EFDF8064]
Copy OK

Track 14

Filename C:\MY RIPS\14 - Chen Yi- Tang Poems- Wild Grass.wav

Pre-gap length 0:00:01.04

Peak level 71.1 %
Extraction speed 1.9 X
Track quality 100.0 %
Test CRC 25C965A4
Copy CRC 25C965A4
Cannot be verified as accurate (confidence 7) [472777B1], AccurateRip returned [E9034023]
Copy OK

Track 15

Filename C:\MY RIPS\15 - Augusta Read Thomas- The Rub of Love.wav

Pre-gap length 0:00:04.22

Peak level 94.3 %
Extraction speed 2.0 X
Track quality 100.0 %
Test CRC 8D8CF0F7
Copy CRC 8D8CF0F7
Cannot be verified as accurate (confidence 7) [060AD81C], AccurateRip returned [53ABAF24]
Copy OK

Track 16

Filename C:\MY RIPS\16 - Steven Sametz- in time of.wav

Pre-gap length 0:00:06.15

Peak level 94.8 %
Extraction speed 2.4 X
Track quality 100.0 %
Test CRC 70476E13
Copy CRC 70476E13
Cannot be verified as accurate (confidence 7) [461C868E], AccurateRip returned [A353AA8B]
Copy OK

Track 17

Filename C:\MY RIPS\17 - Augusta Read Thomas- Love Songs- ''Look out upon the stars, my love…''.wav

Pre-gap length 0:00:05.45

Peak level 29.2 %
Extraction speed 1.7 X
Track quality 100.0 %
Test CRC 34315C5D
Copy CRC 34315C5D
Cannot be verified as accurate (confidence 7) [559A890E], AccurateRip returned [27500878]
Copy OK

Track 18

Filename C:\MY RIPS\18 - Augusta Read Thomas- Love Songs- ''Love is a beautiful dream''.wav

Peak level 42.3 %
Extraction speed 2.1 X
Track quality 100.0 %
Test CRC C8ED397E
Copy CRC C8ED397E
Cannot be verified as accurate (confidence 7) [D0572506], AccurateRip returned [A82C6C01]
Copy OK

Track 19

Filename C:\MY RIPS\19 - Augusta Read Thomas- Love Songs- ''Alas, the love of women!''.wav

Peak level 94.4 %
Extraction speed 1.2 X
Track quality 99.9 %
Test CRC D3BA25CA
Copy CRC D3BA25CA
Cannot be verified as accurate (confidence 7) [74B40C87], AccurateRip returned [712572E2]
Copy OK

Track 20

Filename C:\MY RIPS\20 - Augusta Read Thomas- Love Songs- ''For stony limits cannot hold love out''.wav

Peak level 57.3 %
Extraction speed 1.6 X
Track quality 100.0 %
Test CRC 7DEAD90F
Copy CRC 7DEAD90F
Cannot be verified as accurate (confidence 7) [A0B39D8A], AccurateRip returned [EAFE8164]
Copy OK

Track 21

Filename C:\MY RIPS\21 - Augusta Read Thomas- Love Songs- ''All mankind love a lover''.wav

Pre-gap length 0:00:01.47

Peak level 44.4 %
Extraction speed 1.6 X
Track quality 100.0 %
Test CRC 2F76DFFC
Copy CRC 2F76DFFC
Cannot be verified as accurate (confidence 7) [AF16C9DE], AccurateRip returned [2107A360]
Copy OK


No tracks could be verified as accurate
You may have a different pressing from the one(s) in the database

No errors occurred

End of status report

==== Log checksum 093579E5C01BC63503606BBC4E4DE1D69E8B86856108561EBD02489E5BA79F91 ====

[CUETools log; Date: 26.03.2018 20:22:09; Version: 2.1.4]
[CTDB TOCID: YA1.aJMWxdqOMtA6MpW4cBmr1h4-] found.
Track | CTDB Status
1 | (31/31) Accurately ripped
2 | (31/31) Accurately ripped
3 | (31/31) Accurately ripped
4 | (31/31) Accurately ripped
5 | (31/31) Accurately ripped
6 | (31/31) Accurately ripped
7 | (31/31) Accurately ripped
8 | (31/31) Accurately ripped
9 | (31/31) Accurately ripped
10 | (31/31) Accurately ripped
11 | (31/31) Accurately ripped
12 | (31/31) Accurately ripped
13 | (31/31) Accurately ripped
14 | (31/31) Accurately ripped
15 | (31/31) Accurately ripped
16 | (31/31) Accurately ripped
17 | (31/31) Accurately ripped
18 | (30/31) Accurately ripped
19 | (30/31) Accurately ripped
20 | (30/31) Accurately ripped
21 | (30/31) Accurately ripped
[AccurateRip ID: 0033fbe8-030f80a9-470f0515] found.
Track [ CRC | V2 ] Status
01 [ed61170e|b20dc11c] (00+04/20) Accurately ripped
02 [539795e1|eb1be60d] (00+04/21) Accurately ripped
03 [cf5421a3|acd1fbef] (00+04/21) Accurately ripped
04 [8f77b82c|dc05cc84] (00+04/21) Accurately ripped
05 [cff7f800|1e9cd2b1] (00+04/21) Accurately ripped
06 [b106b39b|f5ca0c4f] (00+04/21) Accurately ripped
07 [4027f4d6|91c70059] (00+04/21) Accurately ripped
08 [af846bc4|422461db] (00+04/21) Accurately ripped
09 [60e5492c|d66e851d] (00+04/21) Accurately ripped
10 [eca445c3|81b3c6ae] (00+04/21) Accurately ripped
11 [6b5899b1|2ed2fa30] (00+04/20) Accurately ripped
12 [8da5dbc1|5d76df9a] (00+04/21) Accurately ripped
13 [ca3a947e|583c5426] (00+04/21) Accurately ripped
14 [472777b1|3dd7e10f] (00+04/21) Accurately ripped
15 [060ad81c|dda1ea4f] (00+04/21) Accurately ripped
16 [461c868e|3a90ba62] (00+04/21) Accurately ripped
17 [559a890e|0b692a75] (00+04/21) Accurately ripped
18 [d0572506|21c9acc2] (00+04/21) Accurately ripped
19 [74b40c87|8eaaaba7] (00+04/21) Accurately ripped
20 [a0b39d8a|79720f34] (00+04/21) Accurately ripped
21 [af16c9de|2af39261] (00+04/21) Accurately ripped
Offsetted by 669:
01 [bd7db5a3] (07/20) Accurately ripped
02 [ec45e2e2] (07/21) Accurately ripped
03 [a09c5de1] (07/21) Accurately ripped
04 [fe45c2f6] (07/21) Accurately ripped
05 [54600fca] (07/21) Accurately ripped
06 [fb36f54a] (07/21) Accurately ripped
07 [78d1bd81] (07/21) Accurately ripped
08 [81394f4b] (07/21) Accurately ripped
09 [3c32fb19] (07/21) Accurately ripped
10 [78bacd28] (07/21) Accurately ripped
11 [4126104b] (06/20) Accurately ripped
12 [60f91e3e] (07/21) Accurately ripped
13 [efdf8064] (07/21) Accurately ripped
14 [e9034023] (07/21) Accurately ripped
15 [53abaf24] (07/21) Accurately ripped
16 [a353aa8b] (07/21) Accurately ripped
17 [27500878] (07/21) Accurately ripped
18 [a82c6c01] (07/21) Accurately ripped
19 [712572e2] (07/21) Accurately ripped
20 [eafe8164] (07/21) Accurately ripped
21 [2107a360] (07/21) Accurately ripped
Offsetted by -664:
01 [1f3700c5] (00/20) No match (V2 was not tested)
02 [e3c9927a] (00/21) No match (V2 was not tested)
03 [c1c55be7] (00/21) No match (V2 was not tested)
04 [0cd3c77c] (00/21) No match (V2 was not tested)
05 [16eb77b0] (00/21) No match (V2 was not tested)
06 [303128e2] (00/21) No match (V2 was not tested)
07 [c9ccc41a] (00/21) No match (V2 was not tested)
08 [de10b408] (00/21) No match (V2 was not tested)
09 [b77a0d4b] (00/21) No match (V2 was not tested)
10 [c9822415] (00/21) No match (V2 was not tested)
11 [3ae0c8c1] (00/20) No match (V2 was not tested)
12 [a2438829] (00/21) No match (V2 was not tested)
13 [caf5edcb] (00/21) No match (V2 was not tested)
14 [480eaaec] (00/21) No match (V2 was not tested)
15 [bcd2245c] (00/21) No match (V2 was not tested)
16 [f0dcfef6] (00/21) No match (V2 was not tested)
17 [993308d2] (00/21) No match (V2 was not tested)
18 [de84acae] (00/21) No match (V2 was not tested)
19 [efac6d6e] (00/21) No match (V2 was not tested)
20 [4567f092] (00/21) No match (V2 was not tested)
21 [bb4ece5a] (00/21) No match (V2 was not tested)
Offsetted by -12:
01 [5528ee6d] (00/20) No match (V2 was not tested)
02 [be0e544d] (00/21) No match (V2 was not tested)
03 [22ccd38c] (00/21) No match (V2 was not tested)
04 [58ac4654] (00/21) No match (V2 was not tested)
05 [aa03be1a] (00/21) No match (V2 was not tested)
06 [55fd908b] (00/21) No match (V2 was not tested)
07 [9efaabc7] (00/21) No match (V2 was not tested)
08 [196c3a5e] (00/21) No match (V2 was not tested)
09 [0e4fa35e] (00/21) No match (V2 was not tested)
10 [a60f0a81] (00/21) No match (V2 was not tested)
11 [117b1024] (00/20) No match (V2 was not tested)
12 [94306b35] (00/21) No match (V2 was not tested)
13 [ac352b21] (00/21) No match (V2 was not tested)
14 [071df1ee] (00/21) No match (V2 was not tested)
15 [fb77503c] (00/21) No match (V2 was not tested)
16 [9963dc02] (00/21) No match (V2 was not tested)
17 [9b02cb3f] (00/21) No match (V2 was not tested)
18 [72965dd0] (00/21) No match (V2 was not tested)
19 [1a627a3c] (00/21) No match (V2 was not tested)
20 [0af092cc] (00/21) No match (V2 was not tested)
21 [4f70804a] (00/21) No match (V2 was not tested)

Track Peak [ CRC32 ] [W/O NULL] [ LOG ]
– 94,8 [98E116B9] [C666166A]
01 84,0 [23E4D217] [8D56E682] CRC32
02 46,7 [689C6D5E] [031D2AF8] CRC32
03 74,5 [4281D0AF] [2132CB67] CRC32
04 51,8 [00AF272D] [4E981D72] CRC32
05 72,4 [254A843F] [58352A6F] CRC32
06 44,3 [C05A565B] [801C8905] CRC32
07 27,3 [3315D32E] [6B296A28] CRC32
08 44,3 [4568F6E4] [B3807EE9] CRC32
09 31,8 [B7342C5A] [A7354580] CRC32
10 32,3 [45B3E758] [A090F395] CRC32
11 39,5 [65331F4B] [8DB4631C] CRC32
12 76,5 [EFDF85E3] [8B44639B] CRC32
13 50,2 [286C37DB] [B0072ABC] CRC32
14 71,1 [25C965A4] [00885A43] CRC32
15 94,3 [8D8CF0F7] [99748FCE] CRC32
16 94,8 [70476E13] [66FA9627] CRC32
17 29,2 [34315C5D] [A76DE7BA] CRC32
18 42,3 [C8ED397E] [813C18BF] CRC32
19 94,4 [D3BA25CA] [DE312D1B] CRC32
20 57,3 [7DEAD90F] [51F75222] CRC32
21 44,4 [2F76DFFC] [A4DDFABC] CRC32

foobar2000 1.2 / Dynamic Range Meter 1.1.1
log date: 2018-03-26 20:30:30

––––––––––––––––––––––––––––––––––––––––
Analyzed: Chanticleer / Chanticleer: Colors of Love
––––––––––––––––––––––––––––––––––––––––

DR Peak RMS Duration Track
––––––––––––––––––––––––––––––––––––––––
DR15 -1.51 dB -23.76 dB 4:24 01-Steven Stucky: Cradle Songs: Rouxinol do pico preto (Brazil)
DR12 -6.60 dB -28.00 dB 3:35 02-Steven Stucky: Cradle Songs: Lilajze, Jezuniu (Poland)
DR15 -2.55 dB -22.74 dB 2:20 03-Steven Stucky: Cradle Songs: Buy Baby Ribbon (Tobago)
DR15 -5.70 dB -26.01 dB 9:43 04-John Tavener: Village Wedding
DR12 -2.80 dB -19.90 dB 1:13 05-Bernard Rands: Canti d'Amor: 'Winds of May, that dance on the sea'
DR10 -7.05 dB -24.58 dB 1:09 06-Bernard Rands: Canti d'Amor: 'O cool is the valley'
DR11 -11.25 dB -25.97 dB 2:18 07-Bernard Rands: Canti d'Amor: 'This heart that flutters near my heart'
DR11 -7.06 dB -25.99 dB 1:29 08-Bernard Rands: Canti d'Amor: 'Silently she's combing her long hair'
DR11 -9.93 dB -27.25 dB 2:31 09-Bernard Rands: Canti d'Amor: 'Gentle lady, do not sing sad songs'
DR13 -9.79 dB -29.63 dB 1:39 10-Bernard Rands: Canti d'Amor: 'Sleep now, O you unquiet heart!'
DR13 -8.05 dB -26.53 dB 2:20 11-Bernard Rands: Canti d'Amor: 'All day I hear the noise of waters'
DR14 -2.32 dB -22.70 dB 4:46 12-Zhou Long: Words of the Sun
DR12 -5.98 dB -23.17 dB 3:31 13-Chen Yi: Tang Poems: Written on a Rainy Night
DR11 -2.96 dB -21.60 dB 2:18 14-Chen Yi: Tang Poems: Wild Grass
DR13 -0.51 dB -20.92 dB 2:39 15-Augusta Read Thomas: The Rub of Love
DR15 -0.46 dB -23.66 dB 9:22 16-Steven Sametz: in time of
DR12 -10.67 dB -30.85 dB 1:21 17-Augusta Read Thomas: Love Songs: 'Look out upon the stars, my love…'
DR12 -7.47 dB -23.61 dB 2:42 18-Augusta Read Thomas: Love Songs: 'Love is a beautiful dream'
DR13 -0.50 dB -21.26 dB 2:42 19-Augusta Read Thomas: Love Songs: 'Alas, the love of women!'
DR11 -4.84 dB -24.19 dB 1:04 20-Augusta Read Thomas: Love Songs: 'For stony limits cannot hold love out'
DR10 -7.04 dB -23.84 dB 1:00 21-Augusta Read Thomas: Love Songs: 'All mankind love a lover'
––––––––––––––––––––––––––––––––––––––––

Number of tracks: 21
Official DR value: DR12

Samplerate: 44100 Hz
Channels: 2
Bits per sample: 16
Bitrate: 500 kbps
Codec: FLAC
================================================================================

Chanticleer - Colors Of Love (1999)