Tags
Language
Tags
June 2024
Su Mo Tu We Th Fr Sa
26 27 28 29 30 31 1
2 3 4 5 6 7 8
9 10 11 12 13 14 15
16 17 18 19 20 21 22
23 24 25 26 27 28 29
30 1 2 3 4 5 6

Charles Mingus - Milestones of a Legend (Remastered) (2017)

Posted By: Rtax
Charles Mingus - Milestones of a Legend (Remastered) (2017)

Charles Mingus - Milestones of a Legend (Remastered) (2017)
EAC Rip | FLAC (tracks, cue, log) - 3.6 GB | MP3 CBR 320 kbps - 1.4 GB
10:37:46 | Jazz | Label: Documents

Charles Mingus (1922-1979), nicknamed "the angry man of jazz" and still today an icon of the jazz world, was known for his intimidating temperament. His musical talent on double bass, as musical arranger, bandleader or composer, was immense. His music touches on all kinds of jazz styles, from free, blues, hard bop, big band or third stream, influenced by Duke Ellington's orchestrations, but always has an element of irritation and danger. Influenced by New Orleans jazz, Mingus also fancied collective improvisation (as we can hear on various albums on this collection). This exciting box set is a journey through his fascinating music, displaying all of his artistic mutations and idiosyncrasies. Mingus is accompanied here by a host of all-time greats including Max Roach, Teo Macero, Dizzy Gillespie, Charlie Parker and Bud Powell.

Tracklist
CD1
JAZZ COMPOSERS WORKSHOP
- Charlie Mingus, Wally Cirillo, Teo Macero & John La Porta
1. Purple Heart (Mingus) 5.39
2. Gregorian Chant (Mingus) 2.53
3. Eulogy for Rudy Williams (Mingus) 6.25
4. Tea for Two (Caesar / Youmans) 6.22
5. Smog L.A. (Cirillo) 3.17
6. Level Seven (Cirillo) 4.19
7. Transeason (Cirillo) 4.25
8. Rose Geranium (Cirillo) 4.15
9. Getting Together (Mingus) 4.43
Charlie Mingus double bass
John La Porta alto sax on 1, 2, 3, 4 & 9
Kenny Clarke drums on 5, 6, 7 & 8
Rudy Nichols drums on 1, 2, 3, 4 & 9
Mal Waldron piano on 1, 2, 3, 4 & 9
Wally Cirillo piano on 5, 6, 7 & 8
Teo Macero tenor sax on 5, 6, 7 & 8, baritone sax on 9
George Barrow tenor sax & baritone on 1, 2, 3, 4 & 9
1 to 4 Recorded in New York - October, 31, 1954, 5 to 9 Recorded in New York
January, 30, 1955


JAZZ COLLABORATIONS - Charles Mingus & Thad Jones
10. One More (Jones) 4.03
11. I Can´t Get Started (Gershwin / Duke) 6.12
12. More of the Same (Jones) 5.19
13. Get out of Town (Porter) 7.35
Charles Mingus double bass
Max Roach drums
John Dennis piano
Thad Jones trumpet
Recorded in 1955
Total Time 65.31


CD2
Mingus Presents - Charlie Mingus
1. Folk Forms, No. 1 (Mingus) 13.07
2. Original Faubus Fable (Mingus) 9.20
3. What Love (Mingus) 15.24
4. All the Things You Could Be by Now If Sigmund Freud‘s Wife 8.36
Was Your Mother (Mingus)
Eric Dolphy alto saxophone, bass clarinet
Charles Mingus bass,
Dannie Richmond drums
Ted Curson Trumpet
Recorded 20th October 1960
Total Time 46.29


CD3
MINGUS AT THE BOHEMIA - Charles Mingus
feat. Eddie Bert, Mal Waldron,
George Barrow & Max Roach
1. Jump Monk (Mingus) 6.56
2. Serenade in Blue (Gordon / Warren) 6.05
3. Percussion Discussion (Roach / Mingus) 8.41
4. Work Song (Mingus) 6.31
5. Septemberly (Dubin / Warren) 7.09
6. All the Things You C-Sharp (Hammerstein / Kern) 6.59
Charles Mingus double bass Max Roach drums on 3
Willie Jones drums Mal Waldron piano
George Barrow tenor sax
Eddie Bert trombone
Recorded at Café Bohemia, New York, December 23, 1955


PRE BIRD - Charles Mingus
7. Take the ‘A’ Train (Strayhorn) 3.39
8. Prayer for Passive Resistance (Mingus) 3.54
9. Eclipse (Mingus) 4.00
10. Mingus Fingus No. 2 (Mingus) 3.38
11. Weird Nightmare (Mingus) 3.40
12. Do Nothin’ Till You Hear from Me (Ellington / Russel) 3.40
13. Bemoanable Lady (Mingus) 4.27
14. Half-Mast Inhibition (Mingus) 8.14
Charles Mingus (b) Clark Terry, Marcus Belgrave, Ted Curson, Richard Gene Williams,
Hobart Dotson (tp) Slide Hampton, Jimmy Knepper, Eddie Bert,
Charles „Majeed“ Greenlee (tb) Eric Dolphy, John LaPorta, Bill Barron, Joe Farrell,
Yusef Lateef, Danny Bank, Booker Ervin (sax)
Robert DiDomenica, Eric Dolphy, Yusef Lateef (fl)
Don Butterfield (tuba) Roland Hanna or
Paul Bley (p) Lorraine Cusson (voc)
Charles McCracken (cello) Harry Schulman (oboe)
Sticks Evans, Dannie Richmond, Max Roach,
George Scott (dr) Gunther Schuller (conductor)
Recorded at Plaza Sound, New York City May 24+25, 1960
Total Time 77.34

CD4
Ah Um - Charles Mingus
1. Better Git It in Your Soul (Mingus) 7.23
2. Goodbye Pork Pie Hat (Mingus) 5.44
3. Boogie Stop Shuffle (Mingus) 5.03
4. Self-Portrait in Three Colors (Mingus) 3.10
5. Open Letter to Duke (Mingus) 5.51
6. Bird Calls (Mingus) 6.18
7. Fable of Faubus (Mingus) 8.14
8. Pussy Cat Dues (Mingus) 9.15
9. Jelly Roll (Mingus) 6.18
Charles Mingus bass John Handy Alto Saxophone, Clarinet
Shafi Hadi Alto Saxophone, Tenor Saxophone Dannie Richmond Drums
Horace Parlan Piano Booker Ervin Tenor Saxophone
Jimmy Knepper, Willie Dennis Trombone
Recorded at 30th Street Studio, NYC
May 5, 1959 (1+6-9) - May 12, 1959 (2-5)
Total Time 57.18


CD5
PITHECANTHROPUS ERECTUS - The Charlie Mingus Jazz Workshop
1. Pithecanthropus Erectus (Mingus) 10.38
2. A Foggy Day (G. Gershwin / I. Gershwin) 7.50
3. Profile of Jackie (Mingus) 3.12
4. Love Chant (Mingus) 14.56
Charles Mingus double bass
Jackie McLean alto sax
Willie Jones drums
Mal Waldron piano
J. R. Monterose tenor sax
Recorded at Audio-Video Studios, New York, January 30, 1956


MINGUS THREE - Charles Mingus with Hampton Hawes & Dannie Richmond
5. Yesterdays (Harbach / Kern) 4.18
6. Back Home Blues (Mingus) 5.34
7. I Can´t Get Started (Duke / Gershwin) 6.33
8. Hamp´s New Blues (Hawes) 3.57
9. Summertime (G. Gershwin / I. Gershwin / DuBose / Heyward) 4.43
10. Dizzy Moods (Mingus) 6.56
11. Laura (Mercer / Raskin) 6.35
Charles Mingus double bass
Dannie Richmond drums
Hampton Hawes piano
Recorded in New York, July 9, 1957
Total Time 75.13


CD6
THE CLOWN - Charles Mingus
1. Haitian Fight Song (Mingus) 12.07
2. Blue Cee (Mingus) 7.56
3. Reincarnation of a Lovebird (Mingus) 8.37
4. The Clown (Mingus) 12.15
Charles Mingus double bass
Curtis Porter alto & tenor sax
Dannie Richmond drums
Wade Legge piano
Jimmy Knepper trombone
Recorded in 1957


TIJUANA MOODS - Charlie Mingus
5. Dizzy Moods (Mingus) 5.55
6. Ysabel´s Table Dance (Mingus) 10.30
7. Tijuana Gift Shop (Mingus) 3.52
8. Los Mariachis (The Street Musicians) (Mingus) 10.25
9. Flamingo (Mingus) 5.39
Charles Mingus double bass Curtis Porter alto sax Ysabel Morel castanets
Dannie Richmond drums Bill Triglia piano Jimmy Knepper trombone
Clarence Shaw trumpet Lonnie Elder voice Frank Dunlop precussion
Recorded July 18 & August 6, 1957
Total Time 77.19


CD7
EAST COASTING - Charlie Mingus
1. Memories of You (Blake / Razaf) 4.31
2. East Coasting (Mingus) 5.16
3. West Coast Ghost (Mingus) 10.36
4. Celia (Mingus) 7.56
5. Conversation (Mingus) 5.34
6. Fifty-First Street Blues (Mingus) 5.51
Charlie Mingus double bass Bill Evans piano Shafi Hadi alto & tenor sax
Dannie Richmond drums Jimmy Kneeper trombone Clarence Shaw trumpet
Recorded in New York, August 1957


A MODERN JAZZ SYMPOSIUM OF MUSIC AND POETRY - Charlie Mingus
7. Scenes in the City (Mingus) 11.57
8. Neuroog (Mingus) 4.54
9. New York Sketchbook (Elders / Hughes / Mingus) 8.57
10. Duke´s Choice (Mingus) 6.29
11. Slippers (Mingus) 3.30
Charles Mingus double bass
Dannie Richmond drums
Bob Hammer piano on 7
Horace Parlan piano
Shafi Hadi tenor & alto sax
Jimmy Kneeper trombone
Charles Mingus

Clarence Shaw trumpet
Bill Hardman trumpet on 8
Recorded in New York, October 1957
Total Time 75.33


CD8
MINGUS IN WONDERLAND - Charles Mingus
1. Nostalgia in Times Square (Mingus) 12.21
2. I Can´t Get Started (Gershwin / Duke) 10.11
3. No Private Income Blues (Mingus) 12.53
4. Alice´s Wonderland (Mingus) 8.57
Charles Mingus double bass
John Handy alto sax
Dannie Richmond drums
Richard Wyands piano
Booker Ervin tenor sax,
Recorded at the Nonagon Art Gallery, New York, January 16, 1959


CHARLES MINGUS SEXTET
5. The Texas Hop (Mingus / Griffin) 2.52
6. Baby, Take a Chance with Me (Mingus) 3.09
7. Lonesome Woman Blues (Griffin) 3.13
8. Swingin´an Echo (Mingus) 3.10
Charles Mingus double bass
Roy Porter drums
Robert Mosley piano
Maxwell Davis tenor sax
William Woodman tenor sax
N. R. Bates trumpet
Oradell Mitchell vocals on 5 & 7
Everett Pettis vocals on 6
Recorded in 1945


CHARLES MINGUS SEXTETTE
9. Ain´t Jivin´Blues (Mingus / Cryor) 2.59
10. Baby, Take a Chance with Me (Mingus) 2.55
11. Shuffle Bass Boogie (Mingus) 3.00
12. Weird Nightmare (Mingus) 3.07
Charles Mingus double bass
Willie Smith alto sax
Gene Porter baritone sax & clarinet
Lee Young drums
Buddy Harper guitar
Wilbert Baranco piano
Lucky Thompson tenor sax
Henry Cocker trombone
John Plonsky trumpet
Karl George trumpet
Claude Trenier vocals, Recorded in 1946
Total Time 68.47


CD9
BLUES & ROOTS - Charles Mingus
1. Wednesday Night Prayer Meeting (Mingus)a 5.46
2. Cryin´Blues (Mingus) 5.04
3. Moanin´ (Mingus) 8.05
4. Tensions (Mingus) 6.33
5. My Jelly Roll Soul (Mingus) 6.52
6. E´s Flat Ah´s Flat Too (Mingus) 6.45
Charles Mingus double bass
Dannie Richmond drums
Horace Parlan piano
Mal Waldron piano
John Handy alto sax
Jackie McLean alto sax
Pepper Adams baritone sax
Booker Ervin tenor sax
Jimmy Kneeper trombone
Willie Dennis trombone
Recorded in New York, February 5, 1959
Total Time 39.06

CD10
DYNASTY
1. Slop (Mingus) 6.17
2. Diane (Mingus) 7.32
3. Song with Orange (Mingus) 6.51
4. Gunslinging Bird (Mingus) 5.14
5. Things Aint What They Used to Be (Ellington / Mercer / Persons) 7.36
6. Far Wells, Mill Valley (Mingus) 6.15
7. New Now Know How (Mingus) 4.14
8. Mood Indigo (Bigard / Ellington / Mills) 8.14
9. Put Me in the Dungeon (Mingus) 2.55
Charles Mingus (b) John Handy (as, cl) Booker Ervin, Benny Golson (ts)
Jerome Richardson (sax, fl) Don Ellis, Dick Williams (tp)
Jimmy Knepper (tb) Roland Hanna (p) Teddy Charles (vib)
Maurice Brown, Seymour Barab (cello) Dannie Richmond (dr)
Recorded at Columbia 30th Street Studio, New York City, on Nov. 1+13, 1959
Total Time 55.10
Exact Audio Copy V1.3 from 2. September 2016

EAC extraction logfile from 9. May 2022, 17:22

Charles Mingus / Jazz Composers Workshop - Jazz Collaborations

Used drive : HL-DT-STBD-RE BH16NS55 Adapter: 1 ID: 0

Read mode : Secure
Utilize accurate stream : Yes
Defeat audio cache : Yes
Make use of C2 pointers : No

Read offset correction : 6
Overread into Lead-In and Lead-Out : No
Fill up missing offset samples with silence : Yes
Delete leading and trailing silent blocks : No
Null samples used in CRC calculations : Yes
Used interface : Native Win32 interface for Win NT & 2000
Gap handling : Appended to previous track

Used output format : User Defined Encoder
Selected bitrate : 1024 kBit/s
Quality : High
Add ID3 tag : No
Command line compressor : C:\Program Files (x86)\Exact Audio Copy\Flac\flac.exe
Additional command line options : -8 -V -T "ARTIST=%artist%" -T "TITLE=%title%" -T "ALBUM=%albumtitle%" -T "DATE=%year%" -T "TRACKNUMBER=%tracknr%" -T "GENRE=%genre%" -T "PERFORMER=%albuminterpret%" -T "COMPOSER=%composer%" %haslyrics%–tag-from-file=LYRICS="%lyricsfile%"%haslyrics% -T "ALBUMARTIST=%albumartist%" -T "DISCNUMBER=%cdnumber%" -T "TOTALDISCS=%totalcds%" -T "TOTALTRACKS=%numtracks%" -T "COMMENT=%comment%" %source% -o %dest%


TOC of the extracted CD

Track | Start | Length | Start sector | End sector
––––––––––––––––––––––––––––-
1 | 0:00.00 | 5:38.74 | 0 | 25423
2 | 5:38.74 | 2:53.37 | 25424 | 38435
3 | 8:32.36 | 6:24.46 | 38436 | 67281
4 | 14:57.07 | 6:22.00 | 67282 | 95931
5 | 21:19.07 | 3:16.73 | 95932 | 110704
6 | 24:36.05 | 4:19.22 | 110705 | 130151
7 | 28:55.27 | 4:25.35 | 130152 | 150061
8 | 33:20.62 | 4:15.15 | 150062 | 169201
9 | 37:36.02 | 4:43.37 | 169202 | 190463
10 | 42:19.39 | 4:03.23 | 190464 | 208711
11 | 46:22.62 | 6:12.17 | 208712 | 236628
12 | 52:35.04 | 5:18.66 | 236629 | 260544
13 | 57:53.70 | 7:35.15 | 260545 | 294684


Track 1

Filename F:\#EAC wav+flac\#New\Charles Mingus - Milestones Of A Legend\cd 01\01. Charles Mingus - Purple Heart.wav

Pre-gap length 0:00:02.00

Peak level 96.7 %
Extraction speed 4.3 X
Track quality 99.9 %
Test CRC 8B2451DE
Copy CRC 8B2451DE
Accurately ripped (confidence 2) [DEB713FE] (AR v2)
Copy OK

Track 2

Filename F:\#EAC wav+flac\#New\Charles Mingus - Milestones Of A Legend\cd 01\02. Charles Mingus - Gregarian Chant.wav

Peak level 96.7 %
Extraction speed 4.9 X
Track quality 100.0 %
Test CRC 6E7C3973
Copy CRC 6E7C3973
Accurately ripped (confidence 2) [CBF61D31] (AR v2)
Copy OK

Track 3

Filename F:\#EAC wav+flac\#New\Charles Mingus - Milestones Of A Legend\cd 01\03. Charles Mingus - Elogy Of Rudy Williams.wav

Peak level 96.7 %
Extraction speed 6.0 X
Track quality 100.0 %
Test CRC 4B4C6E47
Copy CRC 4B4C6E47
Accurately ripped (confidence 2) [7FBBFFA9] (AR v2)
Copy OK

Track 4

Filename F:\#EAC wav+flac\#New\Charles Mingus - Milestones Of A Legend\cd 01\04. Charles Mingus - Tea For Two.wav

Peak level 96.7 %
Extraction speed 6.6 X
Track quality 100.0 %
Test CRC 1CB83662
Copy CRC 1CB83662
Accurately ripped (confidence 2) [E9D794CD] (AR v2)
Copy OK

Track 5

Filename F:\#EAC wav+flac\#New\Charles Mingus - Milestones Of A Legend\cd 01\05. Charles Mingus - Smog L.A..wav

Peak level 96.7 %
Extraction speed 6.5 X
Track quality 100.0 %
Test CRC D79965CB
Copy CRC D79965CB
Accurately ripped (confidence 2) [46606A60] (AR v2)
Copy OK

Track 6

Filename F:\#EAC wav+flac\#New\Charles Mingus - Milestones Of A Legend\cd 01\06. Charles Mingus - Level Seven.wav

Peak level 96.7 %
Extraction speed 5.9 X
Track quality 99.9 %
Test CRC 4DFF350E
Copy CRC 4DFF350E
Accurately ripped (confidence 2) [A88A776C] (AR v2)
Copy OK

Track 7

Filename F:\#EAC wav+flac\#New\Charles Mingus - Milestones Of A Legend\cd 01\07. Charles Mingus - Transocean.wav

Peak level 96.7 %
Extraction speed 7.5 X
Track quality 100.0 %
Test CRC 1CA22C6B
Copy CRC 1CA22C6B
Accurately ripped (confidence 2) [6B20A4FB] (AR v2)
Copy OK

Track 8

Filename F:\#EAC wav+flac\#New\Charles Mingus - Milestones Of A Legend\cd 01\08. Charles Mingus - Rose Geranium.wav

Peak level 96.7 %
Extraction speed 7.6 X
Track quality 100.0 %
Test CRC 590E73EF
Copy CRC 590E73EF
Accurately ripped (confidence 2) [FD95F6AD] (AR v2)
Copy OK

Track 9

Filename F:\#EAC wav+flac\#New\Charles Mingus - Milestones Of A Legend\cd 01\09. Charles Mingus - Getting Together.wav

Peak level 96.7 %
Extraction speed 6.8 X
Track quality 99.9 %
Test CRC 3439F2BE
Copy CRC 3439F2BE
Accurately ripped (confidence 2) [5F06D904] (AR v2)
Copy OK

Track 10

Filename F:\#EAC wav+flac\#New\Charles Mingus - Milestones Of A Legend\cd 01\10. Charles Mingus - One More.wav

Peak level 96.7 %
Extraction speed 8.2 X
Track quality 100.0 %
Test CRC 303B80D6
Copy CRC 303B80D6
Accurately ripped (confidence 2) [A5B0C07D] (AR v2)
Copy OK

Track 11

Filename F:\#EAC wav+flac\#New\Charles Mingus - Milestones Of A Legend\cd 01\11. Charles Mingus - I Can't Get Started.wav

Peak level 96.7 %
Extraction speed 8.8 X
Track quality 100.0 %
Test CRC EA69A0EE
Copy CRC EA69A0EE
Accurately ripped (confidence 2) [18292825] (AR v2)
Copy OK

Track 12

Filename F:\#EAC wav+flac\#New\Charles Mingus - Milestones Of A Legend\cd 01\12. Charles Mingus - More Of The Same.wav

Peak level 96.7 %
Extraction speed 9.1 X
Track quality 100.0 %
Test CRC AEC71BEE
Copy CRC AEC71BEE
Accurately ripped (confidence 2) [EC682AB3] (AR v2)
Copy OK

Track 13

Filename F:\#EAC wav+flac\#New\Charles Mingus - Milestones Of A Legend\cd 01\13. Charles Mingus - Get Out Of The Town.wav

Peak level 96.7 %
Extraction speed 8.7 X
Track quality 99.9 %
Test CRC BFBB9731
Copy CRC BFBB9731
Accurately ripped (confidence 2) [4A1D7521] (AR v2)
Copy OK


All tracks accurately ripped

No errors occurred

End of status report

–– CUETools DB Plugin V2.1.6

[CTDB TOCID: KwiXXbFkV3aVoSwsc4q2s5ccP6U-] found
Submit result: KwiXXbFkV3aVoSwsc4q2s5ccP6U- has been confirmed
Track | CTDB Status
1 | (8/8) Accurately ripped
2 | (8/8) Accurately ripped
3 | (8/8) Accurately ripped
4 | (8/8) Accurately ripped
5 | (8/8) Accurately ripped
6 | (8/8) Accurately ripped
7 | (8/8) Accurately ripped
8 | (8/8) Accurately ripped
9 | (8/8) Accurately ripped
10 | (8/8) Accurately ripped
11 | (8/8) Accurately ripped
12 | (8/8) Accurately ripped
13 | (8/8) Accurately ripped


==== Log checksum 072F771764488C87F2CA22A6AB11FDA59B8D93235D49B47ADCE6E91EC12B41DD ====

––––––––––––––––––––––––––––––

Exact Audio Copy V1.3 from 2. September 2016

EAC extraction logfile from 9. May 2022, 17:22

Charles Mingus / Jazz Composers Workshop - Jazz Collaborations

Used drive : HL-DT-STBD-RE BH16NS55 Adapter: 1 ID: 0

Read mode : Secure
Utilize accurate stream : Yes
Defeat audio cache : Yes
Make use of C2 pointers : No

Read offset correction : 6
Overread into Lead-In and Lead-Out : No
Fill up missing offset samples with silence : Yes
Delete leading and trailing silent blocks : No
Null samples used in CRC calculations : Yes
Used interface : Native Win32 interface for Win NT & 2000
Gap handling : Appended to previous track

Used output format : User Defined Encoder
Selected bitrate : 1024 kBit/s
Quality : High
Add ID3 tag : No
Command line compressor : C:\Program Files (x86)\Exact Audio Copy\Flac\flac.exe
Additional command line options : -8 -V -T "ARTIST=%artist%" -T "TITLE=%title%" -T "ALBUM=%albumtitle%" -T "DATE=%year%" -T "TRACKNUMBER=%tracknr%" -T "GENRE=%genre%" -T "PERFORMER=%albuminterpret%" -T "COMPOSER=%composer%" %haslyrics%–tag-from-file=LYRICS="%lyricsfile%"%haslyrics% -T "ALBUMARTIST=%albumartist%" -T "DISCNUMBER=%cdnumber%" -T "TOTALDISCS=%totalcds%" -T "TOTALTRACKS=%numtracks%" -T "COMMENT=%comment%" %source% -o %dest%


TOC of the extracted CD

Track | Start | Length | Start sector | End sector
––––––––––––––––––––––––––––-
1 | 0:00.00 | 5:38.74 | 0 | 25423
2 | 5:38.74 | 2:53.37 | 25424 | 38435
3 | 8:32.36 | 6:24.46 | 38436 | 67281
4 | 14:57.07 | 6:22.00 | 67282 | 95931
5 | 21:19.07 | 3:16.73 | 95932 | 110704
6 | 24:36.05 | 4:19.22 | 110705 | 130151
7 | 28:55.27 | 4:25.35 | 130152 | 150061
8 | 33:20.62 | 4:15.15 | 150062 | 169201
9 | 37:36.02 | 4:43.37 | 169202 | 190463
10 | 42:19.39 | 4:03.23 | 190464 | 208711
11 | 46:22.62 | 6:12.17 | 208712 | 236628
12 | 52:35.04 | 5:18.66 | 236629 | 260544
13 | 57:53.70 | 7:35.15 | 260545 | 294684


Track 1

Filename F:\#EAC wav+flac\#New\Charles Mingus - Milestones Of A Legend\cd 01\01. Charles Mingus - Purple Heart.wav

Pre-gap length 0:00:02.00

Peak level 96.7 %
Extraction speed 4.3 X
Track quality 99.9 %
Test CRC 8B2451DE
Copy CRC 8B2451DE
Accurately ripped (confidence 2) [DEB713FE] (AR v2)
Copy OK

Track 2

Filename F:\#EAC wav+flac\#New\Charles Mingus - Milestones Of A Legend\cd 01\02. Charles Mingus - Gregarian Chant.wav

Peak level 96.7 %
Extraction speed 4.9 X
Track quality 100.0 %
Test CRC 6E7C3973
Copy CRC 6E7C3973
Accurately ripped (confidence 2) [CBF61D31] (AR v2)
Copy OK

Track 3

Filename F:\#EAC wav+flac\#New\Charles Mingus - Milestones Of A Legend\cd 01\03. Charles Mingus - Elogy Of Rudy Williams.wav

Peak level 96.7 %
Extraction speed 6.0 X
Track quality 100.0 %
Test CRC 4B4C6E47
Copy CRC 4B4C6E47
Accurately ripped (confidence 2) [7FBBFFA9] (AR v2)
Copy OK

Track 4

Filename F:\#EAC wav+flac\#New\Charles Mingus - Milestones Of A Legend\cd 01\04. Charles Mingus - Tea For Two.wav

Peak level 96.7 %
Extraction speed 6.6 X
Track quality 100.0 %
Test CRC 1CB83662
Copy CRC 1CB83662
Accurately ripped (confidence 2) [E9D794CD] (AR v2)
Copy OK

Track 5

Filename F:\#EAC wav+flac\#New\Charles Mingus - Milestones Of A Legend\cd 01\05. Charles Mingus - Smog L.A..wav

Peak level 96.7 %
Extraction speed 6.5 X
Track quality 100.0 %
Test CRC D79965CB
Copy CRC D79965CB
Accurately ripped (confidence 2) [46606A60] (AR v2)
Copy OK

Track 6

Filename F:\#EAC wav+flac\#New\Charles Mingus - Milestones Of A Legend\cd 01\06. Charles Mingus - Level Seven.wav

Peak level 96.7 %
Extraction speed 5.9 X
Track quality 99.9 %
Test CRC 4DFF350E
Copy CRC 4DFF350E
Accurately ripped (confidence 2) [A88A776C] (AR v2)
Copy OK

Track 7

Filename F:\#EAC wav+flac\#New\Charles Mingus - Milestones Of A Legend\cd 01\07. Charles Mingus - Transocean.wav

Peak level 96.7 %
Extraction speed 7.5 X
Track quality 100.0 %
Test CRC 1CA22C6B
Copy CRC 1CA22C6B
Accurately ripped (confidence 2) [6B20A4FB] (AR v2)
Copy OK

Track 8

Filename F:\#EAC wav+flac\#New\Charles Mingus - Milestones Of A Legend\cd 01\08. Charles Mingus - Rose Geranium.wav

Peak level 96.7 %
Extraction speed 7.6 X
Track quality 100.0 %
Test CRC 590E73EF
Copy CRC 590E73EF
Accurately ripped (confidence 2) [FD95F6AD] (AR v2)
Copy OK

Track 9

Filename F:\#EAC wav+flac\#New\Charles Mingus - Milestones Of A Legend\cd 01\09. Charles Mingus - Getting Together.wav

Peak level 96.7 %
Extraction speed 6.8 X
Track quality 99.9 %
Test CRC 3439F2BE
Copy CRC 3439F2BE
Accurately ripped (confidence 2) [5F06D904] (AR v2)
Copy OK

Track 10

Filename F:\#EAC wav+flac\#New\Charles Mingus - Milestones Of A Legend\cd 01\10. Charles Mingus - One More.wav

Peak level 96.7 %
Extraction speed 8.2 X
Track quality 100.0 %
Test CRC 303B80D6
Copy CRC 303B80D6
Accurately ripped (confidence 2) [A5B0C07D] (AR v2)
Copy OK

Track 11

Filename F:\#EAC wav+flac\#New\Charles Mingus - Milestones Of A Legend\cd 01\11. Charles Mingus - I Can't Get Started.wav

Peak level 96.7 %
Extraction speed 8.8 X
Track quality 100.0 %
Test CRC EA69A0EE
Copy CRC EA69A0EE
Accurately ripped (confidence 2) [18292825] (AR v2)
Copy OK

Track 12

Filename F:\#EAC wav+flac\#New\Charles Mingus - Milestones Of A Legend\cd 01\12. Charles Mingus - More Of The Same.wav

Peak level 96.7 %
Extraction speed 9.1 X
Track quality 100.0 %
Test CRC AEC71BEE
Copy CRC AEC71BEE
Accurately ripped (confidence 2) [EC682AB3] (AR v2)
Copy OK

Track 13

Filename F:\#EAC wav+flac\#New\Charles Mingus - Milestones Of A Legend\cd 01\13. Charles Mingus - Get Out Of The Town.wav

Peak level 96.7 %
Extraction speed 8.7 X
Track quality 99.9 %
Test CRC BFBB9731
Copy CRC BFBB9731
Accurately ripped (confidence 2) [4A1D7521] (AR v2)
Copy OK


All tracks accurately ripped

No errors occurred

End of status report

–– CUETools DB Plugin V2.1.6

[CTDB TOCID: KwiXXbFkV3aVoSwsc4q2s5ccP6U-] found
Submit result: KwiXXbFkV3aVoSwsc4q2s5ccP6U- has been confirmed
Track | CTDB Status
1 | (8/8) Accurately ripped
2 | (8/8) Accurately ripped
3 | (8/8) Accurately ripped
4 | (8/8) Accurately ripped
5 | (8/8) Accurately ripped
6 | (8/8) Accurately ripped
7 | (8/8) Accurately ripped
8 | (8/8) Accurately ripped
9 | (8/8) Accurately ripped
10 | (8/8) Accurately ripped
11 | (8/8) Accurately ripped
12 | (8/8) Accurately ripped
13 | (8/8) Accurately ripped


==== Log checksum 072F771764488C87F2CA22A6AB11FDA59B8D93235D49B47ADCE6E91EC12B41DD ====


Exact Audio Copy V1.3 from 2. September 2016

EAC extraction logfile from 9. May 2022, 17:39

Charles Mingus / Charles Mingus Presents Charles Mingus

Used drive : HL-DT-STBD-RE BH16NS55 Adapter: 1 ID: 0

Read mode : Secure
Utilize accurate stream : Yes
Defeat audio cache : Yes
Make use of C2 pointers : No

Read offset correction : 6
Overread into Lead-In and Lead-Out : No
Fill up missing offset samples with silence : Yes
Delete leading and trailing silent blocks : No
Null samples used in CRC calculations : Yes
Used interface : Native Win32 interface for Win NT & 2000
Gap handling : Appended to previous track

Used output format : User Defined Encoder
Selected bitrate : 1024 kBit/s
Quality : High
Add ID3 tag : No
Command line compressor : C:\Program Files (x86)\Exact Audio Copy\Flac\flac.exe
Additional command line options : -8 -V -T "ARTIST=%artist%" -T "TITLE=%title%" -T "ALBUM=%albumtitle%" -T "DATE=%year%" -T "TRACKNUMBER=%tracknr%" -T "GENRE=%genre%" -T "PERFORMER=%albuminterpret%" -T "COMPOSER=%composer%" %haslyrics%–tag-from-file=LYRICS="%lyricsfile%"%haslyrics% -T "ALBUMARTIST=%albumartist%" -T "DISCNUMBER=%cdnumber%" -T "TOTALDISCS=%totalcds%" -T "TOTALTRACKS=%numtracks%" -T "COMMENT=%comment%" %source% -o %dest%


TOC of the extracted CD

Track | Start | Length | Start sector | End sector
––––––––––––––––––––––––––––-
1 | 0:00.00 | 13:07.01 | 0 | 59025
2 | 13:07.01 | 9:20.03 | 59026 | 101028
3 | 22:27.04 | 15:24.36 | 101029 | 170364
4 | 37:51.40 | 8:35.69 | 170365 | 209058


Track 1

Filename F:\#EAC wav+flac\#New\Charles Mingus - Milestones Of A Legend\cd 02\01. Charles Mingus - Folk Forms, No. 1.wav

Pre-gap length 0:00:02.00

Peak level 96.7 %
Extraction speed 5.6 X
Track quality 100.0 %
Test CRC A82BCA79
Copy CRC A82BCA79
Accurately ripped (confidence 2) [BD0B95EE] (AR v2)
Copy OK

Track 2

Filename F:\#EAC wav+flac\#New\Charles Mingus - Milestones Of A Legend\cd 02\02. Charles Mingus - Original Faubus Fables.wav

Peak level 96.7 %
Extraction speed 6.2 X
Track quality 99.9 %
Test CRC E89EBC00
Copy CRC E89EBC00
Accurately ripped (confidence 2) [D1233AA3] (AR v2)
Copy OK

Track 3

Filename F:\#EAC wav+flac\#New\Charles Mingus - Milestones Of A Legend\cd 02\03. Charles Mingus - What Love.wav

Peak level 96.7 %
Extraction speed 8.0 X
Track quality 100.0 %
Test CRC 40F786F9
Copy CRC 40F786F9
Accurately ripped (confidence 2) [99551622] (AR v2)
Copy OK

Track 4

Filename F:\#EAC wav+flac\#New\Charles Mingus - Milestones Of A Legend\cd 02\04. Charles Mingus - All the Things You Could Be by Now If Sigmund Freud’s Wife Was Your Mother.wav

Peak level 96.7 %
Extraction speed 7.7 X
Track quality 99.9 %
Test CRC 390B353F
Copy CRC 390B353F
Accurately ripped (confidence 2) [8FC302F4] (AR v2)
Copy OK


All tracks accurately ripped

No errors occurred

End of status report

–– CUETools DB Plugin V2.1.6

[CTDB TOCID: TsRiyJboGGSD7c2iuOrgMQA.d1M-] found
Submit result: TsRiyJboGGSD7c2iuOrgMQA.d1M- has been confirmed
Track | CTDB Status
1 | (12/12) Accurately ripped
2 | (12/12) Accurately ripped
3 | (12/12) Accurately ripped
4 | (12/12) Accurately ripped


==== Log checksum 163AEBA5E5BBA5D2A689095DB77E7E0031B179CD8E4DAC73F8BCDD23E3FBC1E1 ====

––––––––––––––––––––––––––––––

Exact Audio Copy V1.3 from 2. September 2016

EAC extraction logfile from 9. May 2022, 17:39

Charles Mingus / Charles Mingus Presents Charles Mingus

Used drive : HL-DT-STBD-RE BH16NS55 Adapter: 1 ID: 0

Read mode : Secure
Utilize accurate stream : Yes
Defeat audio cache : Yes
Make use of C2 pointers : No

Read offset correction : 6
Overread into Lead-In and Lead-Out : No
Fill up missing offset samples with silence : Yes
Delete leading and trailing silent blocks : No
Null samples used in CRC calculations : Yes
Used interface : Native Win32 interface for Win NT & 2000
Gap handling : Appended to previous track

Used output format : User Defined Encoder
Selected bitrate : 1024 kBit/s
Quality : High
Add ID3 tag : No
Command line compressor : C:\Program Files (x86)\Exact Audio Copy\Flac\flac.exe
Additional command line options : -8 -V -T "ARTIST=%artist%" -T "TITLE=%title%" -T "ALBUM=%albumtitle%" -T "DATE=%year%" -T "TRACKNUMBER=%tracknr%" -T "GENRE=%genre%" -T "PERFORMER=%albuminterpret%" -T "COMPOSER=%composer%" %haslyrics%–tag-from-file=LYRICS="%lyricsfile%"%haslyrics% -T "ALBUMARTIST=%albumartist%" -T "DISCNUMBER=%cdnumber%" -T "TOTALDISCS=%totalcds%" -T "TOTALTRACKS=%numtracks%" -T "COMMENT=%comment%" %source% -o %dest%


TOC of the extracted CD

Track | Start | Length | Start sector | End sector
––––––––––––––––––––––––––––-
1 | 0:00.00 | 13:07.01 | 0 | 59025
2 | 13:07.01 | 9:20.03 | 59026 | 101028
3 | 22:27.04 | 15:24.36 | 101029 | 170364
4 | 37:51.40 | 8:35.69 | 170365 | 209058


Track 1

Filename F:\#EAC wav+flac\#New\Charles Mingus - Milestones Of A Legend\cd 02\01. Charles Mingus - Folk Forms, No. 1.wav

Pre-gap length 0:00:02.00

Peak level 96.7 %
Extraction speed 5.6 X
Track quality 100.0 %
Test CRC A82BCA79
Copy CRC A82BCA79
Accurately ripped (confidence 2) [BD0B95EE] (AR v2)
Copy OK

Track 2

Filename F:\#EAC wav+flac\#New\Charles Mingus - Milestones Of A Legend\cd 02\02. Charles Mingus - Original Faubus Fables.wav

Peak level 96.7 %
Extraction speed 6.2 X
Track quality 99.9 %
Test CRC E89EBC00
Copy CRC E89EBC00
Accurately ripped (confidence 2) [D1233AA3] (AR v2)
Copy OK

Track 3

Filename F:\#EAC wav+flac\#New\Charles Mingus - Milestones Of A Legend\cd 02\03. Charles Mingus - What Love.wav

Peak level 96.7 %
Extraction speed 8.0 X
Track quality 100.0 %
Test CRC 40F786F9
Copy CRC 40F786F9
Accurately ripped (confidence 2) [99551622] (AR v2)
Copy OK

Track 4

Filename F:\#EAC wav+flac\#New\Charles Mingus - Milestones Of A Legend\cd 02\04. Charles Mingus - All the Things You Could Be by Now If Sigmund Freud’s Wife Was Your Mother.wav

Peak level 96.7 %
Extraction speed 7.7 X
Track quality 99.9 %
Test CRC 390B353F
Copy CRC 390B353F
Accurately ripped (confidence 2) [8FC302F4] (AR v2)
Copy OK


All tracks accurately ripped

No errors occurred

End of status report

–– CUETools DB Plugin V2.1.6

[CTDB TOCID: TsRiyJboGGSD7c2iuOrgMQA.d1M-] found
Submit result: TsRiyJboGGSD7c2iuOrgMQA.d1M- has been confirmed
Track | CTDB Status
1 | (12/12) Accurately ripped
2 | (12/12) Accurately ripped
3 | (12/12) Accurately ripped
4 | (12/12) Accurately ripped


==== Log checksum 163AEBA5E5BBA5D2A689095DB77E7E0031B179CD8E4DAC73F8BCDD23E3FBC1E1 ====


Exact Audio Copy V1.3 from 2. September 2016

EAC extraction logfile from 9. May 2022, 18:23

Charles Mingus / Mingus At The Bohemia - Pre Bird

Used drive : HL-DT-STBD-RE BH16NS55 Adapter: 1 ID: 0

Read mode : Secure
Utilize accurate stream : Yes
Defeat audio cache : Yes
Make use of C2 pointers : No

Read offset correction : 6
Overread into Lead-In and Lead-Out : No
Fill up missing offset samples with silence : Yes
Delete leading and trailing silent blocks : No
Null samples used in CRC calculations : Yes
Used interface : Native Win32 interface for Win NT & 2000
Gap handling : Appended to previous track

Used output format : User Defined Encoder
Selected bitrate : 1024 kBit/s
Quality : High
Add ID3 tag : No
Command line compressor : C:\Program Files (x86)\Exact Audio Copy\Flac\flac.exe
Additional command line options : -8 -V -T "ARTIST=%artist%" -T "TITLE=%title%" -T "ALBUM=%albumtitle%" -T "DATE=%year%" -T "TRACKNUMBER=%tracknr%" -T "GENRE=%genre%" -T "PERFORMER=%albuminterpret%" -T "COMPOSER=%composer%" %haslyrics%–tag-from-file=LYRICS="%lyricsfile%"%haslyrics% -T "ALBUMARTIST=%albumartist%" -T "DISCNUMBER=%cdnumber%" -T "TOTALDISCS=%totalcds%" -T "TOTALTRACKS=%numtracks%" -T "COMMENT=%comment%" %source% -o %dest%


TOC of the extracted CD

Track | Start | Length | Start sector | End sector
––––––––––––––––––––––––––––-
1 | 0:00.00 | 6:55.47 | 0 | 31171
2 | 6:55.47 | 6:04.59 | 31172 | 58530
3 | 13:00.31 | 8:40.69 | 58531 | 97599
4 | 21:41.25 | 6:31.10 | 97600 | 126934
5 | 28:12.35 | 7:08.47 | 126935 | 159081
6 | 35:21.07 | 6:59.03 | 159082 | 190509
7 | 42:20.10 | 3:39.11 | 190510 | 206945
8 | 45:59.21 | 3:53.50 | 206946 | 224470
9 | 49:52.71 | 3:59.53 | 224471 | 242448
10 | 53:52.49 | 3:38.27 | 242449 | 258825
11 | 57:31.01 | 3:39.74 | 258826 | 275324
12 | 61:11.00 | 3:39.60 | 275325 | 291809
13 | 64:50.60 | 4:27.18 | 291810 | 311852
14 | 69:18.03 | 8:14.29 | 311853 | 348931


Track 1

Filename F:\#EAC wav+flac\#New\Charles Mingus - Milestones Of A Legend\cd 03\01. Charles Mingus - Jump Monk.wav

Pre-gap length 0:00:02.00

Peak level 93.2 %
Extraction speed 4.8 X
Track quality 99.9 %
Test CRC E22006C6
Copy CRC E22006C6
Accurately ripped (confidence 2) [9F5918C9] (AR v2)
Copy OK

Track 2

Filename F:\#EAC wav+flac\#New\Charles Mingus - Milestones Of A Legend\cd 03\02. Charles Mingus - Serenade In Blue.wav

Peak level 93.2 %
Extraction speed 6.0 X
Track quality 100.0 %
Test CRC FC77336B
Copy CRC FC77336B
Accurately ripped (confidence 2) [15F3A092] (AR v2)
Copy OK

Track 3

Filename F:\#EAC wav+flac\#New\Charles Mingus - Milestones Of A Legend\cd 03\03. Charles Mingus - Percussion Discussion.wav

Peak level 93.2 %
Extraction speed 6.3 X
Track quality 99.9 %
Test CRC 33739032
Copy CRC 33739032
Accurately ripped (confidence 2) [0B1C51E5] (AR v2)
Copy OK

Track 4

Filename F:\#EAC wav+flac\#New\Charles Mingus - Milestones Of A Legend\cd 03\04. Charles Mingus - Work Song.wav

Peak level 93.2 %
Extraction speed 7.3 X
Track quality 100.0 %
Test CRC 34904A8D
Copy CRC 34904A8D
Accurately ripped (confidence 2) [BC5C722B] (AR v2)
Copy OK

Track 5

Filename F:\#EAC wav+flac\#New\Charles Mingus - Milestones Of A Legend\cd 03\05. Charles Mingus - Septemberly.wav

Peak level 96.3 %
Extraction speed 7.0 X
Track quality 99.9 %
Test CRC 97ED5F38
Copy CRC 97ED5F38
Accurately ripped (confidence 2) [D3A5D1FB] (AR v2)
Copy OK

Track 6

Filename F:\#EAC wav+flac\#New\Charles Mingus - Milestones Of A Legend\cd 03\06. Charles Mingus - All The Thing You C-Sharp.wav

Peak level 93.2 %
Extraction speed 8.4 X
Track quality 100.0 %
Test CRC 5999EB20
Copy CRC 5999EB20
Accurately ripped (confidence 2) [F7D2CC00] (AR v2)
Copy OK

Track 7

Filename F:\#EAC wav+flac\#New\Charles Mingus - Milestones Of A Legend\cd 03\07. Charles Mingus - Take The 'a' Train.wav

Peak level 93.2 %
Extraction speed 8.2 X
Track quality 100.0 %
Test CRC 6C099369
Copy CRC 6C099369
Accurately ripped (confidence 2) [B5D803A8] (AR v2)
Copy OK

Track 8

Filename F:\#EAC wav+flac\#New\Charles Mingus - Milestones Of A Legend\cd 03\08. Charles Mingus - Prayer For Passive Resistance.wav

Peak level 93.2 %
Extraction speed 8.5 X
Track quality 100.0 %
Test CRC 5293D090
Copy CRC 5293D090
Accurately ripped (confidence 2) [5E675ED4] (AR v2)
Copy OK

Track 9

Filename F:\#EAC wav+flac\#New\Charles Mingus - Milestones Of A Legend\cd 03\09. Charles Mingus - Eclipse.wav

Peak level 93.2 %
Extraction speed 7.2 X
Track quality 99.9 %
Test CRC 4A6D2E29
Copy CRC 4A6D2E29
Accurately ripped (confidence 2) [8DEB85D5] (AR v2)
Copy OK

Track 10

Filename F:\#EAC wav+flac\#New\Charles Mingus - Milestones Of A Legend\cd 03\10. Charles Mingus - Mingus Fingus No. 2.wav

Peak level 93.2 %
Extraction speed 8.9 X
Track quality 100.0 %
Test CRC CE0C6D81
Copy CRC CE0C6D81
Accurately ripped (confidence 2) [A7E40590] (AR v2)
Copy OK

Track 11

Filename F:\#EAC wav+flac\#New\Charles Mingus - Milestones Of A Legend\cd 03\11. Charles Mingus - Weird Nightmare.wav

Peak level 93.2 %
Extraction speed 9.0 X
Track quality 100.0 %
Test CRC 106DF7BB
Copy CRC 106DF7BB
Accurately ripped (confidence 2) [298CF153] (AR v2)
Copy OK

Track 12

Filename F:\#EAC wav+flac\#New\Charles Mingus - Milestones Of A Legend\cd 03\12. Charles Mingus - Do Nothin' Till You Hear From Me.wav

Peak level 93.2 %
Extraction speed 9.2 X
Track quality 100.0 %
Test CRC 8EA70FE9
Copy CRC 8EA70FE9
Accurately ripped (confidence 2) [12E9F7CD] (AR v2)
Copy OK

Track 13

Filename F:\#EAC wav+flac\#New\Charles Mingus - Milestones Of A Legend\cd 03\13. Charles Mingus - Bemoanable Lady.wav

Peak level 93.2 %
Extraction speed 8.1 X
Track quality 99.9 %
Test CRC 7708AC7F
Copy CRC 7708AC7F
Accurately ripped (confidence 2) [A6904719] (AR v2)
Copy OK

Track 14

Filename F:\#EAC wav+flac\#New\Charles Mingus - Milestones Of A Legend\cd 03\14. Charles Mingus - Half-Mast Inhibition.wav

Peak level 93.2 %
Extraction speed 10.5 X
Track quality 100.0 %
Test CRC 98434692
Copy CRC 98434692
Accurately ripped (confidence 1) [072179CE] (AR v2)
Copy OK


All tracks accurately ripped

No errors occurred

End of status report

–– CUETools DB Plugin V2.1.6

[CTDB TOCID: ZhpbiYNNTLR89B1Pv_i.EcCemus-] found
Submit result: ZhpbiYNNTLR89B1Pv_i.EcCemus- has been confirmed
Track | CTDB Status
1 | (5/5) Accurately ripped
2 | (5/5) Accurately ripped
3 | (5/5) Accurately ripped
4 | (5/5) Accurately ripped
5 | (5/5) Accurately ripped
6 | (5/5) Accurately ripped
7 | (5/5) Accurately ripped
8 | (5/5) Accurately ripped
9 | (5/5) Accurately ripped
10 | (5/5) Accurately ripped
11 | (5/5) Accurately ripped
12 | (5/5) Accurately ripped
13 | (5/5) Accurately ripped
14 | (5/5) Accurately ripped


==== Log checksum F720A4E93C771E9FFEFEA9ED4CECC0F40C818031590D611D55112E05503F2FE8 ====

––––––––––––––––––––––––––––––

Exact Audio Copy V1.3 from 2. September 2016

EAC extraction logfile from 9. May 2022, 18:23

Charles Mingus / Mingus At The Bohemia - Pre Bird

Used drive : HL-DT-STBD-RE BH16NS55 Adapter: 1 ID: 0

Read mode : Secure
Utilize accurate stream : Yes
Defeat audio cache : Yes
Make use of C2 pointers : No

Read offset correction : 6
Overread into Lead-In and Lead-Out : No
Fill up missing offset samples with silence : Yes
Delete leading and trailing silent blocks : No
Null samples used in CRC calculations : Yes
Used interface : Native Win32 interface for Win NT & 2000
Gap handling : Appended to previous track

Used output format : User Defined Encoder
Selected bitrate : 1024 kBit/s
Quality : High
Add ID3 tag : No
Command line compressor : C:\Program Files (x86)\Exact Audio Copy\Flac\flac.exe
Additional command line options : -8 -V -T "ARTIST=%artist%" -T "TITLE=%title%" -T "ALBUM=%albumtitle%" -T "DATE=%year%" -T "TRACKNUMBER=%tracknr%" -T "GENRE=%genre%" -T "PERFORMER=%albuminterpret%" -T "COMPOSER=%composer%" %haslyrics%–tag-from-file=LYRICS="%lyricsfile%"%haslyrics% -T "ALBUMARTIST=%albumartist%" -T "DISCNUMBER=%cdnumber%" -T "TOTALDISCS=%totalcds%" -T "TOTALTRACKS=%numtracks%" -T "COMMENT=%comment%" %source% -o %dest%


TOC of the extracted CD

Track | Start | Length | Start sector | End sector
––––––––––––––––––––––––––––-
1 | 0:00.00 | 6:55.47 | 0 | 31171
2 | 6:55.47 | 6:04.59 | 31172 | 58530
3 | 13:00.31 | 8:40.69 | 58531 | 97599
4 | 21:41.25 | 6:31.10 | 97600 | 126934
5 | 28:12.35 | 7:08.47 | 126935 | 159081
6 | 35:21.07 | 6:59.03 | 159082 | 190509
7 | 42:20.10 | 3:39.11 | 190510 | 206945
8 | 45:59.21 | 3:53.50 | 206946 | 224470
9 | 49:52.71 | 3:59.53 | 224471 | 242448
10 | 53:52.49 | 3:38.27 | 242449 | 258825
11 | 57:31.01 | 3:39.74 | 258826 | 275324
12 | 61:11.00 | 3:39.60 | 275325 | 291809
13 | 64:50.60 | 4:27.18 | 291810 | 311852
14 | 69:18.03 | 8:14.29 | 311853 | 348931


Track 1

Filename F:\#EAC wav+flac\#New\Charles Mingus - Milestones Of A Legend\cd 03\01. Charles Mingus - Jump Monk.wav

Pre-gap length 0:00:02.00

Peak level 93.2 %
Extraction speed 4.8 X
Track quality 99.9 %
Test CRC E22006C6
Copy CRC E22006C6
Accurately ripped (confidence 2) [9F5918C9] (AR v2)
Copy OK

Track 2

Filename F:\#EAC wav+flac\#New\Charles Mingus - Milestones Of A Legend\cd 03\02. Charles Mingus - Serenade In Blue.wav

Peak level 93.2 %
Extraction speed 6.0 X
Track quality 100.0 %
Test CRC FC77336B
Copy CRC FC77336B
Accurately ripped (confidence 2) [15F3A092] (AR v2)
Copy OK

Track 3

Filename F:\#EAC wav+flac\#New\Charles Mingus - Milestones Of A Legend\cd 03\03. Charles Mingus - Percussion Discussion.wav

Peak level 93.2 %
Extraction speed 6.3 X
Track quality 99.9 %
Test CRC 33739032
Copy CRC 33739032
Accurately ripped (confidence 2) [0B1C51E5] (AR v2)
Copy OK

Track 4

Filename F:\#EAC wav+flac\#New\Charles Mingus - Milestones Of A Legend\cd 03\04. Charles Mingus - Work Song.wav

Peak level 93.2 %
Extraction speed 7.3 X
Track quality 100.0 %
Test CRC 34904A8D
Copy CRC 34904A8D
Accurately ripped (confidence 2) [BC5C722B] (AR v2)
Copy OK

Track 5

Filename F:\#EAC wav+flac\#New\Charles Mingus - Milestones Of A Legend\cd 03\05. Charles Mingus - Septemberly.wav

Peak level 96.3 %
Extraction speed 7.0 X
Track quality 99.9 %
Test CRC 97ED5F38
Copy CRC 97ED5F38
Accurately ripped (confidence 2) [D3A5D1FB] (AR v2)
Copy OK

Track 6

Filename F:\#EAC wav+flac\#New\Charles Mingus - Milestones Of A Legend\cd 03\06. Charles Mingus - All The Thing You C-Sharp.wav

Peak level 93.2 %
Extraction speed 8.4 X
Track quality 100.0 %
Test CRC 5999EB20
Copy CRC 5999EB20
Accurately ripped (confidence 2) [F7D2CC00] (AR v2)
Copy OK

Track 7

Filename F:\#EAC wav+flac\#New\Charles Mingus - Milestones Of A Legend\cd 03\07. Charles Mingus - Take The 'a' Train.wav

Peak level 93.2 %
Extraction speed 8.2 X
Track quality 100.0 %
Test CRC 6C099369
Copy CRC 6C099369
Accurately ripped (confidence 2) [B5D803A8] (AR v2)
Copy OK

Track 8

Filename F:\#EAC wav+flac\#New\Charles Mingus - Milestones Of A Legend\cd 03\08. Charles Mingus - Prayer For Passive Resistance.wav

Peak level 93.2 %
Extraction speed 8.5 X
Track quality 100.0 %
Test CRC 5293D090
Copy CRC 5293D090
Accurately ripped (confidence 2) [5E675ED4] (AR v2)
Copy OK

Track 9

Filename F:\#EAC wav+flac\#New\Charles Mingus - Milestones Of A Legend\cd 03\09. Charles Mingus - Eclipse.wav

Peak level 93.2 %
Extraction speed 7.2 X
Track quality 99.9 %
Test CRC 4A6D2E29
Copy CRC 4A6D2E29
Accurately ripped (confidence 2) [8DEB85D5] (AR v2)
Copy OK

Track 10

Filename F:\#EAC wav+flac\#New\Charles Mingus - Milestones Of A Legend\cd 03\10. Charles Mingus - Mingus Fingus No. 2.wav

Peak level 93.2 %
Extraction speed 8.9 X
Track quality 100.0 %
Test CRC CE0C6D81
Copy CRC CE0C6D81
Accurately ripped (confidence 2) [A7E40590] (AR v2)
Copy OK

Track 11

Filename F:\#EAC wav+flac\#New\Charles Mingus - Milestones Of A Legend\cd 03\11. Charles Mingus - Weird Nightmare.wav

Peak level 93.2 %
Extraction speed 9.0 X
Track quality 100.0 %
Test CRC 106DF7BB
Copy CRC 106DF7BB
Accurately ripped (confidence 2) [298CF153] (AR v2)
Copy OK

Track 12

Filename F:\#EAC wav+flac\#New\Charles Mingus - Milestones Of A Legend\cd 03\12. Charles Mingus - Do Nothin' Till You Hear From Me.wav

Peak level 93.2 %
Extraction speed 9.2 X
Track quality 100.0 %
Test CRC 8EA70FE9
Copy CRC 8EA70FE9
Accurately ripped (confidence 2) [12E9F7CD] (AR v2)
Copy OK

Track 13

Filename F:\#EAC wav+flac\#New\Charles Mingus - Milestones Of A Legend\cd 03\13. Charles Mingus - Bemoanable Lady.wav

Peak level 93.2 %
Extraction speed 8.1 X
Track quality 99.9 %
Test CRC 7708AC7F
Copy CRC 7708AC7F
Accurately ripped (confidence 2) [A6904719] (AR v2)
Copy OK

Track 14

Filename F:\#EAC wav+flac\#New\Charles Mingus - Milestones Of A Legend\cd 03\14. Charles Mingus - Half-Mast Inhibition.wav

Peak level 93.2 %
Extraction speed 10.5 X
Track quality 100.0 %
Test CRC 98434692
Copy CRC 98434692
Accurately ripped (confidence 1) [072179CE] (AR v2)
Copy OK


All tracks accurately ripped

No errors occurred

End of status report

–– CUETools DB Plugin V2.1.6

[CTDB TOCID: ZhpbiYNNTLR89B1Pv_i.EcCemus-] found
Submit result: ZhpbiYNNTLR89B1Pv_i.EcCemus- has been confirmed
Track | CTDB Status
1 | (5/5) Accurately ripped
2 | (5/5) Accurately ripped
3 | (5/5) Accurately ripped
4 | (5/5) Accurately ripped
5 | (5/5) Accurately ripped
6 | (5/5) Accurately ripped
7 | (5/5) Accurately ripped
8 | (5/5) Accurately ripped
9 | (5/5) Accurately ripped
10 | (5/5) Accurately ripped
11 | (5/5) Accurately ripped
12 | (5/5) Accurately ripped
13 | (5/5) Accurately ripped
14 | (5/5) Accurately ripped


==== Log checksum F720A4E93C771E9FFEFEA9ED4CECC0F40C818031590D611D55112E05503F2FE8 ====


Exact Audio Copy V1.3 from 2. September 2016

EAC extraction logfile from 10. May 2022, 21:04

Charles Mingus / The Clown - Tijuana Moods

Used drive : HL-DT-STBD-RE BH16NS55 Adapter: 1 ID: 0

Read mode : Secure
Utilize accurate stream : Yes
Defeat audio cache : Yes
Make use of C2 pointers : No

Read offset correction : 6
Overread into Lead-In and Lead-Out : No
Fill up missing offset samples with silence : Yes
Delete leading and trailing silent blocks : No
Null samples used in CRC calculations : Yes
Used interface : Native Win32 interface for Win NT & 2000
Gap handling : Appended to previous track

Used output format : User Defined Encoder
Selected bitrate : 1024 kBit/s
Quality : High
Add ID3 tag : No
Command line compressor : C:\Program Files (x86)\Exact Audio Copy\Flac\flac.exe
Additional command line options : -8 -V -T "ARTIST=%artist%" -T "TITLE=%title%" -T "ALBUM=%albumtitle%" -T "DATE=%year%" -T "TRACKNUMBER=%tracknr%" -T "GENRE=%genre%" -T "PERFORMER=%albuminterpret%" -T "COMPOSER=%composer%" %haslyrics%–tag-from-file=LYRICS="%lyricsfile%"%haslyrics% -T "ALBUMARTIST=%albumartist%" -T "DISCNUMBER=%cdnumber%" -T "TOTALDISCS=%totalcds%" -T "TOTALTRACKS=%numtracks%" -T "COMMENT=%comment%" %source% -o %dest%


TOC of the extracted CD

Track | Start | Length | Start sector | End sector
––––––––––––––––––––––––––––-
1 | 0:00.00 | 12:07.00 | 0 | 54524
2 | 12:07.00 | 7:56.34 | 54525 | 90258
3 | 20:03.34 | 8:37.35 | 90259 | 129068
4 | 28:40.69 | 12:14.57 | 129069 | 184175
5 | 40:55.51 | 5:55.22 | 184176 | 210822
6 | 46:50.73 | 10:30.28 | 210823 | 258100
7 | 57:21.26 | 3:51.44 | 258101 | 275469
8 | 61:12.70 | 10:24.66 | 275470 | 322335
9 | 71:37.61 | 5:35.73 | 322336 | 347533


Track 1

Filename F:\#EAC wav+flac\#New\Charles Mingus - Milestones Of A Legend\cd 06\01. Charles Mingus - Haitian Fight Song.wav

Pre-gap length 0:00:02.00

Peak level 96.7 %
Extraction speed 5.8 X
Track quality 100.0 %
Test CRC 16AAAFF6
Copy CRC 16AAAFF6
Accurately ripped (confidence 2) [1C6892B5] (AR v2)
Copy OK

Track 2

Filename F:\#EAC wav+flac\#New\Charles Mingus - Milestones Of A Legend\cd 06\02. Charles Mingus - Blue Cee.wav

Peak level 96.7 %
Extraction speed 6.6 X
Track quality 100.0 %
Test CRC B4F64145
Copy CRC B4F64145
Accurately ripped (confidence 2) [E5262103] (AR v2)
Copy OK

Track 3

Filename F:\#EAC wav+flac\#New\Charles Mingus - Milestones Of A Legend\cd 06\03. Charles Mingus - Reincarnation Of A Lovebird.wav

Peak level 96.7 %
Extraction speed 7.4 X
Track quality 100.0 %
Test CRC 72EC7F75
Copy CRC 72EC7F75
Accurately ripped (confidence 2) [246EE504] (AR v2)
Copy OK

Track 4

Filename F:\#EAC wav+flac\#New\Charles Mingus - Milestones Of A Legend\cd 06\04. Charles Mingus - The Clown.wav

Peak level 96.7 %
Extraction speed 8.4 X
Track quality 100.0 %
Test CRC 476C9AC1
Copy CRC 476C9AC1
Accurately ripped (confidence 2) [F5DB0848] (AR v2)
Copy OK

Track 5

Filename F:\#EAC wav+flac\#New\Charles Mingus - Milestones Of A Legend\cd 06\05. Charles Mingus - Dizzy Moods.wav

Peak level 96.7 %
Extraction speed 8.5 X
Track quality 100.0 %
Test CRC 6D416FF5
Copy CRC 6D416FF5
Accurately ripped (confidence 2) [FB101FE0] (AR v2)
Copy OK

Track 6

Filename F:\#EAC wav+flac\#New\Charles Mingus - Milestones Of A Legend\cd 06\06. Charles Mingus - Ysabel´s Table Dance.wav

Peak level 96.7 %
Extraction speed 9.5 X
Track quality 100.0 %
Test CRC 972CF3C3
Copy CRC 972CF3C3
Accurately ripped (confidence 2) [E67C9044] (AR v2)
Copy OK

Track 7

Filename F:\#EAC wav+flac\#New\Charles Mingus - Milestones Of A Legend\cd 06\07. Charles Mingus - Tijuana Gift Shop.wav

Peak level 96.7 %
Extraction speed 9.2 X
Track quality 100.0 %
Test CRC EB39032C
Copy CRC EB39032C
Accurately ripped (confidence 2) [D87897BA] (AR v2)
Copy OK

Track 8

Filename F:\#EAC wav+flac\#New\Charles Mingus - Milestones Of A Legend\cd 06\08. Charles Mingus - Los Mariachis (The Street Musicians).wav

Peak level 96.7 %
Extraction speed 10.2 X
Track quality 100.0 %
Test CRC E6651CDE
Copy CRC E6651CDE
Accurately ripped (confidence 2) [2E820A6D] (AR v2)
Copy OK

Track 9

Filename F:\#EAC wav+flac\#New\Charles Mingus - Milestones Of A Legend\cd 06\09. Charles Mingus - Flamingo.wav

Peak level 96.7 %
Extraction speed 8.5 X
Track quality 99.9 %
Test CRC 28F62362
Copy CRC 28F62362
Accurately ripped (confidence 2) [A3B428FF] (AR v2)
Copy OK


All tracks accurately ripped

No errors occurred

End of status report

–– CUETools DB Plugin V2.1.6

[CTDB TOCID: d1GqVVBGFrMSdfEWjLRY6p35APk-] found
Submit result: d1GqVVBGFrMSdfEWjLRY6p35APk- has been confirmed
Track | CTDB Status
1 | (4/4) Accurately ripped
2 | (4/4) Accurately ripped
3 | (4/4) Accurately ripped
4 | (4/4) Accurately ripped
5 | (4/4) Accurately ripped
6 | (4/4) Accurately ripped
7 | (4/4) Accurately ripped
8 | (4/4) Accurately ripped
9 | (4/4) Accurately ripped


==== Log checksum 1EF47918713C37A3B60760CDA86CAE5AC0015763BAC58D659ABB7BAD8FA48F83 ====

––––––––––––––––––––––––––––––

Exact Audio Copy V1.3 from 2. September 2016

EAC extraction logfile from 10. May 2022, 21:04

Charles Mingus / The Clown - Tijuana Moods

Used drive : HL-DT-STBD-RE BH16NS55 Adapter: 1 ID: 0

Read mode : Secure
Utilize accurate stream : Yes
Defeat audio cache : Yes
Make use of C2 pointers : No

Read offset correction : 6
Overread into Lead-In and Lead-Out : No
Fill up missing offset samples with silence : Yes
Delete leading and trailing silent blocks : No
Null samples used in CRC calculations : Yes
Used interface : Native Win32 interface for Win NT & 2000
Gap handling : Appended to previous track

Used output format : User Defined Encoder
Selected bitrate : 1024 kBit/s
Quality : High
Add ID3 tag : No
Command line compressor : C:\Program Files (x86)\Exact Audio Copy\Flac\flac.exe
Additional command line options : -8 -V -T "ARTIST=%artist%" -T "TITLE=%title%" -T "ALBUM=%albumtitle%" -T "DATE=%year%" -T "TRACKNUMBER=%tracknr%" -T "GENRE=%genre%" -T "PERFORMER=%albuminterpret%" -T "COMPOSER=%composer%" %haslyrics%–tag-from-file=LYRICS="%lyricsfile%"%haslyrics% -T "ALBUMARTIST=%albumartist%" -T "DISCNUMBER=%cdnumber%" -T "TOTALDISCS=%totalcds%" -T "TOTALTRACKS=%numtracks%" -T "COMMENT=%comment%" %source% -o %dest%


TOC of the extracted CD

Track | Start | Length | Start sector | End sector
––––––––––––––––––––––––––––-
1 | 0:00.00 | 12:07.00 | 0 | 54524
2 | 12:07.00 | 7:56.34 | 54525 | 90258
3 | 20:03.34 | 8:37.35 | 90259 | 129068
4 | 28:40.69 | 12:14.57 | 129069 | 184175
5 | 40:55.51 | 5:55.22 | 184176 | 210822
6 | 46:50.73 | 10:30.28 | 210823 | 258100
7 | 57:21.26 | 3:51.44 | 258101 | 275469
8 | 61:12.70 | 10:24.66 | 275470 | 322335
9 | 71:37.61 | 5:35.73 | 322336 | 347533


Track 1

Filename F:\#EAC wav+flac\#New\Charles Mingus - Milestones Of A Legend\cd 06\01. Charles Mingus - Haitian Fight Song.wav

Pre-gap length 0:00:02.00

Peak level 96.7 %
Extraction speed 5.8 X
Track quality 100.0 %
Test CRC 16AAAFF6
Copy CRC 16AAAFF6
Accurately ripped (confidence 2) [1C6892B5] (AR v2)
Copy OK

Track 2

Filename F:\#EAC wav+flac\#New\Charles Mingus - Milestones Of A Legend\cd 06\02. Charles Mingus - Blue Cee.wav

Peak level 96.7 %
Extraction speed 6.6 X
Track quality 100.0 %
Test CRC B4F64145
Copy CRC B4F64145
Accurately ripped (confidence 2) [E5262103] (AR v2)
Copy OK

Track 3

Filename F:\#EAC wav+flac\#New\Charles Mingus - Milestones Of A Legend\cd 06\03. Charles Mingus - Reincarnation Of A Lovebird.wav

Peak level 96.7 %
Extraction speed 7.4 X
Track quality 100.0 %
Test CRC 72EC7F75
Copy CRC 72EC7F75
Accurately ripped (confidence 2) [246EE504] (AR v2)
Copy OK

Track 4

Filename F:\#EAC wav+flac\#New\Charles Mingus - Milestones Of A Legend\cd 06\04. Charles Mingus - The Clown.wav

Peak level 96.7 %
Extraction speed 8.4 X
Track quality 100.0 %
Test CRC 476C9AC1
Copy CRC 476C9AC1
Accurately ripped (confidence 2) [F5DB0848] (AR v2)
Copy OK

Track 5

Filename F:\#EAC wav+flac\#New\Charles Mingus - Milestones Of A Legend\cd 06\05. Charles Mingus - Dizzy Moods.wav

Peak level 96.7 %
Extraction speed 8.5 X
Track quality 100.0 %
Test CRC 6D416FF5
Copy CRC 6D416FF5
Accurately ripped (confidence 2) [FB101FE0] (AR v2)
Copy OK

Track 6

Filename F:\#EAC wav+flac\#New\Charles Mingus - Milestones Of A Legend\cd 06\06. Charles Mingus - Ysabel´s Table Dance.wav

Peak level 96.7 %
Extraction speed 9.5 X
Track quality 100.0 %
Test CRC 972CF3C3
Copy CRC 972CF3C3
Accurately ripped (confidence 2) [E67C9044] (AR v2)
Copy OK

Track 7

Filename F:\#EAC wav+flac\#New\Charles Mingus - Milestones Of A Legend\cd 06\07. Charles Mingus - Tijuana Gift Shop.wav

Peak level 96.7 %
Extraction speed 9.2 X
Track quality 100.0 %
Test CRC EB39032C
Copy CRC EB39032C
Accurately ripped (confidence 2) [D87897BA] (AR v2)
Copy OK

Track 8

Filename F:\#EAC wav+flac\#New\Charles Mingus - Milestones Of A Legend\cd 06\08. Charles Mingus - Los Mariachis (The Street Musicians).wav

Peak level 96.7 %
Extraction speed 10.2 X
Track quality 100.0 %
Test CRC E6651CDE
Copy CRC E6651CDE
Accurately ripped (confidence 2) [2E820A6D] (AR v2)
Copy OK

Track 9

Filename F:\#EAC wav+flac\#New\Charles Mingus - Milestones Of A Legend\cd 06\09. Charles Mingus - Flamingo.wav

Peak level 96.7 %
Extraction speed 8.5 X
Track quality 99.9 %
Test CRC 28F62362
Copy CRC 28F62362
Accurately ripped (confidence 2) [A3B428FF] (AR v2)
Copy OK


All tracks accurately ripped

No errors occurred

End of status report

–– CUETools DB Plugin V2.1.6

[CTDB TOCID: d1GqVVBGFrMSdfEWjLRY6p35APk-] found
Submit result: d1GqVVBGFrMSdfEWjLRY6p35APk- has been confirmed
Track | CTDB Status
1 | (4/4) Accurately ripped
2 | (4/4) Accurately ripped
3 | (4/4) Accurately ripped
4 | (4/4) Accurately ripped
5 | (4/4) Accurately ripped
6 | (4/4) Accurately ripped
7 | (4/4) Accurately ripped
8 | (4/4) Accurately ripped
9 | (4/4) Accurately ripped


==== Log checksum 1EF47918713C37A3B60760CDA86CAE5AC0015763BAC58D659ABB7BAD8FA48F83 ====


Exact Audio Copy V1.3 from 2. September 2016

EAC extraction logfile from 9. May 2022, 22:52

Charles Mingus / East Coasting - A Modern Jazz Symposium Of Music And Poetry

Used drive : HL-DT-STBD-RE BH16NS55 Adapter: 1 ID: 0

Read mode : Secure
Utilize accurate stream : Yes
Defeat audio cache : Yes
Make use of C2 pointers : No

Read offset correction : 6
Overread into Lead-In and Lead-Out : No
Fill up missing offset samples with silence : Yes
Delete leading and trailing silent blocks : No
Null samples used in CRC calculations : Yes
Used interface : Native Win32 interface for Win NT & 2000
Gap handling : Appended to previous track

Used output format : User Defined Encoder
Selected bitrate : 1024 kBit/s
Quality : High
Add ID3 tag : No
Command line compressor : C:\Program Files (x86)\Exact Audio Copy\Flac\flac.exe
Additional command line options : -8 -V -T "ARTIST=%artist%" -T "TITLE=%title%" -T "ALBUM=%albumtitle%" -T "DATE=%year%" -T "TRACKNUMBER=%tracknr%" -T "GENRE=%genre%" -T "PERFORMER=%albuminterpret%" -T "COMPOSER=%composer%" %haslyrics%–tag-from-file=LYRICS="%lyricsfile%"%haslyrics% -T "ALBUMARTIST=%albumartist%" -T "DISCNUMBER=%cdnumber%" -T "TOTALDISCS=%totalcds%" -T "TOTALTRACKS=%numtracks%" -T "COMMENT=%comment%" %source% -o %dest%


TOC of the extracted CD

Track | Start | Length | Start sector | End sector
––––––––––––––––––––––––––––-
1 | 0:00.00 | 4:30.62 | 0 | 20311
2 | 4:30.62 | 5:16.34 | 20312 | 44045
3 | 9:47.21 | 10:36.26 | 44046 | 91771
4 | 20:23.47 | 7:55.72 | 91772 | 127468
5 | 28:19.44 | 5:33.62 | 127469 | 152505
6 | 33:53.31 | 5:50.70 | 152506 | 178825
7 | 39:44.26 | 11:54.09 | 178826 | 232384
8 | 51:38.35 | 4:53.55 | 232385 | 254414
9 | 56:32.15 | 8:57.22 | 254415 | 294711
10 | 65:29.37 | 6:29.17 | 294712 | 323903
11 | 71:58.54 | 3:29.51 | 323904 | 339629


Track 1

Filename F:\#EAC wav+flac\#New\Charles Mingus - Milestones Of A Legend\cd 07\01. Charles Mingus - Memories Of You.wav

Pre-gap length 0:00:02.00

Peak level 99.6 %
Extraction speed 1.2 X
Track quality 100.0 %
Test CRC 4A45BB97
Copy CRC 4A45BB97
Accurately ripped (confidence 2) [90B0929D] (AR v2)
Copy OK

Track 2

Filename F:\#EAC wav+flac\#New\Charles Mingus - Milestones Of A Legend\cd 07\02. Charles Mingus - East Coasting.wav

Peak level 99.6 %
Extraction speed 1.3 X
Track quality 100.0 %
Test CRC 59798050
Copy CRC 59798050
Accurately ripped (confidence 2) [FAEEEFE8] (AR v2)
Copy OK

Track 3

Filename F:\#EAC wav+flac\#New\Charles Mingus - Milestones Of A Legend\cd 07\03. Charles Mingus - West Coast Ghost.wav

Peak level 99.6 %
Extraction speed 1.6 X
Track quality 100.0 %
Test CRC A4031073
Copy CRC A4031073
Accurately ripped (confidence 2) [A60A7A4D] (AR v2)
Copy OK

Track 4

Filename F:\#EAC wav+flac\#New\Charles Mingus - Milestones Of A Legend\cd 07\04. Charles Mingus - Celia.wav

Peak level 99.6 %
Extraction speed 1.8 X
Track quality 100.0 %
Test CRC E2E3FC9F
Copy CRC E2E3FC9F
Accurately ripped (confidence 2) [E2A17890] (AR v2)
Copy OK

Track 5

Filename F:\#EAC wav+flac\#New\Charles Mingus - Milestones Of A Legend\cd 07\05. Charles Mingus - Conversation.wav

Peak level 99.6 %
Extraction speed 1.8 X
Track quality 100.0 %
Test CRC 88CAA2DA
Copy CRC 88CAA2DA
Accurately ripped (confidence 2) [5907ED1A] (AR v2)
Copy OK

Track 6

Filename F:\#EAC wav+flac\#New\Charles Mingus - Milestones Of A Legend\cd 07\06. Charles Mingus - Fifty-First Street Blues.wav

Peak level 99.6 %
Extraction speed 1.8 X
Track quality 99.9 %
Test CRC AF25BD30
Copy CRC AF25BD30
Accurately ripped (confidence 2) [27616C76] (AR v2)
Copy OK

Track 7

Filename F:\#EAC wav+flac\#New\Charles Mingus - Milestones Of A Legend\cd 07\07. Charles Mingus - Scenes In The City.wav

Peak level 99.6 %
Extraction speed 2.1 X
Track quality 99.9 %
Test CRC 2C78E85A
Copy CRC 2C78E85A
Accurately ripped (confidence 2) [3394DCBD] (AR v2)
Copy OK

Track 8

Filename F:\#EAC wav+flac\#New\Charles Mingus - Milestones Of A Legend\cd 07\08. Charles Mingus - Neuroog.wav

Peak level 99.6 %
Extraction speed 2.2 X
Track quality 100.0 %
Test CRC 2275D360
Copy CRC 2275D360
Accurately ripped (confidence 2) [52E6BCBC] (AR v2)
Copy OK

Track 9

Filename F:\#EAC wav+flac\#New\Charles Mingus - Milestones Of A Legend\cd 07\09. Charles Mingus - New York Sketchbook.wav

Peak level 99.6 %
Extraction speed 2.4 X
Track quality 100.0 %
Test CRC 88D8BE56
Copy CRC 88D8BE56
Accurately ripped (confidence 2) [3C3D20A6] (AR v2)
Copy OK

Track 10

Filename F:\#EAC wav+flac\#New\Charles Mingus - Milestones Of A Legend\cd 07\10. Charles Mingus - Duke´s Choice.wav

Peak level 99.6 %
Extraction speed 2.5 X
Track quality 100.0 %
Test CRC EAB17108
Copy CRC EAB17108
Accurately ripped (confidence 2) [1092DAAB] (AR v2)
Copy OK

Track 11

Filename F:\#EAC wav+flac\#New\Charles Mingus - Milestones Of A Legend\cd 07\11. Charles Mingus - Slippers.wav

Peak level 99.6 %
Extraction speed 2.4 X
Track quality 100.0 %
Test CRC A675AAD4
Copy CRC A675AAD4
Accurately ripped (confidence 2) [94DC6243] (AR v2)
Copy OK


All tracks accurately ripped

No errors occurred

End of status report

–– CUETools DB Plugin V2.1.6

[CTDB TOCID: PQUkOhPJ1mhwTKXsB7lDEddtw_4-] found
Submit result: PQUkOhPJ1mhwTKXsB7lDEddtw_4- has been confirmed
Track | CTDB Status
1 | (4/4) Accurately ripped
2 | (4/4) Accurately ripped
3 | (4/4) Accurately ripped
4 | (4/4) Accurately ripped
5 | (4/4) Accurately ripped
6 | (4/4) Accurately ripped
7 | (4/4) Accurately ripped
8 | (4/4) Accurately ripped
9 | (4/4) Accurately ripped
10 | (4/4) Accurately ripped
11 | (4/4) Accurately ripped


==== Log checksum F286AA67A313682CB94E0D66F5B9C0885C60BD518774D128C462F92FA0451BA1 ====

––––––––––––––––––––––––––––––

Exact Audio Copy V1.3 from 2. September 2016

EAC extraction logfile from 9. May 2022, 22:52

Charles Mingus / East Coasting - A Modern Jazz Symposium Of Music And Poetry

Used drive : HL-DT-STBD-RE BH16NS55 Adapter: 1 ID: 0

Read mode : Secure
Utilize accurate stream : Yes
Defeat audio cache : Yes
Make use of C2 pointers : No

Read offset correction : 6
Overread into Lead-In and Lead-Out : No
Fill up missing offset samples with silence : Yes
Delete leading and trailing silent blocks : No
Null samples used in CRC calculations : Yes
Used interface : Native Win32 interface for Win NT & 2000
Gap handling : Appended to previous track

Used output format : User Defined Encoder
Selected bitrate : 1024 kBit/s
Quality : High
Add ID3 tag : No
Command line compressor : C:\Program Files (x86)\Exact Audio Copy\Flac\flac.exe
Additional command line options : -8 -V -T "ARTIST=%artist%" -T "TITLE=%title%" -T "ALBUM=%albumtitle%" -T "DATE=%year%" -T "TRACKNUMBER=%tracknr%" -T "GENRE=%genre%" -T "PERFORMER=%albuminterpret%" -T "COMPOSER=%composer%" %haslyrics%–tag-from-file=LYRICS="%lyricsfile%"%haslyrics% -T "ALBUMARTIST=%albumartist%" -T "DISCNUMBER=%cdnumber%" -T "TOTALDISCS=%totalcds%" -T "TOTALTRACKS=%numtracks%" -T "COMMENT=%comment%" %source% -o %dest%


TOC of the extracted CD

Track | Start | Length | Start sector | End sector
––––––––––––––––––––––––––––-
1 | 0:00.00 | 4:30.62 | 0 | 20311
2 | 4:30.62 | 5:16.34 | 20312 | 44045
3 | 9:47.21 | 10:36.26 | 44046 | 91771
4 | 20:23.47 | 7:55.72 | 91772 | 127468
5 | 28:19.44 | 5:33.62 | 127469 | 152505
6 | 33:53.31 | 5:50.70 | 152506 | 178825
7 | 39:44.26 | 11:54.09 | 178826 | 232384
8 | 51:38.35 | 4:53.55 | 232385 | 254414
9 | 56:32.15 | 8:57.22 | 254415 | 294711
10 | 65:29.37 | 6:29.17 | 294712 | 323903
11 | 71:58.54 | 3:29.51 | 323904 | 339629


Track 1

Filename F:\#EAC wav+flac\#New\Charles Mingus - Milestones Of A Legend\cd 07\01. Charles Mingus - Memories Of You.wav

Pre-gap length 0:00:02.00

Peak level 99.6 %
Extraction speed 1.2 X
Track quality 100.0 %
Test CRC 4A45BB97
Copy CRC 4A45BB97
Accurately ripped (confidence 2) [90B0929D] (AR v2)
Copy OK

Track 2

Filename F:\#EAC wav+flac\#New\Charles Mingus - Milestones Of A Legend\cd 07\02. Charles Mingus - East Coasting.wav

Peak level 99.6 %
Extraction speed 1.3 X
Track quality 100.0 %
Test CRC 59798050
Copy CRC 59798050
Accurately ripped (confidence 2) [FAEEEFE8] (AR v2)
Copy OK

Track 3

Filename F:\#EAC wav+flac\#New\Charles Mingus - Milestones Of A Legend\cd 07\03. Charles Mingus - West Coast Ghost.wav

Peak level 99.6 %
Extraction speed 1.6 X
Track quality 100.0 %
Test CRC A4031073
Copy CRC A4031073
Accurately ripped (confidence 2) [A60A7A4D] (AR v2)
Copy OK

Track 4

Filename F:\#EAC wav+flac\#New\Charles Mingus - Milestones Of A Legend\cd 07\04. Charles Mingus - Celia.wav

Peak level 99.6 %
Extraction speed 1.8 X
Track quality 100.0 %
Test CRC E2E3FC9F
Copy CRC E2E3FC9F
Accurately ripped (confidence 2) [E2A17890] (AR v2)
Copy OK

Track 5

Filename F:\#EAC wav+flac\#New\Charles Mingus - Milestones Of A Legend\cd 07\05. Charles Mingus - Conversation.wav

Peak level 99.6 %
Extraction speed 1.8 X
Track quality 100.0 %
Test CRC 88CAA2DA
Copy CRC 88CAA2DA
Accurately ripped (confidence 2) [5907ED1A] (AR v2)
Copy OK

Track 6

Filename F:\#EAC wav+flac\#New\Charles Mingus - Milestones Of A Legend\cd 07\06. Charles Mingus - Fifty-First Street Blues.wav

Peak level 99.6 %
Extraction speed 1.8 X
Track quality 99.9 %
Test CRC AF25BD30
Copy CRC AF25BD30
Accurately ripped (confidence 2) [27616C76] (AR v2)
Copy OK

Track 7

Filename F:\#EAC wav+flac\#New\Charles Mingus - Milestones Of A Legend\cd 07\07. Charles Mingus - Scenes In The City.wav

Peak level 99.6 %
Extraction speed 2.1 X
Track quality 99.9 %
Test CRC 2C78E85A
Copy CRC 2C78E85A
Accurately ripped (confidence 2) [3394DCBD] (AR v2)
Copy OK

Track 8

Filename F:\#EAC wav+flac\#New\Charles Mingus - Milestones Of A Legend\cd 07\08. Charles Mingus - Neuroog.wav

Peak level 99.6 %
Extraction speed 2.2 X
Track quality 100.0 %
Test CRC 2275D360
Copy CRC 2275D360
Accurately ripped (confidence 2) [52E6BCBC] (AR v2)
Copy OK

Track 9

Filename F:\#EAC wav+flac\#New\Charles Mingus - Milestones Of A Legend\cd 07\09. Charles Mingus - New York Sketchbook.wav

Peak level 99.6 %
Extraction speed 2.4 X
Track quality 100.0 %
Test CRC 88D8BE56
Copy CRC 88D8BE56
Accurately ripped (confidence 2) [3C3D20A6] (AR v2)
Copy OK

Track 10

Filename F:\#EAC wav+flac\#New\Charles Mingus - Milestones Of A Legend\cd 07\10. Charles Mingus - Duke´s Choice.wav

Peak level 99.6 %
Extraction speed 2.5 X
Track quality 100.0 %
Test CRC EAB17108
Copy CRC EAB17108
Accurately ripped (confidence 2) [1092DAAB] (AR v2)
Copy OK

Track 11

Filename F:\#EAC wav+flac\#New\Charles Mingus - Milestones Of A Legend\cd 07\11. Charles Mingus - Slippers.wav

Peak level 99.6 %
Extraction speed 2.4 X
Track quality 100.0 %
Test CRC A675AAD4
Copy CRC A675AAD4
Accurately ripped (confidence 2) [94DC6243] (AR v2)
Copy OK


All tracks accurately ripped

No errors occurred

End of status report

–– CUETools DB Plugin V2.1.6

[CTDB TOCID: PQUkOhPJ1mhwTKXsB7lDEddtw_4-] found
Submit result: PQUkOhPJ1mhwTKXsB7lDEddtw_4- has been confirmed
Track | CTDB Status
1 | (4/4) Accurately ripped
2 | (4/4) Accurately ripped
3 | (4/4) Accurately ripped
4 | (4/4) Accurately ripped
5 | (4/4) Accurately ripped
6 | (4/4) Accurately ripped
7 | (4/4) Accurately ripped
8 | (4/4) Accurately ripped
9 | (4/4) Accurately ripped
10 | (4/4) Accurately ripped
11 | (4/4) Accurately ripped


==== Log checksum F286AA67A313682CB94E0D66F5B9C0885C60BD518774D128C462F92FA0451BA1 ====


Exact Audio Copy V1.3 from 2. September 2016

EAC extraction logfile from 10. May 2022, 19:35

Charles Mingus / Blues & Roots

Used drive : HL-DT-STBD-RE BH16NS55 Adapter: 1 ID: 0

Read mode : Secure
Utilize accurate stream : Yes
Defeat audio cache : Yes
Make use of C2 pointers : No

Read offset correction : 6
Overread into Lead-In and Lead-Out : No
Fill up missing offset samples with silence : Yes
Delete leading and trailing silent blocks : No
Null samples used in CRC calculations : Yes
Used interface : Native Win32 interface for Win NT & 2000
Gap handling : Appended to previous track

Used output format : User Defined Encoder
Selected bitrate : 1024 kBit/s
Quality : High
Add ID3 tag : No
Command line compressor : C:\Program Files (x86)\Exact Audio Copy\Flac\flac.exe
Additional command line options : -8 -V -T "ARTIST=%artist%" -T "TITLE=%title%" -T "ALBUM=%albumtitle%" -T "DATE=%year%" -T "TRACKNUMBER=%tracknr%" -T "GENRE=%genre%" -T "PERFORMER=%albuminterpret%" -T "COMPOSER=%composer%" %haslyrics%–tag-from-file=LYRICS="%lyricsfile%"%haslyrics% -T "ALBUMARTIST=%albumartist%" -T "DISCNUMBER=%cdnumber%" -T "TOTALDISCS=%totalcds%" -T "TOTALTRACKS=%numtracks%" -T "COMMENT=%comment%" %source% -o %dest%


TOC of the extracted CD

Track | Start | Length | Start sector | End sector
––––––––––––––––––––––––––––-
1 | 0:00.00 | 5:45.60 | 0 | 25934
2 | 5:45.60 | 5:04.29 | 25935 | 48763
3 | 10:50.14 | 8:04.67 | 48764 | 85130
4 | 18:55.06 | 6:32.39 | 85131 | 114569
5 | 25:27.45 | 6:52.03 | 114570 | 145472
6 | 32:19.48 | 6:44.64 | 145473 | 175836


Track 1

Filename F:\#EAC wav+flac\#New\Charles Mingus - Milestones Of A Legend\cd 09\01. Charles Mingus - Wednesday Night Prayer Meeting.wav

Pre-gap length 0:00:02.00

Peak level 96.9 %
Extraction speed 4.9 X
Track quality 100.0 %
Test CRC A08136C7
Copy CRC A08136C7
Accurately ripped (confidence 2) [41A4EC5D] (AR v2)
Copy OK

Track 2

Filename F:\#EAC wav+flac\#New\Charles Mingus - Milestones Of A Legend\cd 09\02. Charles Mingus - Cryin' Blues.wav

Peak level 98.1 %
Extraction speed 5.5 X
Track quality 100.0 %
Test CRC CBFAC15F
Copy CRC CBFAC15F
Accurately ripped (confidence 2) [8FF95B07] (AR v2)
Copy OK

Track 3

Filename F:\#EAC wav+flac\#New\Charles Mingus - Milestones Of A Legend\cd 09\03. Charles Mingus - Moanin'.wav

Peak level 94.7 %
Extraction speed 6.4 X
Track quality 100.0 %
Test CRC 5EF96093
Copy CRC 5EF96093
Accurately ripped (confidence 2) [101B8416] (AR v2)
Copy OK

Track 4

Filename F:\#EAC wav+flac\#New\Charles Mingus - Milestones Of A Legend\cd 09\04. Charles Mingus - Tensions.wav

Peak level 96.2 %
Extraction speed 6.9 X
Track quality 100.0 %
Test CRC 359E15E6
Copy CRC 359E15E6
Accurately ripped (confidence 2) [D794FC36] (AR v2)
Copy OK

Track 5

Filename F:\#EAC wav+flac\#New\Charles Mingus - Milestones Of A Legend\cd 09\05. Charles Mingus - My Jelly Roll Soul.wav

Peak level 100.0 %
Extraction speed 6.7 X
Track quality 99.9 %
Test CRC 48F9C5A4
Copy CRC 48F9C5A4
Accurately ripped (confidence 2) [2694C98C] (AR v2)
Copy OK

Track 6

Filename F:\#EAC wav+flac\#New\Charles Mingus - Milestones Of A Legend\cd 09\06. Charles Mingus - E's Flat Ah's Flat Too.wav

Peak level 93.8 %
Extraction speed 8.0 X
Track quality 100.0 %
Test CRC 8E72E818
Copy CRC 8E72E818
Accurately ripped (confidence 2) [4F3C82D3] (AR v2)
Copy OK


All tracks accurately ripped

No errors occurred

End of status report

–– CUETools DB Plugin V2.1.6

[CTDB TOCID: CMLS3tHmAIAsW3ncSny.pqxf3NM-] found
Submit result: CMLS3tHmAIAsW3ncSny.pqxf3NM- has been confirmed
Track | CTDB Status
1 | (10/10) Accurately ripped
2 | (10/10) Accurately ripped
3 | (10/10) Accurately ripped
4 | (10/10) Accurately ripped
5 | (10/10) Accurately ripped
6 | (10/10) Accurately ripped


==== Log checksum E83440341B6A869336BA18091FD51132645546CC28BCD73A9FA59EEFBE284229 ====

––––––––––––––––––––––––––––––

Exact Audio Copy V1.3 from 2. September 2016

EAC extraction logfile from 10. May 2022, 19:35

Charles Mingus / Blues & Roots

Used drive : HL-DT-STBD-RE BH16NS55 Adapter: 1 ID: 0

Read mode : Secure
Utilize accurate stream : Yes
Defeat audio cache : Yes
Make use of C2 pointers : No

Read offset correction : 6
Overread into Lead-In and Lead-Out : No
Fill up missing offset samples with silence : Yes
Delete leading and trailing silent blocks : No
Null samples used in CRC calculations : Yes
Used interface : Native Win32 interface for Win NT & 2000
Gap handling : Appended to previous track

Used output format : User Defined Encoder
Selected bitrate : 1024 kBit/s
Quality : High
Add ID3 tag : No
Command line compressor : C:\Program Files (x86)\Exact Audio Copy\Flac\flac.exe
Additional command line options : -8 -V -T "ARTIST=%artist%" -T "TITLE=%title%" -T "ALBUM=%albumtitle%" -T "DATE=%year%" -T "TRACKNUMBER=%tracknr%" -T "GENRE=%genre%" -T "PERFORMER=%albuminterpret%" -T "COMPOSER=%composer%" %haslyrics%–tag-from-file=LYRICS="%lyricsfile%"%haslyrics% -T "ALBUMARTIST=%albumartist%" -T "DISCNUMBER=%cdnumber%" -T "TOTALDISCS=%totalcds%" -T "TOTALTRACKS=%numtracks%" -T "COMMENT=%comment%" %source% -o %dest%


TOC of the extracted CD

Track | Start | Length | Start sector | End sector
––––––––––––––––––––––––––––-
1 | 0:00.00 | 5:45.60 | 0 | 25934
2 | 5:45.60 | 5:04.29 | 25935 | 48763
3 | 10:50.14 | 8:04.67 | 48764 | 85130
4 | 18:55.06 | 6:32.39 | 85131 | 114569
5 | 25:27.45 | 6:52.03 | 114570 | 145472
6 | 32:19.48 | 6:44.64 | 145473 | 175836


Track 1

Filename F:\#EAC wav+flac\#New\Charles Mingus - Milestones Of A Legend\cd 09\01. Charles Mingus - Wednesday Night Prayer Meeting.wav

Pre-gap length 0:00:02.00

Peak level 96.9 %
Extraction speed 4.9 X
Track quality 100.0 %
Test CRC A08136C7
Copy CRC A08136C7
Accurately ripped (confidence 2) [41A4EC5D] (AR v2)
Copy OK

Track 2

Filename F:\#EAC wav+flac\#New\Charles Mingus - Milestones Of A Legend\cd 09\02. Charles Mingus - Cryin' Blues.wav

Peak level 98.1 %
Extraction speed 5.5 X
Track quality 100.0 %
Test CRC CBFAC15F
Copy CRC CBFAC15F
Accurately ripped (confidence 2) [8FF95B07] (AR v2)
Copy OK

Track 3

Filename F:\#EAC wav+flac\#New\Charles Mingus - Milestones Of A Legend\cd 09\03. Charles Mingus - Moanin'.wav

Peak level 94.7 %
Extraction speed 6.4 X
Track quality 100.0 %
Test CRC 5EF96093
Copy CRC 5EF96093
Accurately ripped (confidence 2) [101B8416] (AR v2)
Copy OK

Track 4

Filename F:\#EAC wav+flac\#New\Charles Mingus - Milestones Of A Legend\cd 09\04. Charles Mingus - Tensions.wav

Peak level 96.2 %
Extraction speed 6.9 X
Track quality 100.0 %
Test CRC 359E15E6
Copy CRC 359E15E6
Accurately ripped (confidence 2) [D794FC36] (AR v2)
Copy OK

Track 5

Filename F:\#EAC wav+flac\#New\Charles Mingus - Milestones Of A Legend\cd 09\05. Charles Mingus - My Jelly Roll Soul.wav

Peak level 100.0 %
Extraction speed 6.7 X
Track quality 99.9 %
Test CRC 48F9C5A4
Copy CRC 48F9C5A4
Accurately ripped (confidence 2) [2694C98C] (AR v2)
Copy OK

Track 6

Filename F:\#EAC wav+flac\#New\Charles Mingus - Milestones Of A Legend\cd 09\06. Charles Mingus - E's Flat Ah's Flat Too.wav

Peak level 93.8 %
Extraction speed 8.0 X
Track quality 100.0 %
Test CRC 8E72E818
Copy CRC 8E72E818
Accurately ripped (confidence 2) [4F3C82D3] (AR v2)
Copy OK


All tracks accurately ripped

No errors occurred

End of status report

–– CUETools DB Plugin V2.1.6

[CTDB TOCID: CMLS3tHmAIAsW3ncSny.pqxf3NM-] found
Submit result: CMLS3tHmAIAsW3ncSny.pqxf3NM- has been confirmed
Track | CTDB Status
1 | (10/10) Accurately ripped
2 | (10/10) Accurately ripped
3 | (10/10) Accurately ripped
4 | (10/10) Accurately ripped
5 | (10/10) Accurately ripped
6 | (10/10) Accurately ripped


==== Log checksum E83440341B6A869336BA18091FD51132645546CC28BCD73A9FA59EEFBE284229 ====


Exact Audio Copy V1.3 from 2. September 2016

EAC extraction logfile from 10. May 2022, 19:55

Charles Mingus / Dynasty

Used drive : HL-DT-STBD-RE BH16NS55 Adapter: 1 ID: 0

Read mode : Secure
Utilize accurate stream : Yes
Defeat audio cache : Yes
Make use of C2 pointers : No

Read offset correction : 6
Overread into Lead-In and Lead-Out : No
Fill up missing offset samples with silence : Yes
Delete leading and trailing silent blocks : No
Null samples used in CRC calculations : Yes
Used interface : Native Win32 interface for Win NT & 2000
Gap handling : Appended to previous track

Used output format : User Defined Encoder
Selected bitrate : 1024 kBit/s
Quality : High
Add ID3 tag : No
Command line compressor : C:\Program Files (x86)\Exact Audio Copy\Flac\flac.exe
Additional command line options : -8 -V -T "ARTIST=%artist%" -T "TITLE=%title%" -T "ALBUM=%albumtitle%" -T "DATE=%year%" -T "TRACKNUMBER=%tracknr%" -T "GENRE=%genre%" -T "PERFORMER=%albuminterpret%" -T "COMPOSER=%composer%" %haslyrics%–tag-from-file=LYRICS="%lyricsfile%"%haslyrics% -T "ALBUMARTIST=%albumartist%" -T "DISCNUMBER=%cdnumber%" -T "TOTALDISCS=%totalcds%" -T "TOTALTRACKS=%numtracks%" -T "COMMENT=%comment%" %source% -o %dest%


TOC of the extracted CD

Track | Start | Length | Start sector | End sector
––––––––––––––––––––––––––––-
1 | 0:00.00 | 6:17.09 | 0 | 28283
2 | 6:17.09 | 7:32.36 | 28284 | 62219
3 | 13:49.45 | 6:50.39 | 62220 | 93008
4 | 20:40.09 | 5:14.21 | 93009 | 116579
5 | 25:54.30 | 7:40.34 | 116580 | 151113
6 | 33:34.64 | 6:14.67 | 151114 | 179230
7 | 39:49.56 | 4:17.23 | 179231 | 198528
8 | 44:07.04 | 8:17.03 | 198529 | 235806
9 | 52:24.07 | 2:54.43 | 235807 | 248899


Track 1

Filename F:\#EAC wav+flac\#New\Charles Mingus - Milestones Of A Legend\cd 10\01. Charles Mingus - Slop.wav

Pre-gap length 0:00:02.00

Peak level 88.5 %
Extraction speed 4.4 X
Track quality 99.9 %
Test CRC 39C43E8C
Copy CRC 39C43E8C
Accurately ripped (confidence 2) [AC0277FC] (AR v2)
Copy OK

Track 2

Filename F:\#EAC wav+flac\#New\Charles Mingus - Milestones Of A Legend\cd 10\02. Charles Mingus - Diane.wav

Peak level 88.2 %
Extraction speed 5.3 X
Track quality 99.9 %
Test CRC F75318BD
Copy CRC F75318BD
Accurately ripped (confidence 2) [D720BCEA] (AR v2)
Copy OK

Track 3

Filename F:\#EAC wav+flac\#New\Charles Mingus - Milestones Of A Legend\cd 10\03. Charles Mingus - Song With Orange.wav

Peak level 88.0 %
Extraction speed 6.6 X
Track quality 100.0 %
Test CRC 38FF0B49
Copy CRC 38FF0B49
Accurately ripped (confidence 2) [A23C4FCA] (AR v2)
Copy OK

Track 4

Filename F:\#EAC wav+flac\#New\Charles Mingus - Milestones Of A Legend\cd 10\04. Charles Mingus - Gunslinging Bird.wav

Peak level 88.2 %
Extraction speed 7.0 X
Track quality 100.0 %
Test CRC 3EB6A11B
Copy CRC 3EB6A11B
Accurately ripped (confidence 2) [F5998DB8] (AR v2)
Copy OK

Track 5

Filename F:\#EAC wav+flac\#New\Charles Mingus - Milestones Of A Legend\cd 10\05. Charles Mingus - Things Aint What They Used To Be.wav

Peak level 88.4 %
Extraction speed 6.8 X
Track quality 99.9 %
Test CRC 00052C09
Copy CRC 00052C09
Accurately ripped (confidence 2) [7BA215FA] (AR v2)
Copy OK

Track 6

Filename F:\#EAC wav+flac\#New\Charles Mingus - Milestones Of A Legend\cd 10\06. Charles Mingus - Far Wells, Mill Valley.wav

Peak level 88.4 %
Extraction speed 7.9 X
Track quality 100.0 %
Test CRC 2C60A895
Copy CRC 2C60A895
Accurately ripped (confidence 2) [A459D8F9] (AR v2)
Copy OK

Track 7

Filename F:\#EAC wav+flac\#New\Charles Mingus - Milestones Of A Legend\cd 10\07. Charles Mingus - New Now Know How.wav

Peak level 88.1 %
Extraction speed 6.7 X
Track quality 99.9 %
Test CRC 150336BA
Copy CRC 150336BA
Accurately ripped (confidence 2) [C85FD665] (AR v2)
Copy OK

Track 8

Filename F:\#EAC wav+flac\#New\Charles Mingus - Milestones Of A Legend\cd 10\08. Charles Mingus - Mood Indigo.wav

Peak level 88.0 %
Extraction speed 9.0 X
Track quality 100.0 %
Test CRC 65D1BC81
Copy CRC 65D1BC81
Accurately ripped (confidence 2) [3E111B62] (AR v2)
Copy OK

Track 9

Filename F:\#EAC wav+flac\#New\Charles Mingus - Milestones Of A Legend\cd 10\09. Charles Mingus - Put Me In The Dungeon.wav

Peak level 87.0 %
Extraction speed 8.2 X
Track quality 100.0 %
Test CRC 35696774
Copy CRC 35696774
Accurately ripped (confidence 2) [6DD0E7F0] (AR v2)
Copy OK


All tracks accurately ripped

No errors occurred

End of status report

–– CUETools DB Plugin V2.1.6

[CTDB TOCID: RUqB72wXvfHxQIHRuge6SfL4dFk-] found
Submit result: RUqB72wXvfHxQIHRuge6SfL4dFk- has been confirmed
Track | CTDB Status
1 | (11/11) Accurately ripped
2 | (11/11) Accurately ripped
3 | (11/11) Accurately ripped
4 | (11/11) Accurately ripped
5 | (11/11) Accurately ripped
6 | (11/11) Accurately ripped
7 | (11/11) Accurately ripped
8 | (11/11) Accurately ripped
9 | (11/11) Accurately ripped


==== Log checksum 76E1B2919E784121F2FEFAC76AD0C3237B782755A7D8E2D757CE1117F535C965 ====

––––––––––––––––––––––––––––––

Exact Audio Copy V1.3 from 2. September 2016

EAC extraction logfile from 10. May 2022, 19:55

Charles Mingus / Dynasty

Used drive : HL-DT-STBD-RE BH16NS55 Adapter: 1 ID: 0

Read mode : Secure
Utilize accurate stream : Yes
Defeat audio cache : Yes
Make use of C2 pointers : No

Read offset correction : 6
Overread into Lead-In and Lead-Out : No
Fill up missing offset samples with silence : Yes
Delete leading and trailing silent blocks : No
Null samples used in CRC calculations : Yes
Used interface : Native Win32 interface for Win NT & 2000
Gap handling : Appended to previous track

Used output format : User Defined Encoder
Selected bitrate : 1024 kBit/s
Quality : High
Add ID3 tag : No
Command line compressor : C:\Program Files (x86)\Exact Audio Copy\Flac\flac.exe
Additional command line options : -8 -V -T "ARTIST=%artist%" -T "TITLE=%title%" -T "ALBUM=%albumtitle%" -T "DATE=%year%" -T "TRACKNUMBER=%tracknr%" -T "GENRE=%genre%" -T "PERFORMER=%albuminterpret%" -T "COMPOSER=%composer%" %haslyrics%–tag-from-file=LYRICS="%lyricsfile%"%haslyrics% -T "ALBUMARTIST=%albumartist%" -T "DISCNUMBER=%cdnumber%" -T "TOTALDISCS=%totalcds%" -T "TOTALTRACKS=%numtracks%" -T "COMMENT=%comment%" %source% -o %dest%


TOC of the extracted CD

Track | Start | Length | Start sector | End sector
––––––––––––––––––––––––––––-
1 | 0:00.00 | 6:17.09 | 0 | 28283
2 | 6:17.09 | 7:32.36 | 28284 | 62219
3 | 13:49.45 | 6:50.39 | 62220 | 93008
4 | 20:40.09 | 5:14.21 | 93009 | 116579
5 | 25:54.30 | 7:40.34 | 116580 | 151113
6 | 33:34.64 | 6:14.67 | 151114 | 179230
7 | 39:49.56 | 4:17.23 | 179231 | 198528
8 | 44:07.04 | 8:17.03 | 198529 | 235806
9 | 52:24.07 | 2:54.43 | 235807 | 248899


Track 1

Filename F:\#EAC wav+flac\#New\Charles Mingus - Milestones Of A Legend\cd 10\01. Charles Mingus - Slop.wav

Pre-gap length 0:00:02.00

Peak level 88.5 %
Extraction speed 4.4 X
Track quality 99.9 %
Test CRC 39C43E8C
Copy CRC 39C43E8C
Accurately ripped (confidence 2) [AC0277FC] (AR v2)
Copy OK

Track 2

Filename F:\#EAC wav+flac\#New\Charles Mingus - Milestones Of A Legend\cd 10\02. Charles Mingus - Diane.wav

Peak level 88.2 %
Extraction speed 5.3 X
Track quality 99.9 %
Test CRC F75318BD
Copy CRC F75318BD
Accurately ripped (confidence 2) [D720BCEA] (AR v2)
Copy OK

Track 3

Filename F:\#EAC wav+flac\#New\Charles Mingus - Milestones Of A Legend\cd 10\03. Charles Mingus - Song With Orange.wav

Peak level 88.0 %
Extraction speed 6.6 X
Track quality 100.0 %
Test CRC 38FF0B49
Copy CRC 38FF0B49
Accurately ripped (confidence 2) [A23C4FCA] (AR v2)
Copy OK

Track 4

Filename F:\#EAC wav+flac\#New\Charles Mingus - Milestones Of A Legend\cd 10\04. Charles Mingus - Gunslinging Bird.wav

Peak level 88.2 %
Extraction speed 7.0 X
Track quality 100.0 %
Test CRC 3EB6A11B
Copy CRC 3EB6A11B
Accurately ripped (confidence 2) [F5998DB8] (AR v2)
Copy OK

Track 5

Filename F:\#EAC wav+flac\#New\Charles Mingus - Milestones Of A Legend\cd 10\05. Charles Mingus - Things Aint What They Used To Be.wav

Peak level 88.4 %
Extraction speed 6.8 X
Track quality 99.9 %
Test CRC 00052C09
Copy CRC 00052C09
Accurately ripped (confidence 2) [7BA215FA] (AR v2)
Copy OK

Track 6

Filename F:\#EAC wav+flac\#New\Charles Mingus - Milestones Of A Legend\cd 10\06. Charles Mingus - Far Wells, Mill Valley.wav

Peak level 88.4 %
Extraction speed 7.9 X
Track quality 100.0 %
Test CRC 2C60A895
Copy CRC 2C60A895
Accurately ripped (confidence 2) [A459D8F9] (AR v2)
Copy OK

Track 7

Filename F:\#EAC wav+flac\#New\Charles Mingus - Milestones Of A Legend\cd 10\07. Charles Mingus - New Now Know How.wav

Peak level 88.1 %
Extraction speed 6.7 X
Track quality 99.9 %
Test CRC 150336BA
Copy CRC 150336BA
Accurately ripped (confidence 2) [C85FD665] (AR v2)
Copy OK

Track 8

Filename F:\#EAC wav+flac\#New\Charles Mingus - Milestones Of A Legend\cd 10\08. Charles Mingus - Mood Indigo.wav

Peak level 88.0 %
Extraction speed 9.0 X
Track quality 100.0 %
Test CRC 65D1BC81
Copy CRC 65D1BC81
Accurately ripped (confidence 2) [3E111B62] (AR v2)
Copy OK

Track 9

Filename F:\#EAC wav+flac\#New\Charles Mingus - Milestones Of A Legend\cd 10\09. Charles Mingus - Put Me In The Dungeon.wav

Peak level 87.0 %
Extraction speed 8.2 X
Track quality 100.0 %
Test CRC 35696774
Copy CRC 35696774
Accurately ripped (confidence 2) [6DD0E7F0] (AR v2)
Copy OK


All tracks accurately ripped

No errors occurred

End of status report

–– CUETools DB Plugin V2.1.6

[CTDB TOCID: RUqB72wXvfHxQIHRuge6SfL4dFk-] found
Submit result: RUqB72wXvfHxQIHRuge6SfL4dFk- has been confirmed
Track | CTDB Status
1 | (11/11) Accurately ripped
2 | (11/11) Accurately ripped
3 | (11/11) Accurately ripped
4 | (11/11) Accurately ripped
5 | (11/11) Accurately ripped
6 | (11/11) Accurately ripped
7 | (11/11) Accurately ripped
8 | (11/11) Accurately ripped
9 | (11/11) Accurately ripped


==== Log checksum 76E1B2919E784121F2FEFAC76AD0C3237B782755A7D8E2D757CE1117F535C965 ====