Subcategories

Charles Lloyd & Maria Farantouri - Athens Concert (2011) [2CDs] {ECM 2205/6}

Posted By: tiburon
Charles Lloyd & Maria Farantouri - Athens Concert (2011) [2CDs] {ECM 2205/6}

Charles Lloyd & Maria Farantouri - Athens Concert (2011) [2CDs] {ECM 2205/6}
EAC 1.0b2 | FLAC tracks level 8 | Cue+Log+M3U | Full Scans 300dpi | 562MB + 5% Recovery
MP3 CBR 320 Kbps | 199MB + 5% Recovery
Genre: Jazz, Post-Bop, Modern Creative

Stunning performance in front of a huge audience at the open air Odeon of Herodes Atticus, as Charles Lloyd, uniquely-expressive saxophonist, and Maria Farantouri, Greece’s voice of resistance, come together. Friends for some years, this is their first recorded collaboration. Lloyd’s brilliant quartet is on hand - with Jason Moran in especially creative mode - augmented by lyra player Socratis Sinopoulos and second pianist Takis Frazio in a marvelous programme that includes songs by Mikis Theoedorakis, suites of Greek traditional music, Eleni Karaindrou’s “Journey to Kythera” and Lloyd originals including his classic “Dream Weaver”. “Athens Concert” is a major event, a very special live album indeed.
Track List

CD 1
01. Kratissa ti zoi mou
02. Dream Weaver
03. Blow Wind
04. Requiem / Greek Suite, Part I
05. Hymnos stin Ayia Triada
06. Epano sto xero homa
07. Messa Stous paradissious kipous
08. Taxidi sta Kythera

CD 2
01.Prayer
02. Greek Suite, Part II
Vlefaro mou
03. Margaritarenia
04. Thalassaki Mou
05. Greek Suite, Part III
Epirotiko Meroloi
06. Kaegomae kae Sigoliono
07. Mori kontoula lemonia
08. Alismono kae haeromae
09. Tou hel’ to kastron
10. Yanni Mou

musicians
Charles Lloyd - tenor saxophone, flute, tarogato
Maria Farantouri - voice
Jason Moran - piano
Reuben Rogers - double-bass
Eric Harland - drums
Socratis Sinopoulos - lyra
Takis Farazis - piano

Produced by Manfred Eicher and Dorothy Darr


Exact Audio Copy V1.0 beta 2 from 29. April 2011

EAC extraction logfile from 12. September 2011, 12:32

Charles Lloyd & Maria Farantouri / Athens Concert CD1

Used drive : hp CDDVDW TS-H653R Adapter: 1 ID: 0

Read mode : Secure
Utilize accurate stream : Yes
Defeat audio cache : Yes
Make use of C2 pointers : No

Read offset correction : 48
Overread into Lead-In and Lead-Out : No
Fill up missing offset samples with silence : Yes
Delete leading and trailing silent blocks : No
Null samples used in CRC calculations : Yes
Used interface : Installed external ASPI interface
Gap handling : Appended to previous track

Used output format : User Defined Encoder
Selected bitrate : 320 kBit/s
Quality : High
Add ID3 tag : No
Command line compressor : C:\Program Files\Exact Audio Copy\Flac\flac.exe
Additional command line options : -8 -V -T "ARTIST=%artist%" -T "TITLE=%title%" -T "ALBUM=%albumtitle%" -T "DATE=%year%" -T "TRACKNUMBER=%tracknr%" -T "TOTALTRACKS=%numtracks%" -T "GENRE=%genre%" -T "ALBUMARTIST=%albumartist%" -T "ALBUM ARTIST=%albumartist%


TOC of the extracted CD

Track | Start | Length | Start sector | End sector
––––––––––––––––––––––––––––-
1 | 0:00.00 | 5:59.58 | 0 | 26982
2 | 5:59.58 | 8:10.29 | 26983 | 63761
3 | 14:10.12 | 5:34.29 | 63762 | 88840
4 | 19:44.41 | 5:57.59 | 88841 | 115674
5 | 25:42.25 | 4:03.34 | 115675 | 133933
6 | 29:45.59 | 2:52.64 | 133934 | 146897
7 | 32:38.48 | 4:49.64 | 146898 | 168636
8 | 37:28.37 | 4:35.34 | 168637 | 189295


Track 1

Filename D:01 - Kratissa ti zoi mou - I Kept Hold of My Life.wav

Pre-gap length 0:00:02.00

Peak level 98.9 %
Extraction speed 2.5 X
Track quality 100.0 %
Test CRC 4B2CA075
Copy CRC 4B2CA075
Track not present in AccurateRip database
Copy OK

Track 2

Filename D:\02 - Dream Weaver - Hyfantis oneiron.wav

Peak level 99.2 %
Extraction speed 1.5 X
Track quality 99.9 %
Test CRC 52AC3D79
Copy CRC 52AC3D79
Track not present in AccurateRip database
Copy OK

Track 3

Filename D:\03 - Blow Wind - Fyssa ayeri.wav

Peak level 98.5 %
Extraction speed 1.7 X
Track quality 100.0 %
Test CRC 35FD74F6
Copy CRC 35FD74F6
Track not present in AccurateRip database
Copy OK

Track 4

Filename D:\04 - Requiem Greek Suite, Part I.wav

Peak level 85.9 %
Extraction speed 1.9 X
Track quality 100.0 %
Test CRC 8C115197
Copy CRC 8C115197
Track not present in AccurateRip database
Copy OK

Track 5

Filename D:\05 - Hymnos stin Ayia Triada - Hymn to the Holy Trinity.wav

Peak level 61.0 %
Extraction speed 1.9 X
Track quality 100.0 %
Test CRC 90533FDB
Copy CRC 90533FDB
Track not present in AccurateRip database
Copy OK

Track 6

Filename D:\06 - Epano sto xero homa - In the Dry Soil.wav

Peak level 99.0 %
Extraction speed 1.9 X
Track quality 100.0 %
Test CRC 34873B9D
Copy CRC 34873B9D
Track not present in AccurateRip database
Copy OK

Track 7

Filename D:\07 - Messa Stous paradissious kipous - In the Paradise Gardens.wav

Peak level 99.7 %
Extraction speed 1.9 X
Track quality 99.9 %
Test CRC 0DBD5AFA
Copy CRC 0DBD5AFA
Track not present in AccurateRip database
Copy OK

Track 8

Filename D:\08 - Taxidi sta Kythera - Voyage to Cythera.wav

Peak level 93.8 %
Extraction speed 2.2 X
Track quality 100.0 %
Test CRC 3C1CCD6E
Copy CRC 3C1CCD6E
Track not present in AccurateRip database
Copy OK


None of the tracks are present in the AccurateRip database

No errors occurred

End of status report

==== Log checksum 38645FCE848A00B2652BF2AC4316C408367530740C07D709763BF53B57E1F6DA ====


Exact Audio Copy V1.0 beta 2 from 29. April 2011

EAC extraction logfile from 12. September 2011, 16:32

Charles Lloyd & Maria Farantouri / Athens Concert CD2

Used drive : hp CDDVDW TS-H653R Adapter: 1 ID: 0

Read mode : Secure
Utilize accurate stream : Yes
Defeat audio cache : Yes
Make use of C2 pointers : No

Read offset correction : 48
Overread into Lead-In and Lead-Out : No
Fill up missing offset samples with silence : Yes
Delete leading and trailing silent blocks : No
Null samples used in CRC calculations : Yes
Used interface : Installed external ASPI interface
Gap handling : Appended to previous track

Used output format : User Defined Encoder
Selected bitrate : 320 kBit/s
Quality : High
Add ID3 tag : No
Command line compressor : C:\Program Files\Exact Audio Copy\Flac\flac.exe
Additional command line options : -8 -V -T "ARTIST=%artist%" -T "TITLE=%title%" -T "ALBUM=%albumtitle%" -T "DATE=%year%" -T "TRACKNUMBER=%tracknr%" -T "TOTALTRACKS=%numtracks%" -T "GENRE=%genre%" -T "ALBUMARTIST=%albumartist%" -T "ALBUM ARTIST=%albumartist%


TOC of the extracted CD

Track | Start | Length | Start sector | End sector
––––––––––––––––––––––––––––-
1 | 0:00.00 | 7:58.25 | 0 | 35874
2 | 7:58.25 | 3:32.07 | 35875 | 51781
3 | 11:30.32 | 1:29.17 | 51782 | 58473
4 | 12:59.49 | 2:57.52 | 58474 | 71800
5 | 15:57.26 | 6:28.17 | 71801 | 100917
6 | 22:25.43 | 5:00.26 | 100918 | 123443
7 | 27:25.69 | 2:40.35 | 123444 | 135478
8 | 30:06.29 | 3:06.14 | 135479 | 149442
9 | 33:12.43 | 4:28.16 | 149443 | 169558
10 | 37:40.59 | 7:27.22 | 169559 | 203105


Track 1

Filename D:\01 - Prayer - Prosefhi.wav

Pre-gap length 0:00:02.00

Peak level 95.9 %
Extraction speed 1.1 X
Track quality 100.0 %
Test CRC 893B2EED
Copy CRC 893B2EED
Track not present in AccurateRip database
Copy OK

Track 2

Filename D:\02 - Vlefaro mou - Greek Suite, Part II.wav

Peak level 79.0 %
Extraction speed 1.0 X
Track quality 100.0 %
Test CRC 4FACB795
Copy CRC 4FACB795
Track not present in AccurateRip database
Copy OK

Track 3

Filename D:\03 - Margaritarenia.wav

Peak level 98.7 %
Extraction speed 0.8 X
Track quality 100.0 %
Test CRC 9AF91C3C
Copy CRC 9AF91C3C
Track not present in AccurateRip database
Copy OK

Track 4

Filename D:\04 - Thalassaki mou - My Little Sea.wav

Peak level 100.0 %
Extraction speed 1.0 X
Track quality 100.0 %
Test CRC 38F3C243
Copy CRC 38F3C243
Track not present in AccurateRip database
Copy OK

Track 5

Filename D:\05 - Epirotiko meroloi - Greek Suite, Part III.wav

Peak level 99.4 %
Extraction speed 1.1 X
Track quality 100.0 %
Test CRC C01F815B
Copy CRC C01F815B
Track not present in AccurateRip database
Copy OK

Track 6

Filename D:\06 - Kegome kai sigoliono - I Burn and Slowly Melt.wav

Peak level 98.7 %
Extraction speed 1.1 X
Track quality 100.0 %
Test CRC EF1249CF
Copy CRC EF1249CF
Track not present in AccurateRip database
Copy OK

Track 7

Filename D:\07 - Mori kontoula lemonia - Little lemon Tree.wav

Peak level 100.0 %
Extraction speed 1.0 X
Track quality 100.0 %
Test CRC B310BA75
Copy CRC B310BA75
Track not present in AccurateRip database
Copy OK

Track 8

Filename D:\08 - Alismono kai herome - I Forget and I Am Glad.wav

Peak level 100.0 %
Extraction speed 1.0 X
Track quality 100.0 %
Test CRC 0FCE2160
Copy CRC 0FCE2160
Track not present in AccurateRip database
Copy OK

Track 9

Filename D:\09 - Tou hel' to kastron - The Castle of the Sun.wav

Peak level 100.0 %
Extraction speed 0.9 X
Track quality 99.9 %
Test CRC A7A812C8
Copy CRC A7A812C8
Track not present in AccurateRip database
Copy OK

Track 10

Filename D:\10 - Yanni mou - My Yanni.wav

Peak level 99.9 %
Extraction speed 1.1 X
Track quality 100.0 %
Test CRC 5E0DCEA3
Copy CRC 5E0DCEA3
Track not present in AccurateRip database
Copy OK


None of the tracks are present in the AccurateRip database

No errors occurred

End of status report

==== Log checksum F90DD1E4D575E03710FA1155E9B0A32ECAD335F7838CD761BD0437584CA398AD ====



––––––––––––––––––––––––––––––––––––––––
Analyzed: Charles Lloyd & Maria Farantouri / Athens Concert CD1
––––––––––––––––––––––––––––––––––––––––

DR Peak RMS Duration Track
––––––––––––––––––––––––––––––––––––––––
DR13 -0.09 dB -17.32 dB 6:00 01-Kratissa ti zoi mou - I Kept Hold of My Life
DR14 -0.06 dB -16.46 dB 8:10 02-Dream Weaver - Hyfantis oneiron
DR14 -0.12 dB -18.16 dB 5:34 03-Blow Wind - Fyssa ayeri
DR13 -1.31 dB -17.78 dB 5:58 04-Requiem Greek Suite, Part I
DR11 -4.29 dB -18.03 dB 4:03 05-Hymnos stin Ayia Triada - Hymn to the Holy Trinity
DR12 -0.08 dB -14.87 dB 2:53 06-Epano sto xero homa - In the Dry Soil
DR12 -0.02 dB -15.49 dB 4:50 07-Messa Stous paradissious kipous - In the Paradise Gardens
DR12 -0.55 dB -15.31 dB 4:35 08-Taxidi sta Kythera - Voyage to Cythera
––––––––––––––––––––––––––––––––––––––––

Number of tracks: 8
Official DR value: DR13

Samplerate: 44100 Hz
Channels: 2
Bits per sample: 16
Bitrate: 749 kbps
Codec: FLAC
================================================================================

––––––––––––––––––––––––––––––––––––––––
Analyzed: Charles Lloyd & Maria Farantouri / Athens Concert CD2
––––––––––––––––––––––––––––––––––––––––

DR Peak RMS Duration Track
––––––––––––––––––––––––––––––––––––––––
DR14 -0.36 dB -19.90 dB 7:58 01-Prayer - Prosefhi
DR12 -2.04 dB -17.99 dB 3:32 02-Vlefaro mou - Greek Suite, Part II
DR11 -0.11 dB -14.93 dB 1:29 03-Margaritarenia
DR11 0.00 dB -13.72 dB 2:58 04-Thalassaki mou - My Little Sea
DR13 -0.04 dB -16.23 dB 6:28 05-Epirotiko meroloi - Greek Suite, Part III
DR12 -0.11 dB -15.48 dB 5:00 06-Kegome kai sigoliono - I Burn and Slowly Melt
DR11 0.00 dB -12.87 dB 2:40 07-Mori kontoula lemonia - Little lemon Tree
DR12 0.00 dB -14.81 dB 3:06 08-Alismono kai herome - I Forget and I Am Glad
DR11 0.00 dB -13.28 dB 4:28 09-Tou hel' to kastron - The Castle of the Sun
DR13 0.00 dB -14.61 dB 7:27 10-Yanni mou - My Yanni
––––––––––––––––––––––––––––––––––––––––

Number of tracks: 10
Official DR value: DR12

Samplerate: 44100 Hz
Channels: 2
Bits per sample: 16
Bitrate: 858 kbps
Codec: FLAC
================================================================================

Charles Lloyd & Maria Farantouri - Athens Concert (2011) [2CDs] {ECM 2205/6}
Charles Lloyd & Maria Farantouri - Athens Concert (2011) [2CDs] {ECM 2205/6}
Charles Lloyd & Maria Farantouri - Athens Concert (2011) [2CDs] {ECM 2205/6}
Charles Lloyd & Maria Farantouri - Athens Concert (2011) [2CDs] {ECM 2205/6}


Thanks to the original ripper