Tags
Language
Tags

Charlie Haden And The Liberation Music Orchestra - Dream Keeper (1990)

Posted By: Designol
Charlie Haden And The Liberation Music Orchestra - Dream Keeper (1990)

Charlie Haden And The Liberation Music Orchestra - Dream Keeper (1990)
EAC | FLAC | Tracks (Cue&Log) ~ 258 Mb | Mp3 (CBR320) ~ 116 Mb | Scans included
Label: Polydor/Polygram Jazz | # 847 876-2 | Time: 00:48:42
Experimental Big Band, Post-Bop, Avant-Garde Jazz

Dream Keeper is a jazz album by bassist Charlie Haden that was recorded in 1990 and released by Blue Note Records. The album was nominated for a Grammy award and was voted "Jazz album of the year" in Down Beat magazine's 1991 critic's poll. Haden, Carla Bley and Ray Anderson also placed first in that year's Acoustic Bass, Composer and Trombone poll categories, respectively. The album is the third studio recording by Haden's Liberation Music Orchestra, the follow-up to their 1983 The Ballad of the Fallen.

Dream Keeper is the third Liberation Orchestra recording from Charlie Haden. This time out he pairs orchestra alumni Carla Bley (who wrote all the arrangements), drummer Paul Motian, and tenor saxophonist Dewey Redman with additional jazz heavyweights, like trumpeter Tom Harrell, tenor saxophonists Joe Lovano and Branford Marsalis, trombonist Ray Anderson, and pianist Amina Claudine Myers. Taking the racial and political strife in South Africa and El Salvador as their spiritual focus, Haden and Bley deftly blend South American and African music, jazz, and gospel over the album's five selections. Bley's opening suite, "Dream Keeper," features a particularly effective alternation of somber, sometimes ethereal-sounding choral parts (performed by the Oakland Youth Chorus) and Central American motifs and rhythms (Harrell deserves special mention for his beautiful trumpet work throughout this extended piece). The other lengthy number in the program, "Nkosi Silelel'I Afrika," is an arrangement of "The Anthem of the African National Congress"; it's a fluid, hard swinging piece, which features standout solos by Redman and alto saxophonist Ken McIntyre. Shorter, more whimsically swinging numbers, like "Rabo de Nube" and "Sandino," balance out the set and include fine statements by Lovano and guitarist Mick Goodrick. Haden closes the record with his New Orleans jazz/gospel hybrid tune "Spiritual." An excellent album and one of Haden's best.

Review by Stephen Cook, Allmusic.com

Charlie Haden And The Liberation Music Orchestra - Dream Keeper (1990)



Charlie Haden – double bass
Tom Harrell – trumpet, flugelhorn
Earl Gardner – trumpet
Dewey Redman – tenor saxophone
Joe Lovano – tenor saxophone, flute
Branford Marsalis – tenor saxophone, flute
Ken McIntyre – alto saxophone
Ray Anderson – trombone
Sharon Freeman – French horn
Joseph Daley – tuba
Juan Lazaro Mendolas – wood flute, pan flute
Amina Claudine Myers – piano
Mick Goodrick – guitar
Paul Motian – drums
Don Alias – percussion
Carla Bley – arranger, conductor
The Oakland Youth Chorus, Elizabeth Min, director

Recorded April 4th & 5th, 1990 at Clinton Studios, New York City

Tracklist:

01. Dream Keeper (16:57)
02. Rabo de Nube (5:27)
03. Nkosi Sikelel'i Afrika (10:35)
04. Sandino (6:43)
05. Spiritual (9:00)


Exact Audio Copy V0.99 prebeta 5 from 4. May 2009

EAC extraction logfile from 7. June 2010, 22:10

Charlie Haden / Dream Keeper

Used drive : TSSTcorpCDDVDW SH-S203B Adapter: 4 ID: 0

Read mode : Secure
Utilize accurate stream : Yes
Defeat audio cache : Yes
Make use of C2 pointers : No

Read offset correction : 6
Overread into Lead-In and Lead-Out : No
Fill up missing offset samples with silence : Yes
Delete leading and trailing silent blocks : No
Null samples used in CRC calculations : Yes
Used interface : Native Win32 interface for Win NT & 2000
Gap handling : Appended to previous track

Used output format : User Defined Encoder
Selected bitrate : 768 kBit/s
Quality : High
Add ID3 tag : No
Command line compressor : C:\Program Files\Exact Audio Copy\FLAC\FLAC.EXE
Additional command line options : -8 -V -T "ARTIST=%a" -T "TITLE=%t" -T "ALBUM=%g" -T "DATE=%y" -T "TRACKNUMBER=%n" -T "GENRE=%m" %s


TOC of the extracted CD

Track | Start | Length | Start sector | End sector
––––––––––––––––––––––––––––-
1 | 0:00.00 | 16:56.72 | 0 | 76271
2 | 16:56.72 | 5:26.63 | 76272 | 100784
3 | 22:23.60 | 10:34.55 | 100785 | 148389
4 | 32:58.40 | 6:43.10 | 148390 | 178624
5 | 39:41.50 | 9:00.12 | 178625 | 219136


Track 1

Filename C:\EAC\Charlie Haden - 1990 - Dream Keeper [FLAC]\01 - Dream Keeper.wav

Pre-gap length 0:00:02.00

Peak level 97.1 %
Track quality 100.0 %
Test CRC 9C5ED535
Copy CRC 9C5ED535
Accurately ripped (confidence 5) [B8AA6B65]
Copy OK

Track 2

Filename C:\EAC\Charlie Haden - 1990 - Dream Keeper [FLAC]\02 - Rabo de Nube.wav

Pre-gap length 0:00:03.50

Peak level 97.2 %
Track quality 100.0 %
Test CRC BA3C92C8
Copy CRC BA3C92C8
Accurately ripped (confidence 5) [EBFC0B11]
Copy OK

Track 3

Filename C:\EAC\Charlie Haden - 1990 - Dream Keeper [FLAC]\03 - Nkosi Sikelel'i Afrika.wav

Pre-gap length 0:00:03.33

Peak level 100.0 %
Track quality 100.0 %
Test CRC 154626F9
Copy CRC 154626F9
Accurately ripped (confidence 5) [866ADE4B]
Copy OK

Track 4

Filename C:\EAC\Charlie Haden - 1990 - Dream Keeper [FLAC]\04 - Sandino.wav

Pre-gap length 0:00:02.58

Peak level 99.6 %
Track quality 99.9 %
Test CRC 5DA52D60
Copy CRC 5DA52D60
Accurately ripped (confidence 5) [ADAC3B0F]
Copy OK

Track 5

Filename C:\EAC\Charlie Haden - 1990 - Dream Keeper [FLAC]\05 - Spiritual.wav

Pre-gap length 0:00:02.38

Peak level 92.0 %
Track quality 100.0 %
Test CRC AB26D7CC
Copy CRC AB26D7CC
Accurately ripped (confidence 5) [5F5331C9]
Copy OK


All tracks accurately ripped

No errors occurred

End of status report

[CUETools log; Date: 17.05.2018 1:25:42; Version: 2.1.4]
[CTDB TOCID: HpuMkkdLozqP6rXCvZj53.2MJKE-] found.
Track | CTDB Status
1 | (33/33) Accurately ripped
2 | (33/33) Accurately ripped
3 | (33/33) Accurately ripped
4 | (33/33) Accurately ripped
5 | (32/33) Accurately ripped
[AccurateRip ID: 000b0909-0031b057-3b0b6905] found.
Track [ CRC | V2 ] Status
01 [b8aa6b65|fea297c7] (10+12/29) Accurately ripped
02 [ebfc0b11|171a3ddd] (10+12/29) Accurately ripped
03 [866ade4b|5252c2fc] (09+12/28) Accurately ripped
04 [adac3b0f|0ed4eb41] (09+12/28) Accurately ripped
05 [5f5331c9|f6fe1413] (10+11/28) Accurately ripped
Offsetted by 107:
01 [cd909585] (02/29) Accurately ripped
02 [e12b948d] (02/29) Accurately ripped
03 [7c33a371] (02/28) Accurately ripped
04 [c16f5832] (02/28) Accurately ripped
05 [6c77fa54] (02/28) Accurately ripped

Track Peak [ CRC32 ] [W/O NULL] [ LOG ]
– 100,0 [8AAD3A12] [C6D4EE29]
01 97,1 [9C5ED535] [DF5DC401] CRC32
02 97,2 [BA3C92C8] [29DC3125] CRC32
03 100,0 [154626F9] [0EFF5C3A] CRC32
04 99,6 [5DA52D60] [A0EC92AA] CRC32
05 92,0 [AB26D7CC] [4CDD00D3] CRC32

foobar2000 1.2 / Dynamic Range Meter 1.1.1
log date: 2018-05-17 00:22:17

––––––––––––––––––––––––––––––––––––––––
Analyzed: Charlie Haden / Dream Keeper
––––––––––––––––––––––––––––––––––––––––

DR Peak RMS Duration Track
––––––––––––––––––––––––––––––––––––––––
DR16 -0.25 dB -21.73 dB 16:57 01-Dream Keeper
DR14 -0.24 dB -19.61 dB 5:27 02-Rabo de Nube
DR16 0.00 dB -19.45 dB 10:35 03-Nkosi Sikelel'i Afrika
DR15 -0.03 dB -19.49 dB 6:43 04-Sandino
DR16 -0.72 dB -22.19 dB 9:00 05-Spiritual
––––––––––––––––––––––––––––––––––––––––

Number of tracks: 5
Official DR value: DR15

Samplerate: 44100 Hz
Channels: 2
Bits per sample: 16
Bitrate: 756 kbps
Codec: FLAC
================================================================================

Charlie Haden And The Liberation Music Orchestra - Dream Keeper (1990)

Charlie Haden And The Liberation Music Orchestra - Dream Keeper (1990)